#VERSION:0.83;
#TITLE:GIMME GIMME GIMME (HARDCORE MIX);
#ARTIST:E-ROTIC;
#GENRE:HAPPY HARDCORE;
#CREDIT:B. M'Rey;
#MUSIC:GIMME GIMME GIMME (HARDCORE MIX).ogg;
#BANNER:GIMME GIMME GIMME (HARDCORE MIX)-bn.png;
#BACKGROUND:GIMME GIMME GIMME (HARDCORE MIX)-bg.png;
#CDTITLE:./CDTITLES/DANCEMANIA/SPEED 4.PNG;
#SAMPLESTART:45.908;
#SAMPLELENGTH:15.000;
#OFFSET:-0.180;
#BPMS:0.000=173.077;

//--------------- dance-single - B. M'Rey ----------------
#NOTEDATA:;
#STEPSTYPE:dance-single;
#DESCRIPTION:B. M'Rey;
#DIFFICULTY:Beginner;
#METER:6;
#RADARVALUES:0.271296,0.355382,0.533073,0,0,171,123,48,0,0,0,0.271296,0.355382,0.533073,0,0,171,123,48,0,0,0;
#NOTES:
0000
0000
0000
0000
,
0000
0000
0000
0000
,
0000
0000
0000
0000
,
0000
0000
0000
0000
,
1000
0000
0000
0000
,
0001
0000
0000
0000
,
0010
0000
0000
0000
,
0110
0000
0000
0000
,
1000
0001
0001
1000
,
1000
0000
0010
0000
,
0001
0001
1000
1000
,
0001
0000
1000
0000
,
0100
0100
0010
0010
,
0100
0000
0010
0000
,
0010
0010
0100
0100
,
0010
0000
0001
0000
,
1100
0000
0101
0000
,
0110
0000
0101
0000
,
1010
0000
0101
0000
,
1010
0000
1001
0000
,
0101
0000
1010
0000
,
0101
0000
1010
0000
,
0101
0000
0110
0000
,
1001
0000
0000
0000
,
1000
0000
0001
0000
,
0010
0000
0001
0000
,
0100
0000
0010
0000
,
1000
0000
0100
0000
,
0001
0000
0010
0000
,
0001
0000
0100
0000
,
0010
0000
1000
0000
,
0100
0000
1000
0000
,
0010
0000
0000
0000
,
0001
0001
1000
1000
,
0001
0000
0100
0000
,
0010
0010
0100
0100
,
0010
0000
0001
0000
,
1000
1000
0001
0001
,
1000
0000
0010
0000
,
0100
0100
0010
0010
,
0100
0000
1001
0000
,
1100
0000
0101
0000
,
0110
0000
0101
0000
,
1010
0000
0110
0000
,
1001
0000
0101
0000
,
1010
0000
0101
0000
,
1010
0000
0110
0000
,
0101
0000
0110
0000
,
1001
0000
0101
0000
,
0110
0000
0011
0000
,
1010
0000
0101
0000
,
1010
0000
0110
0000
,
0101
0000
1010
0000
,
0110
0000
1001
0000
,
0101
0000
0110
0000
,
1001
0000
0101
0000
,
1010
0000
0000
0000
,
1000
0000
0000
0000
,
0001
0000
0000
0000
,
0010
0000
0000
0000
,
0001
0000
0000
0000
,
0100
0000
0000
0000
,
0010
0000
0000
0000
,
0001
0000
0000
0000
,
0010
0000
0000
0000
;

//--------------- dance-single - B. M'Rey ----------------
#NOTEDATA:;
#STEPSTYPE:dance-single;
#DESCRIPTION:B. M'Rey;
#DIFFICULTY:Easy;
#METER:8;
#RADARVALUES:0.345863,0.497535,0.133268,0,0,218,206,12,0,0,0,0.345863,0.497535,0.133268,0,0,218,206,12,0,0,0;
#NOTES:
0000
0000
0000
0000
,
0000
0000
0000
0000
,
0000
0000
0000
0000
,
0000
0000
0000
0000
,
1000
0001
0010
0001
,
0100
0010
0001
1000
,
0010
0000
0100
0000
,
0001
0000
0000
0000
,
1000
0001
0010
0100
,
0001
1000
0010
0000
0001
1000
0010
0000
,
1000
0001
0010
0001
,
0100
0000
0001
0000
,
1000
0010
0100
0001
,
0010
0000
1000
0000
,
0001
0000
0010
1000
,
0001
0000
0110
0110
,
0010
0001
1000
0010
,
0100
0001
0010
1000
,
0010
0100
0001
1000
,
0100
0001
0010
0001
,
1000
0010
0100
0001
,
1000
0010
1000
0100
,
0010
1000
0001
0100
,
0010
0000
0000
0000
,
0100
0001
1000
0010
,
1001
1001
0001
0010
,
0100
0001
1000
0010
,
0100
0000
0001
0000
,
1000
0001
0010
0001
,
0100
0010
1000
0010
,
0100
0001
0010
1000
,
0110
0110
0110
0110
,
0110
0000
0000
0000
,
1000
0001
0010
0100
,
0001
0000
1000
0001
0010
0000
0100
0000
,
0001
1000
0010
0100
,
0001
0000
1000
0000
,
0010
0100
0001
1000
,
0010
0000
0001
0000
,
1000
0000
0001
0010
,
0100
0001
1001
1001
,
1001
0010
1000
0001
,
0100
0010
0001
1000
,
0010
0100
0001
1000
,
0010
0100
0001
1000
,
0001
0010
0100
0001
,
0010
1000
0010
0100
,
0010
0001
0010
1000
,
0100
0010
1000
0100
,
0010
0001
0010
0100
,
0010
0001
1000
0010
,
0100
0010
0001
1000
,
0010
0100
0001
1000
,
0010
0100
0001
0100
,
0010
1000
0010
0100
,
0001
0010
1000
0100
,
0010
1000
0010
0100
,
0001
0000
1000
0000
,
0010
0000
0100
0000
,
0001
0000
0010
0000
,
0001
0000
0100
0000
,
0010
0000
1000
0000
,
0100
0000
1000
0000
,
0010
0000
0001
0000
,
0010
0000
0000
0000
;

//--------------- dance-single - B. M'Rey ----------------
#NOTEDATA:;
#STEPSTYPE:dance-single;
#DESCRIPTION:B. M'Rey;
#DIFFICULTY:Medium;
#METER:11;
#RADARVALUES:0.52514,0.606509,0.366488,0.022211,0.033317,331,298,33,2,0,1,0.52514,0.606509,0.366488,0.022211,0.033317,331,298,33,2,0,1;
#NOTES:
0000
0000
0000
0000
,
0000
0000
0000
0000
,
0000
0000
0000
0000
,
0000
0000
0000
0000
,
1000
0001
1000
0000
0010
0000
0100
0000
,
0001
0010
0001
0000
0010
0000
0100
0000
,
1000
0100
1000
0000
0001
0010
0001
0000
,
0110
0000
0001
1000
,
1001
1001
1001
1001
,
0001
0100
0010
0000
1000
0100
0010
0000
,
0110
0110
0110
0110
,
0110
0000
0000
0001
1000
0000
0010
0000
,
0101
0101
0101
0101
,
0001
1000
0000
0100
0000
0010
0000
0001
,
0000
0010
0100
0000
1000
0000
0001
0000
,
0100
0000
0010
0000
0001
1000
0001
1000
,
0001
0000
0100
0000
0001
0010
1000
0000
,
0100
0000
0010
0000
1000
0100
1000
0000
,
0001
0000
0010
0000
0001
0100
0010
0000
,
0010
0000
0100
0000
0010
0100
0010
0000
,
0001
0000
1000
0000
0001
1000
0001
0000
,
0010
0000
0100
0000
0001
0010
0100
0000
,
1000
0000
0010
0000
0001
0100
0010
0000
,
1001
0000
0000
0000
,
1000
0001
0100
0000
0010
0001
0100
0000
,
0110
0000
0110
0000
0001
1000
0010
0100
,
0001
0000
1000
0000
,
0001
0000
0000
1000
0000
0000
0010
0000
0000
0000
0100
0000
0001
0000
0000
0000
,
0010
0000
1000
0000
0000
0000
0001
0000
0010
0000
0000
0001
0000
0000
0100
0000
,
1000
0000
0000
0010
0000
0000
0100
0000
0001
0000
0000
0010
0000
0000
0010
0000
,
1000
0000
0000
0100
0000
0000
0001
0000
0100
0000
0000
0010
0000
0000
0001
0000
,
1001
1001
1001
1001
,
1001
0000
0000
0000
,
0101
0101
0101
0101
,
0001
1000
0010
0000
0100
0010
1000
0000
,
1010
0000
1010
0000
1010
0000
1000
0100
,
0000
0001
0000
0010
0100
0000
0001
0000
,
0110
0000
0110
0000
0110
0000
0100
0010
,
0000
0001
0000
1000
0000
0010
0000
0100
,
0001
0010
1000
0100
,
0001
0000
0010
0000
1000
0001
1000
0001
,
1000
0000
0010
0000
0001
0100
0010
0000
,
0010
0000
1000
0000
0010
0100
0010
0000
,
0001
0000
1000
0000
0010
0100
0001
0000
,
0010
0000
1000
0000
0010
1000
0010
0000
,
0100
0000
0001
0000
0100
0001
0100
0000
,
0010
0000
1000
0000
0010
1000
0010
0000
,
0100
0000
0010
0000
0100
0010
0100
0000
,
0001
0000
0010
0000
0001
0010
0001
0000
,
0100
0001
0010
0000
0001
0100
0010
0000
,
1000
0001
0010
0000
0010
1000
0001
0000
,
0010
0100
0001
0000
0010
1000
0100
0000
,
0001
0010
0001
0000
0100
0010
0001
0000
,
1000
0100
0010
0000
0001
0010
0100
0000
,
0010
1000
0100
0000
0001
0010
0001
0000
,
0100
0010
1000
0000
0100
0001
0010
0000
,
2002
0000
0000
0000
,
3013
1000
0010
0100
,
0001
0010
1000
0010
,
0100
0001
0100
0010
,
0001
1000
0010
0100
,
0001
1000
0001
1000
0001
1000
0001
1000
,
0001
1000
0001
1000
0001
1000
0001
1000
,
0001
1000
0001
1000
0001
1000
0001
1000
,
0001
1000
0001
0000
0000
0000
0000
0000
;

//--------------- dance-single - B. M'Rey ----------------
#NOTEDATA:;
#STEPSTYPE:dance-single;
#DESCRIPTION:B. M'Rey;
#DIFFICULTY:Hard;
#METER:15;
#RADARVALUES:0.767879,0.963279,0.133268,0.033317,0.41091,484,472,12,3,0,0,0.767879,0.963279,0.133268,0.033317,0.41091,484,472,12,3,0,0;
#NOTES:
0000
0000
0000
0000
,
0000
0000
0000
0000
,
0000
0000
0000
0000
,
0000
0000
0000
0000
,
1000
0001
0010
0100
1000
0100
0010
0001
,
0000
1000
0000
0100
0000
0001
0000
0010
,
0100
0000
0000
0000
1000
0000
0001
0000
0010
0000
0000
0100
0000
0000
1000
0000
,
0001
0000
0000
0010
0100
0000
0010
0000
,
0001
1000
0001
1000
0001
1000
0001
1000
,
0000
0010
0100
0010
0000
0001
1000
0000
,
0010
0001
0010
0001
0010
0001
0010
0001
,
0010
0000
1000
0001
0010
0000
0100
0000
,
0010
1000
0010
1000
0010
1000
0010
1000
,
0000
0100
0000
0001
0000
0010
0000
0100
,
0010
0000
0000
0000
0001
0000
1000
0000
0010
0000
0000
0100
0000
0000
0001
0000
,
1000
0000
0010
0000
1001
1001
1001
1000
,
0001
0000
0100
0000
1000
0000
0001
0010
0000
0100
1000
0000
0010
0000
0100
0000
,
0001
0000
0010
0000
1000
0000
0100
0010
0000
0001
1000
0000
0010
0000
0100
0000
,
0001
0000
1000
0000
0100
0000
0010
0001
0000
1000
0100
0000
0010
0000
0001
0000
,
1000
0000
0010
0000
0100
0000
0001
0010
0000
1000
0100
0000
0001
0000
1000
0000
,
0001
0000
1000
0000
0010
0000
0100
0010
0000
0001
1000
0000
0010
0000
0100
0000
,
0001
0000
0010
0000
1000
0000
0100
0010
0000
0001
1000
0000
0010
0000
0100
0000
,
0001
0000
0010
0000
1000
0000
0100
0001
0000
0010
1000
0000
0010
0000
0100
0000
,
0001
1000
0010
0100
,
0001
0000
1000
0000
0010
0000
0100
0000
0010
0000
0001
0000
1000
0000
0010
0100
,
0000
0000
0001
0010
0000
0000
0100
0000
1000
0000
0001
0000
0010
0000
0001
0000
,
0100
0000
0000
0001
0000
0000
0010
0000
1000
0000
0010
0100
0010
0000
0001
0000
,
1010
0000
0000
1010
0000
0000
1010
0000
0000
0000
1000
0000
0001
0000
0100
0010
,
0001
0000
1000
0000
0000
0000
0001
0100
1000
0001
0010
0000
0100
0000
0001
0000
,
1000
0010
0100
0001
0010
0001
0100
0000
,
1000
0001
1000
0000
0010
0000
0100
0000
0001
0000
0010
0000
1000
0000
0100
0000
,
0002
0000
0000
2003
0000
0000
3010
0001
1000
0010
0100
0001
,
0010
0000
0110
0110
,
0001
1000
0001
1000
0001
1000
0001
1000
,
0000
0010
0100
0001
0000
0010
1000
0000
,
0001
0100
0001
0100
0001
0100
0001
0100
,
0002
0000
1000
0000
0100
0000
0010
0003
,
0010
1000
0010
1000
0010
1000
0010
1000
,
0000
0100
0000
0001
0000
0010
0000
0100
,
0010
0001
1000
0001
1000
0001
1000
0001
,
1000
0001
1000
0001
1000
0001
1000
0000
1001
0000
1001
0000
1001
0000
1001
0000
,
0001
0000
0100
0000
1000
0000
0001
0010
0000
0100
1000
0000
0010
0000
0100
0000
,
0001
0000
0010
0000
1000
0000
0100
0010
0000
0001
1000
0000
0010
0000
0100
0000
,
0001
0000
1000
0000
0100
0000
0010
0001
0000
1000
0100
0000
0010
0000
0001
0000
,
1000
0000
0010
0000
0100
0000
0001
0010
0000
1000
0100
0000
0001
0000
1000
0000
,
0001
0000
1000
0000
0010
0000
0100
0010
0000
0001
1000
0000
0010
0000
0100
0000
,
0001
0000
0010
0000
1000
0000
0100
0010
0000
0001
1000
0000
0010
0000
0100
0000
,
0001
0000
0010
0000
1000
0000
0100
0001
0000
0010
1000
0000
0010
0000
0100
0000
,
0001
0010
1000
0001
0010
1000
0100
0010
,
1000
0000
0010
0000
0001
0000
1000
0100
0000
0010
0001
0000
0100
0000
0010
0000
,
1000
0000
0100
0000
0001
0000
0010
0100
0000
1000
0001
0000
0100
0000
0010
0000
,
1000
0000
0001
0000
0010
0000
0100
1000
0000
0001
0010
0000
0100
0000
1000
0000
,
0001
0000
0100
0000
0010
0000
1000
0100
0000
0001
0010
0000
1000
0000
0001
0000
,
1000
0000
0001
0000
0100
0000
0010
0100
0000
1000
0001
0000
0100
0000
0010
0000
,
1000
0000
0100
0000
0001
0000
0010
0100
0000
1000
0001
0000
0100
0000
0010
0000
,
1000
0000
0100
0000
0001
0000
0010
1000
0000
0100
0001
0000
0100
0000
0010
0000
,
1000
0001
0100
0010
,
1000
0001
0100
0010
0100
1000
0001
0100
,
0001
1000
0100
0010
0001
1000
0100
1000
,
0010
0001
1000
0100
0001
0100
0010
1000
,
0001
0000
0100
0000
0001
0000
0100
0000
0001
0000
0100
0000
1000
0000
0010
0100
,
1000
0000
0001
0000
0010
0000
1000
0010
0001
0000
0100
0000
0010
0000
1000
0010
,
0001
0000
0100
0000
0010
0000
1000
0010
0100
0000
1000
0000
0010
0000
0000
0000
,
0001
1000
0001
1000
0001
1000
0001
1000
0001
1000
0001
1000
0001
1000
0001
1000
,
0001
1000
0001
1000
0001
0000
0000
0000
0000
0000
0000
0000
0000
0000
0000
0000
;
