#VERSION:0.83;
#TITLE:GET UP (MIAMI BOOTY MIX);
#ARTIST:CAPTAIN JACK;
#GENRE:MIAMI BASS;
#CREDIT:B. M'Rey;
#MUSIC:GET UP (MIAMI BOOTY MIX).ogg;
#BANNER:GET UP (MIAMI BOOTY MIX)-bn.png;
#BACKGROUND:GET UP (MIAMI BOOTY MIX)-bg.png;
#CDTITLE:./CDTITLES/DANCEMANIA BASS#7.png;
#SAMPLESTART:43.382;
#SAMPLELENGTH:15.000;
#OFFSET:-0.097;
#BPMS:0.000=133.018;

//--------------- dance-single - B. M'Rey ----------------
#NOTEDATA:;
#STEPSTYPE:dance-single;
#DESCRIPTION:B. M'Rey;
#DIFFICULTY:Beginner;
#METER:3;
#RADARVALUES:0,0,0,0,0;
#NOTES:
0000
0000
0000
0000
,
0000
0000
0000
0000
,
0000
0000
0000
0000
,
0000
0000
0000
0000
,
1000
0000
0001
0000
,
1000
0000
0001
0000
,
0010
0010
0010
0010
,
0010
0000
0000
0000
,
1000
0000
0001
0000
,
0100
0000
0010
0010
,
0000
1000
1000
0000
,
0001
0000
0100
0000
,
0010
0000
1000
0000
,
0001
0000
0100
0100
,
0000
0010
0010
0000
,
0001
0000
1000
0000
,
0001
1000
0001
0000
,
0000
0000
0000
0000
,
0100
0010
0100
0000
,
0000
0000
0000
0000
,
1000
0100
1000
0000
,
0000
0000
0000
0000
,
0001
0010
0001
0000
,
1001
0000
0000
0000
,
0010
0010
0010
0000
,
0100
0000
1000
0000
,
0001
0001
0001
0000
,
0100
0000
1000
0000
,
0100
0100
0100
0000
,
1000
0000
0010
0000
,
0001
0001
0001
0000
,
1001
0000
0000
0000
,
1000
0000
0010
0000
,
0100
0000
0001
0001
,
0000
0100
0100
0000
,
1000
0000
0010
0000
,
0100
0000
0001
0000
,
0010
0000
1000
1000
,
0000
0001
0001
0000
,
0010
0000
0100
0000
,
0001
0000
0000
0000
,
1000
0000
0000
0000
,
0100
0000
0000
0000
,
1000
0000
0000
0000
,
0010
0000
0001
0000
,
1001
0000
0010
0000
,
0100
0000
1000
0000
,
0100
0000
0000
0000
;

//--------------- dance-single - B. M'Rey ----------------
#NOTEDATA:;
#STEPSTYPE:dance-single;
#DESCRIPTION:B. M'Rey;
#DIFFICULTY:Easy;
#METER:5;
#RADARVALUES:0,0,0,0,0;
#NOTES:
0000
0000
0000
0000
,
0000
0000
0000
0000
,
0000
0000
0000
0000
,
0000
0000
0000
0000
,
0001
0100
0010
0100
,
0010
0100
0001
1000
,
0001
0010
0001
0010
,
0110
0000
0000
0000
,
0100
1000
0001
1000
,
0001
0010
0001
0010
,
0100
0010
0100
1000
,
0001
1000
0001
0100
,
0001
0100
0010
0100
,
0010
1000
0010
1000
,
0001
1000
0001
0100
,
0002
0000
0013
0000
,
0010
1000
0010
0000
,
0001
1000
0001
0010
,
0001
0010
0100
0000
,
0100
1000
0100
0010
,
0001
0100
0001
0000
,
0001
1000
0100
1000
,
0100
0010
0100
0000
,
0001
0000
0000
0000
,
0001
0010
0100
0000
,
0001
0010
0100
1000
,
0100
1000
0100
0000
,
0001
1000
0001
1000
,
0001
0100
0010
0000
,
0010
0100
0001
0010
,
0001
0010
0001
0000
,
0100
0010
0100
0000
,
0001
0010
0001
1000
,
0001
0100
0010
0100
,
0010
0100
0001
0010
,
0100
1000
0100
1000
,
0100
0010
0001
0100
,
0001
0100
0001
1000
,
0010
1000
0100
1000
,
0200
0000
1300
0000
,
0001
0000
0010
0000
,
0001
1000
0010
0000
,
1000
0000
0100
0000
,
0010
0000
0100
0000
,
0010
0100
0001
0100
,
0010
1000
0001
1000
,
0001
1000
0100
0010
,
0200
0000
0301
0000
;

//--------------- dance-single - B. M'Rey ----------------
#NOTEDATA:;
#STEPSTYPE:dance-single;
#DESCRIPTION:B. M'Rey;
#DIFFICULTY:Medium;
#METER:7;
#RADARVALUES:0,0,0,0,0;
#NOTES:
0000
0000
0000
0000
,
0000
0000
0000
0000
,
0000
0000
0000
0000
,
0000
0000
0000
0000
,
0001
1000
0100
1000
,
0001
1000
0001
0010
,
0001
0010
0100
0010
,
0101
0000
0000
0000
,
0010
0000
0100
0000
0010
0000
0100
1000
,
0000
1000
0001
0000
0010
0000
0010
0100
,
0000
1000
0001
0000
0001
0000
0001
1000
,
0000
1000
0100
0000
0001
0000
0100
0000
,
0010
0000
0100
0000
0010
1000
0000
0010
,
0000
0100
0010
0000
0010
1000
0000
0001
,
0000
1000
0010
0000
0010
0100
0000
1000
,
0001
0000
0000
1000
0000
0000
0010
0000
0001
0000
0000
0000
0000
0000
0000
0000
,
0100
0000
0100
1000
0010
0000
0010
0100
,
0000
1000
0001
1000
,
0001
0000
0001
0100
0010
0000
0010
1000
,
0001
0010
0001
0010
,
0100
0000
0100
1000
0001
0000
0001
0010
,
0000
0010
0100
0000
1000
0000
0100
0000
,
0001
0000
0001
0010
0001
0000
0100
0000
,
0100
0000
0000
0000
,
0100
0000
0100
0000
0100
0000
0001
1000
,
0010
1000
0100
0000
0001
0100
0001
0000
,
0010
0000
0010
0000
0010
0000
0001
1000
,
0001
0100
0010
0000
0010
0100
0010
0000
,
0001
0000
0001
0000
0001
0000
0010
0100
,
0010
0100
0001
0000
0010
1000
0010
0000
,
1000
0000
1000
0000
1000
0000
0001
0010
,
0001
0000
0001
0000
0100
0000
0100
0010
,
0010
0000
0100
0000
0010
0000
0100
1000
,
0000
1000
0001
0000
0010
0000
0010
0100
,
0000
1000
0001
0000
0001
0000
0001
1000
,
0000
1000
0100
0000
0001
0000
0100
0000
,
0010
0000
0100
0000
0010
1000
0000
0010
,
0000
0100
0010
0000
0010
1000
0000
0001
,
0000
1000
0010
0000
0010
0100
0000
1000
,
0001
0000
0000
1000
0000
0000
0010
0000
0001
0000
0000
0000
0000
0000
0000
0000
,
0001
1000
0100
1000
,
0100
0010
0001
0010
,
0001
0010
0100
1000
,
0100
1000
0100
0010
,
0001
1000
0010
0000
0100
1000
0100
0000
,
0100
0000
0001
0000
0001
0100
0001
0000
,
0010
0100
0010
0000
0010
1000
0001
0000
,
0001
0000
0000
0100
0000
0000
0100
0000
0020
0000
0000
0000
0000
0000
0000
0000
,
0030
0000
0000
0000
;

//--------------- dance-single - B. M'Rey ----------------
#NOTEDATA:;
#STEPSTYPE:dance-single;
#DESCRIPTION:B. M'Rey;
#DIFFICULTY:Hard;
#METER:11;
#RADARVALUES:0,0,0,0,0;
#NOTES:
0000
0000
0000
0000
,
0000
0000
0000
0000
,
0000
0000
0000
0000
,
0000
0000
0000
0000
,
0001
1000
0001
1000
0001
0100
0010
0100
,
0010
0100
0001
1000
0001
1000
0001
0010
,
0100
0010
0100
0010
0001
1000
0001
0000
,
1001
0000
0000
0000
,
0010
1000
0001
0100
0010
0100
0010
0200
,
0000
0310
0001
0010
0001
0100
0010
0100
,
0000
0100
0001
1000
0100
0010
0100
0010
,
0000
1000
0001
0010
0100
1000
0001
1000
,
0000
0100
0001
0100
0001
0100
0010
2000
,
0000
3100
0001
0010
0001
1000
0001
1000
,
0000
0100
0001
1000
0010
1000
0010
0100
,
0010
0000
0000
0001
0000
0000
1000
0000
0020
0000
0000
0000
0000
0000
0000
0000
,
0130
0000
0000
0010
0100
0000
1000
0000
0001
0000
0000
0000
0001
0000
0010
0000
,
0001
0010
0100
0010
0100
1000
0010
0000
,
0001
1000
0000
0010
0100
0000
0010
0000
0001
0000
0000
0000
0001
0000
0100
0000
,
0001
1000
0010
1000
0010
1000
0100
0000
,
0100
0010
0000
1000
0001
0000
0100
0000
0001
0000
0000
0000
0001
0000
1000
0000
,
0010
0100
0010
0100
0001
0010
0100
0000
,
0001
0010
0000
1000
0010
0000
0100
0000
0010
0000
0000
0000
0001
0000
0100
0000
,
0001
0010
0001
1000
,
0100
0000
1000
0000
0010
0000
1000
0000
0100
0000
0010
0000
0100
0000
0010
0100
,
0000
0100
1000
0000
0020
0000
0000
0000
0130
0001
0000
0100
0001
0000
0100
0000
,
0001
0000
1000
0000
0010
0000
1000
0000
0001
0000
1000
0000
0100
0000
0010
0001
,
0000
0001
0010
0000
0002
0000
0000
0000
0103
1000
0000
1000
0100
0000
1000
0000
,
0001
0000
1000
0000
0001
0000
0010
0000
0100
0000
0010
0000
0100
0000
1000
0100
,
0000
0100
1000
0000
0010
0000
0100
0000
0001
0100
0000
0100
0001
0000
1000
0000
,
0001
0010
0100
0010
0001
1000
0001
0100
,
0010
0100
0010
1000
0010
0100
0001
0100
,
0001
0010
0100
0010
0100
0010
0001
1000
,
0000
1000
0001
0100
0001
1000
0010
0100
,
0000
0100
0010
1000
0001
0010
0100
0010
,
0000
0010
0001
0100
0010
0100
0001
0010
,
0000
0100
0010
0100
0001
0100
0010
1000
,
0000
0100
0010
1000
0100
0010
0100
1000
,
0000
0010
0001
0010
0001
0100
0010
1000
,
0010
0000
0000
0001
0000
0000
0100
0000
0002
0000
0000
0000
0000
0000
0000
0000
,
0013
1000
0100
1000
,
0010
0100
0010
1000
,
0100
1000
0010
1000
,
0001
0100
0010
0100
,
0001
0010
0001
0010
0001
0100
0010
1000
,
0100
0010
0100
0010
0100
1000
0010
1000
,
0100
1000
0100
0010
0001
0100
0001
0010
,
0100
0000
0000
1000
0000
0000
0100
0000
0002
0000
0000
0000
0000
0000
0000
0000
,
0003
0000
0000
0000
;
