#VERSION:0.83;
#TITLE:Fascination MAXX (Pure AA Mix);
#ARTIST:Detach;
#GENRE:TRANCE;
#CREDIT:B. M'Rey;
#MUSIC:Fascination MAXX (Pure AA Mix).ogg;
#BANNER:Fascination MAXX (Pure AA Mix)-bn.png;
#BACKGROUND:Fascination MAXX (Pure AA Mix)-bg.png;
#CDTITLE:./CDTITLES/DDR LEGACY.PNG;
#SAMPLESTART:61.768;
#SAMPLELENGTH:15;
#OFFSET:-0.054;
#BPMS:0=70,17=140,113=70,120=140,184=35,185=70,199=35;
#DISPLAYBPM:*;

//--------------- dance-single - B. M'Rey ----------------
#NOTEDATA:;
#STEPSTYPE:dance-single;
#DESCRIPTION:B. M'Rey;
#DIFFICULTY:Beginner;
#METER:4;
#RADARVALUES:0,0,0,0,0;
#NOTES:
0000
0000
0000
0000
,
0000
0000
0000
0000
,
0000
2002
0000
0000
,
0000
0000
0000
0000
,
0000
3003
0100
0000
0000
0000
0010
0000
,
0000
0001
0000
1000
,
0000
0010
0000
0100
,
0000
0010
0000
1000
,
0000
0001
0000
0010
,
0000
0001
0000
0100
,
0000
0010
0000
1000
,
0000
0001
0000
0100
,
0000
0010
0000
1000
,
0000
0100
0000
1000
,
0000
0010
0000
0100
,
0000
0001
0000
0010
,
0000
0001
0000
0100
,
0000
0010
0000
1000
,
0000
0010
0000
0100
,
0000
0001
0000
1000
,
0000
1001
0000
0101
,
0000
0110
0000
1010
,
0000
0110
0000
1001
,
0000
0101
0000
0110
,
0000
1010
0000
0101
,
0000
0110
0000
1010
,
0000
0101
0000
0110
,
0000
1001
0000
1010
,
0000
0100
0000
0000
,
0000
0000
0000
0000
,
0001
0000
0000
1000
,
0010
0000
0100
0000
,
0010
0000
0000
0001
,
0010
0000
0000
0000
,
1001
0000
0000
0100
,
0010
0000
1000
0000
,
0001
0010
0100
0001
,
1000
0000
0010
0000
,
1000
0001
0010
0100
,
0000
1000
0000
0001
,
0001
0010
0100
1000
,
0000
0010
0000
0100
,
1000
0100
0010
0001
,
0001
0010
0100
1000
,
1000
0100
0010
0001
,
0001
1000
0010
0100
,
0002
0000
1003
0000
0000
0010
0100
0000
,
0001
0000
1000
0000
0000
0010
0100
0001
,
0000
1000
0010
0000
0000
0100
0010
0000
,
1000
0000
0001
0010
0100
0001
0020
0000
,
0000
0200
0000
0330
;

//--------------- dance-single - B. M'Rey ----------------
#NOTEDATA:;
#STEPSTYPE:dance-single;
#DESCRIPTION:B. M'Rey;
#DIFFICULTY:Easy;
#METER:7;
#RADARVALUES:0,0,0,0,0;
#NOTES:
0000
0000
0000
0000
,
0000
0000
0000
0000
,
0000
2002
0000
0000
,
0000
0000
0000
0000
,
0000
3003
1000
0000
0010
0000
0100
0000
,
1000
0100
0001
0010
,
0100
0001
0010
1000
,
0100
0010
1001
0000
,
0101
0010
1000
0100
,
0010
1000
0100
0001
,
0010
0100
0010
1000
,
0001
0100
1001
0000
,
0101
0010
1000
0100
,
1000
0010
0100
0010
,
0001
0010
1000
0100
,
1000
0010
0100
0101
,
1010
0001
0010
0100
,
0010
0001
1000
0100
,
0010
1000
0100
0010
,
1000
0100
1010
0101
,
0010
1000
0000
0001
,
0010
0100
0000
0001
,
1000
0100
0000
0010
,
1000
1001
0000
1001
,
0000
0010
0100
0001
,
0000
1000
0100
0010
,
0000
0001
0100
0010
,
0000
1010
0000
0101
,
0000
0020
0000
1030
,
0000
0000
0200
0000
,
0310
1000
0010
1000
,
0001
0010
0001
0010
,
0100
0010
0100
1000
,
0001
1000
0001
0100
,
0001
1000
0100
1000
,
0001
0100
0001
0010
,
0100
1000
0010
1000
,
0001
0100
0010
1000
,
0010
1000
0100
0010
,
0001
0100
0010
1000
,
0100
1000
0100
0010
,
0100
1000
0001
1000
,
0100
0010
0001
1000
,
0001
1000
0100
1000
,
0100
0010
0100
1000
,
0001
1000
0100
0010
,
2002
0000
0000
3003
0010
0000
0000
0000
0100
0000
0001
0000
0010
0000
0000
0000
,
1000
0000
0010
0100
0001
0010
0001
1000
,
0000
0010
0100
0000
0001
0010
0001
0100
,
0010
1000
0100
0010
1000
0001
0200
0000
,
0000
0020
0000
0330
;

//--------------- dance-single - B. M'Rey ----------------
#NOTEDATA:;
#STEPSTYPE:dance-single;
#DESCRIPTION:B. M'Rey;
#DIFFICULTY:Medium;
#METER:8;
#RADARVALUES:0,0,0,0,0;
#NOTES:
0000
0000
0000
0000
,
0000
0000
0000
0000
,
0000
0200
0000
0320
,
0000
2030
0000
3002
,
0000
0103
1000
0010
,
0100
0001
0100
0010
,
0100
0001
0010
0001
,
0010
0100
1000
0010
,
0100
0010
0001
0000
0100
0000
0010
0000
,
1000
0001
0100
0010
,
0100
0001
0010
0001
,
1000
0000
0100
0001
1000
0000
0010
0100
,
1000
0000
0100
0000
0010
0000
0100
0001
,
0010
0000
0100
0000
1000
0000
0010
0100
,
1000
0000
0001
0000
0100
0000
0010
0001
,
1000
0000
0010
0000
0100
0000
0001
1000
,
0100
0000
0010
0000
0100
0000
0010
0001
,
1000
0000
0100
0000
1000
0000
0010
0100
,
1000
0000
0001
0000
0100
0000
0001
0010
,
1000
0000
0010
0001
1000
0000
0100
0001
,
0010
0100
0010
0001
,
1000
0100
0010
0100
,
1000
0001
1000
0010
,
0100
0010
0100
0010
,
1000
0100
0010
0100
,
1000
0001
0010
0001
,
0010
0100
0010
0001
,
0100
0010
0100
0010
,
0100
0000
1000
0001
0010
0001
0202
0000
,
0000
0000
0000
0303
0010
1000
0100
0001
,
0010
0000
1000
0000
0001
0000
0001
0010
,
0100
0010
1000
0100
,
1010
0000
0001
0000
0100
0000
0001
0010
,
1000
0000
0100
0000
0010
1000
0100
0000
,
0110
0000
0001
0000
0010
0000
0001
1000
,
0100
0010
1010
0100
,
0010
0100
0001
0000
0010
1000
0100
0000
,
1010
0100
1010
0100
,
0001
0010
0100
1000
0100
0010
0001
0000
,
0010
0100
0010
0100
,
0001
0010
0100
1000
0100
0010
0001
0000
,
0010
0100
1000
0100
,
0001
0010
0100
1000
0100
0010
0001
0000
,
0001
0010
0100
1000
0100
0010
0001
0000
,
0001
0010
0100
1000
0100
0010
0001
0000
,
0001
0010
1000
0000
0001
0100
0010
0000
,
1001
0000
0001
0010
0100
1000
0001
0010
,
0100
1000
0100
0010
0001
0010
0100
0010
,
0001
1000
0100
0010
0001
1000
0001
1000
,
0010
0100
0010
0100
0001
0100
2000
0000
,
0000
0002
0000
3003
;

//--------------- dance-single - B. M'Rey ----------------
#NOTEDATA:;
#STEPSTYPE:dance-single;
#DESCRIPTION:B. M'Rey;
#DIFFICULTY:Hard;
#METER:10;
#RADARVALUES:0,0,0,0,0;
#NOTES:
0000
0000
0000
0000
,
0000
0000
0000
0000
,
0000
2000
0000
3020
,
0000
0230
0000
0302
,
0000
0000
0013
0000
1000
0000
0010
0001
,
0100
0000
1000
0000
0100
0000
0010
0100
,
1000
0000
0001
0000
0010
0000
0001
1000
,
0100
0000
0010
0000
1000
0000
0100
0001
,
1000
0010
0100
0000
0001
0000
1000
0001
,
0010
0000
0100
0000
0001
0000
0010
0100
,
1000
0000
0100
0000
1000
0000
0010
0001
,
0100
0000
0001
0100
0001
0000
0010
1000
,
0100
0000
0001
0010
0001
0000
1000
0010
,
0100
0000
0010
1000
0010
0000
0100
0001
,
1000
0000
0001
0010
0001
0000
0100
1000
,
0010
0000
0001
1000
0001
0000
0010
1000
,
0100
0000
0001
0010
0001
0000
1000
0100
,
0010
0000
0100
1000
0100
0000
0010
0001
,
0100
0000
0001
0010
0001
0000
1000
0100
,
0010
0000
0100
0010
0100
0000
0001
0010
,
1000
0000
1001
0000
0110
0000
0001
0010
,
1000
0000
1010
0000
0101
0000
0010
0100
,
0010
0000
0101
0000
1010
0000
0010
0100
,
0010
0000
1010
0000
0101
0000
0010
0100
,
0010
0000
1010
0000
0101
0000
0010
1000
,
0100
0000
0101
0000
1010
0000
0010
0100
,
0001
0000
1010
0000
0101
0000
0010
0100
,
1000
0000
0110
0000
0101
0000
0010
1000
,
0100
0002
0000
2000
,
0000
0000
0000
0000
0000
0000
0000
0003
0200
0000
0000
0000
0000
0000
3000
0000
,
0310
0000
0001
1000
0010
0000
0001
1000
,
0100
0010
1001
0010
,
0100
0000
0010
0001
1000
0000
0100
0010
,
1000
0000
0001
0100
0010
0000
1001
0000
,
0001
0000
0010
1000
0100
0000
0001
0010
,
1000
0000
0100
1000
0100
0000
0010
0000
,
0101
1010
0110
0101
,
0010
1000
0100
0000
0001
0010
0001
0000
,
0001
0010
0100
1000
0100
0010
0001
0000
,
0010
0100
1000
0100
,
0001
0010
0100
1000
0100
0010
0001
0000
,
0010
0100
1000
0100
,
0001
0010
0100
1000
0001
0010
0100
0000
,
1000
0100
0010
0001
1000
0100
0010
0000
,
0001
0010
1000
0001
0100
0010
1000
0001
,
0100
0010
1000
0000
0001
0100
0010
1000
,
0200
0000
0000
0000
0000
0000
0000
0000
0000
0000
0000
0000
0310
0000
0000
0000
0000
0000
0001
0000
0000
1000
0000
0000
0001
0000
0000
0100
0000
0000
0010
0000
0100
0000
0010
0000
0100
0000
0000
0000
0000
0000
1010
0000
0000
0000
0000
0000
,
0001
0100
0001
0000
0100
1000
0100
0010
0100
0010
0001
0010
0001
0000
1001
0000
,
0010
0100
1001
0000
0010
0000
0010
0100
0001
0000
0010
0100
0001
0100
0010
1000
,
0001
0100
0010
0100
0010
0100
0001
0010
0100
1000
0100
0010
0002
0000
0000
0000
,
0000
2000
0000
3003
;

//--------------- dance-single - B. M'Rey ----------------
#NOTEDATA:;
#STEPSTYPE:dance-single;
#DESCRIPTION:B. M'Rey;
#DIFFICULTY:Challenge;
#METER:12;
#RADARVALUES:0,0,0,0,0;
#NOTES:
0000
0000
0000
0000
,
0000
0000
0000
0000
,
0000
0002
0000
0203
,
0000
0320
0000
2030
,
0000
0000
3001
0010
0001
0010
0001
0010
,
0100
0010
0100
1000
0100
1000
0100
1000
,
0100
0010
0100
0010
0100
0010
0100
0010
,
0100
0000
0001
0000
0010
0000
0001
0000
0010
0000
0001
0000
0010
0000
0000
0100
,
0010
0100
1000
0100
1000
0100
1000
0100
,
0010
0100
0010
0100
0010
0100
0001
0010
,
0001
0010
0100
0010
0100
0010
0100
1000
,
0100
0000
1000
0000
0010
0000
0100
0010
0100
0000
0100
0000
0001
0010
0000
0100
,
1000
0100
0001
1000
0010
0100
0001
1000
,
0010
0100
0001
0010
0001
0010
0100
0010
,
1000
0100
0010
0100
0001
0100
0010
0100
,
0010
1000
0100
0001
0010
1000
0100
0010
,
1000
0100
1000
0010
0100
0001
0010
0001
,
0100
0010
1000
0100
1000
0100
0010
0100
,
0010
0100
0001
0010
0001
1000
0010
1000
,
0010
0000
0100
0000
0010
0000
0100
0001
0100
0000
0010
0000
1000
0010
0000
1000
,
0100
0000
0010
0000
0101
0000
0000
1010
0000
0000
0010
0000
0110
0000
0000
0011
,
0000
0000
0100
0000
1001
0000
0000
1010
0000
0000
1000
0000
0110
0000
0000
0011
,
0000
0000
0100
0000
1001
0000
0000
1010
0000
0000
0100
0000
1010
0000
0000
0110
,
0000
0000
0100
0000
0011
0000
0000
1010
0000
0000
0010
0000
1010
0000
0000
0110
,
0000
0000
0100
0000
0101
0000
0000
1010
0000
0000
1000
0000
0110
0000
0000
0011
,
0000
0000
0100
0000
1001
0000
0000
1010
0000
0000
0100
0000
1010
0000
0000
0110
,
0000
0000
0100
0000
0011
0000
0000
1001
0000
0000
0010
0000
1010
0000
0000
0110
,
0000
0000
0100
0000
1010
0000
0100
0010
0100
0000
0010
0000
0100
0010
0000
1000
,
0001
0000
0010
0000
1000
0001
1000
0001
1000
0001
1000
0001
2000
0000
0000
0000
,
0000
0000
0000
0000
0000
0000
0000
0000
3001
0010
0001
0010
0001
0010
0001
0010
,
0100
0000
0000
1000
0000
0000
0001
0000
0000
0010
1000
0001
,
0100
0010
1001
0110
,
0001
0000
1000
0010
0100
0000
0001
0010
,
0100
0000
1001
0000
0010
0100
1000
0000
,
0110
0000
0001
0000
0010
0000
1000
0100
,
1000
0000
0010
0100
0010
0000
1001
0000
,
0010
0001
0100
0000
0010
1000
0100
0000
,
1010
0000
0100
0001
0100
0000
0110
0000
0010
1000
0000
1000
0010
0000
0001
0000
,
1000
0010
0100
0010
0100
0001
1001
0000
,
0010
0100
0100
0000
0010
0010
0100
0000
,
0001
0010
1000
0100
0010
1000
0110
0000
,
0001
0001
0010
0000
1000
1000
0100
0000
,
0010
0100
0001
0010
0100
1000
1001
0000
,
0010
0100
0010
0100
0001
0010
0101
0000
,
0010
0100
1000
0100
0010
0100
0010
1000
,
0001
0000
0100
0001
0010
0000
1000
0000
0100
0010
0000
0100
1000
0000
0100
0000
,
2002
0000
0000
0000
0000
0000
0000
0000
0000
0000
0000
0000
0000
0000
0000
0000
0000
0000
0000
0000
0000
3003
0000
0000
0001
0000
0000
0000
0000
0000
0000
0000
0000
0000
0000
0000
1000
0000
0000
0000
0000
0000
0000
0000
0000
0000
0000
0000
0010
0000
0000
0000
0000
0000
0000
0000
0000
0000
0000
0000
0100
0000
0000
0000
0001
0000
0000
0000
1000
0000
0000
0000
0010
0000
0000
0000
0000
0000
0000
0000
0000
0000
0000
0000
0100
0000
0000
0000
0000
0000
0000
0000
0000
0000
0000
0000
,
0101
0000
0010
0000
1000
0100
0001
0010
0100
0010
0001
1000
0100
0000
1001
0000
,
0010
0100
0101
0000
0010
0000
1000
0000
0100
0000
0010
0100
0010
1000
0100
0010
,
0100
0000
0001
0000
0010
0000
1000
0000
0100
0000
0010
0000
1000
0000
0010
0000
0100
0000
0010
0000
0100
0000
0000
0000
0100
0001
0100
0001
0100
0001
0100
0001
,
0200
0000
0000
0000
0000
0000
0000
0300
2002
0000
0000
0000
0000
0000
0000
0000
0000
0000
0000
0000
0000
0000
0000
0000
3003
0000
0000
0000
0000
0000
0000
0000
;
