#VERSION:0.83;
#TITLE:FIRE;
#ARTIST:SCOOTER;
#GENRE:HARD HOUSE;
#CREDIT:B. M'Rey;
#MUSIC:FIRE.ogg;
#BANNER:FIRE-BN.png;
#BACKGROUND:FIRE-BG.png;
#CDTITLE:./CDTITLES/ZIPMANIA BEST.PNG;
#SAMPLESTART:57.900;
#SAMPLELENGTH:15.000;
#OFFSET:-0.100;
#BPMS:0.000=142.021;

//--------------- dance-single - B. M'Rey ----------------
#NOTEDATA:;
#STEPSTYPE:dance-single;
#DESCRIPTION:B. M'Rey;
#DIFFICULTY:Beginner;
#METER:4;
#RADARVALUES:0.185278,0.258984,0.064847,0.021616,0,120,114,6,2,0,0,0.185278,0.258984,0.064847,0.021616,0,120,114,6,2,0,0;
#NOTES:
0000
0000
0000
0000
,
0000
0000
0000
0000
,
0000
0000
0000
0000
,
0000
0000
0000
0000
,
0000
0000
0000
0000
,
0000
0000
0000
0000
,
0000
0000
0000
0000
,
0000
0000
1000
0000
,
1000
0000
1001
0000
,
0000
0000
1000
0000
,
0001
0000
0100
0100
,
0100
0100
0010
0000
,
0001
0000
0001
0001
,
0001
0001
1000
0000
,
0010
0000
0100
0100
,
0100
0100
0010
0000
,
1000
0000
0001
0001
,
0001
0001
0100
0000
,
0000
0000
0010
0000
,
0000
0000
1000
0000
,
0000
0000
0001
0000
,
0000
0000
0100
0000
,
0000
0000
0010
0000
,
0000
0000
0001
0000
,
0000
0000
1001
1001
,
1001
0000
1000
0000
,
0001
0000
1000
0001
,
1000
0001
0010
0000
,
0100
0000
0010
0100
,
0010
0100
0001
0000
,
0010
0000
0001
0010
,
0001
0010
1000
0000
,
0100
0000
1000
0100
,
1000
0100
0110
0000
,
0000
0000
0000
0100
,
0100
0100
0010
0000
,
0001
0000
1000
1000
,
1000
1000
0010
0000
,
0100
0000
0001
0001
,
0001
0001
0100
0000
,
0010
0000
1000
1000
,
1000
1000
0100
0000
,
0010
0000
0100
0100
,
0100
0100
0001
0000
,
0010
0000
1000
1000
,
1000
1000
0100
0000
,
0001
0000
0010
0010
,
0010
0010
1000
0000
,
0100
0000
0100
0100
,
0100
0100
0001
0000
,
1000
0000
0001
0001
,
0001
0000
0001
0000
0000
0000
0000
2002
,
0000
0000
0000
0000
,
0000
3003
0000
0000
;

//--------------- dance-single - B. M'Rey ----------------
#NOTEDATA:;
#STEPSTYPE:dance-single;
#DESCRIPTION:B. M'Rey;
#DIFFICULTY:Easy;
#METER:8;
#RADARVALUES:0.253213,0.345312,0.15131,0.054039,0,164,150,14,5,0,0,0.253213,0.345312,0.15131,0.054039,0,164,150,14,5,0,0;
#NOTES:
0000
0000
0000
0000
,
0000
0000
0000
0000
,
0000
0000
0000
0000
,
0000
0000
0000
0000
,
0000
0000
0000
0000
,
0000
0000
0000
0000
,
0000
0000
0000
0000
,
0000
0000
0010
0001
,
1000
0100
0000
0000
,
0000
0000
0010
1000
,
0100
0001
1000
0010
,
0001
0100
1000
0100
,
0100
0001
0010
1000
,
0100
0010
0100
0001
,
0001
0010
0001
0100
,
1000
0100
0100
0001
,
0001
0001
0100
0001
,
0100
0001
0100
0000
,
0000
0000
0001
0000
,
0000
0000
0000
0000
,
0000
0100
0000
0000
,
0000
0000
0000
0001
0000
0000
0000
0000
,
0000
0000
0000
0000
,
0000
0010
0000
0000
0000
0000
0000
0000
,
0000
0000
0001
0010
,
0100
0000
1001
0101
,
0010
0010
0001
0010
,
0001
1000
1010
1010
,
1000
0100
0100
1000
,
0010
0001
1010
0011
,
0100
0010
0001
0100
,
1000
0010
0110
0110
,
1000
0010
0001
0001
,
0001
0010
0200
0302
,
0023
0000
0002
0000
0000
0033
1100
0000
,
0110
1100
0100
0100
,
0010
0001
0010
0010
,
1000
0010
0100
1000
,
0010
0010
0100
0010
,
0001
0100
0100
0100
,
0010
0010
1000
0010
,
0001
0010
0001
0001
,
0001
0100
0100
1001
,
1100
1001
0001
0001
,
0100
0010
0001
0001
,
0100
0001
0010
1000
,
0010
0100
1000
0001
,
0100
0001
0001
0100
,
0100
0100
0001
0010
,
0001
0100
0100
1000
,
1000
0100
0001
0001
,
0010
0000
0001
0000
0010
0000
0001
0200
,
0000
0000
0000
0000
,
0000
0300
0000
0000
;

//--------------- dance-single - B. M'Rey ----------------
#NOTEDATA:;
#STEPSTYPE:dance-single;
#DESCRIPTION:B. M'Rey;
#DIFFICULTY:Medium;
#METER:9;
#RADARVALUES:0.34894,0.489192,0.162118,0.054039,0.005404,226,211,15,5,0,0,0.34894,0.489192,0.162118,0.054039,0.005404,226,211,15,5,0,0;
#NOTES:
0000
0000
0000
0000
,
0000
0000
0000
0000
,
0000
0000
0000
0000
,
0000
0000
0000
0000
,
0000
0000
0000
0000
,
0000
0000
0000
0000
,
0000
0000
0000
0000
,
0000
0000
1001
1001
,
1001
1001
0000
0000
,
0000
0000
0000
0000
1000
0100
0001
0000
,
0001
0100
1000
0000
0100
0000
0010
0000
,
0001
0000
0010
0000
1000
0001
0010
0000
,
0010
0001
1000
0000
0100
0000
1000
0000
,
0001
0000
0100
0000
0001
0010
0001
0000
,
0001
0010
0001
0000
1000
0000
0010
0000
,
0100
0000
0001
0000
0100
1000
0100
0000
,
0100
1000
0100
0000
0010
0000
0001
0000
,
1000
0010
0100
0000
,
0000
0000
0000
0000
0001
0100
0010
1000
,
0100
0000
0000
0000
,
0000
0000
0000
0000
1000
0000
0100
0000
0001
0000
0000
0100
0000
0000
0000
0000
,
0000
0000
0000
1000
0000
0100
0000
0001
,
0010
0000
0100
1000
0000
0000
0000
0000
,
0000
0100
0010
0000
0001
0000
1000
0100
,
0000
0000
1000
0100
,
0010
0000
1001
1001
,
1000
0100
1000
0100
1000
0100
1000
0100
,
1000
0100
1000
0000
0110
0000
0110
0000
,
0010
0100
0010
0100
0010
0100
0010
0100
,
0010
0100
0010
0000
0011
0000
0011
0000
,
0001
0010
0001
0010
0001
0010
0001
0010
,
0001
0010
0001
0000
1100
0000
1100
0000
,
0100
1000
0100
1000
0100
1000
0100
1000
,
0100
1000
0100
0000
2000
0000
3200
0000
,
0320
0000
0200
0000
0000
0330
0110
0000
,
0110
0000
0110
0000
1000
0100
0001
0000
,
0001
0100
1000
0000
0100
0000
0010
0000
,
0001
0000
0010
0000
1000
0001
0010
0000
,
0010
0001
1000
0000
0100
0000
1000
0000
,
0001
0000
0100
0000
0001
0010
0001
0000
,
0001
0010
0001
0000
1000
0000
0010
0000
,
0100
0000
0001
0000
0100
1000
0100
0000
,
0100
1000
0100
0000
0010
0000
0001
0000
,
1000
0000
0010
0000
0100
0001
0010
0000
,
0010
0001
0100
0000
0001
0000
1000
0000
,
0010
0000
1000
0000
0100
0010
1000
0000
,
1000
0010
0100
0000
0001
0000
0100
0000
,
0010
0000
0001
0000
0010
1000
0010
0000
,
0010
1000
0010
0000
0100
0000
1000
0000
,
0001
0000
0010
0000
0001
0100
0001
0000
,
0001
0100
0001
0000
1000
0000
0010
0000
,
0100
0000
1000
0000
0001
0010
0001
0020
,
0000
0000
0000
0000
,
0000
0030
0000
0000
;

//--------------- dance-single - B. M'Rey ----------------
#NOTEDATA:;
#STEPSTYPE:dance-single;
#DESCRIPTION:B. M'Rey;
#DIFFICULTY:Hard;
#METER:15;
#RADARVALUES:0.639209,0.805728,0.162118,0.043232,0.74034,414,399,15,4,0,0,0.639209,0.805728,0.162118,0.043232,0.74034,414,399,15,4,0,0;
#NOTES:
0000
0000
0000
0000
,
0000
0000
0000
0000
,
0000
0000
0000
0000
,
0000
0000
0000
0000
,
0000
0000
0000
0000
,
0000
0000
0000
0000
,
0000
0000
0000
0000
,
0000
0000
1001
1001
,
1001
1001
0000
0000
,
0000
0000
0000
0000
0000
0000
0000
0000
1000
0010
1000
0010
1000
0000
0100
0000
,
0001
0010
0001
0010
0001
0000
1000
0000
0100
0000
0000
0010
0000
0000
0001
0000
,
0010
0000
0000
1000
0000
0000
0100
0000
0010
0100
0010
0100
0010
0000
0001
0000
,
0010
0100
0010
0100
0010
0000
1000
0000
0100
0000
0000
0001
0000
0000
0010
0000
,
1000
0000
0000
0100
0000
0000
0010
0000
0001
0010
0001
0010
0001
0000
0100
0000
,
1000
0100
1000
0100
1000
0000
0010
0000
0100
0000
0000
0001
0000
0000
0010
0000
,
0100
0000
0000
1000
0000
0000
0100
0000
0001
1000
0001
1000
0001
0000
0100
0000
,
0001
1000
0001
1000
0001
0000
0010
0000
0100
0000
0000
1000
0000
0000
0001
0000
,
0010
0000
0000
0100
0000
0000
1000
0000
0100
0000
0010
0000
0001
0000
1000
0100
,
0000
0010
0001
0010
0001
0000
0100
0000
1000
0000
0100
0000
0001
0000
0010
0100
,
0000
0100
1000
0100
1000
0000
0100
0000
0010
0000
0001
0000
0100
0000
0100
0001
,
0000
1000
0001
1000
0001
0000
1000
0000
0100
0000
0001
0000
0010
0000
0100
1000
,
0000
0010
0100
0010
0100
0000
0001
0000
1000
0000
0100
0000
0010
0000
0001
0010
,
0000
0100
1000
0100
1000
0100
1000
0000
0100
0000
0001
0000
0010
0000
0100
0010
,
0000
0001
1000
0001
1000
0001
1000
0000
0100
0000
0001
0000
0010
0000
0100
1000
,
0000
0001
0010
0001
0010
0001
0000
0100
1000
0000
0000
0100
1000
0000
0000
0100
,
1000
0000
0000
0000
0000
0000
0000
0000
1000
0000
0001
0010
0100
1000
0100
0000
,
0001
0010
0100
1000
0100
0010
0001
0010
0100
1000
0010
0100
1000
0000
0001
0000
,
0010
0100
0010
1000
0100
0001
0010
0000
0100
0000
1000
0100
0001
0010
0100
0000
,
1000
0001
0010
0100
0001
1000
0010
0100
0001
0010
1000
0100
0001
0000
0010
0000
,
0100
1000
0100
0010
0001
0010
0100
0000
1000
0000
0001
0010
0100
1000
0100
0000
,
0001
0010
1000
0010
0100
0001
1000
0010
0100
0001
0010
1000
0100
0000
0010
0000
,
0001
0000
1000
0010
0100
0001
0010
0000
0100
0000
1000
0001
0010
0100
1000
0000
,
0100
0001
0010
1000
0100
0001
0010
0100
1000
0010
0100
0001
0010
0000
0100
0000
,
1000
0000
0100
0001
0010
0100
1000
0000
1010
0000
0000
0000
0110
0000
0000
0000
,
0101
0000
0000
0000
2002
0000
0000
0000
0000
0000
0000
3003
1001
0000
0000
0000
,
1001
0000
0000
0000
1001
0000
0000
0000
0001
0010
0001
0010
0001
0000
0100
0000
,
1000
0100
1000
0100
1000
0000
0001
0000
0100
0000
0000
0010
0000
0000
1000
0000
,
0001
0000
0000
0010
0000
0000
0100
0000
1000
0100
1000
0100
1000
0000
0100
0000
,
0001
0010
0001
0010
0001
0000
0010
0000
0100
0000
0000
0001
0000
0000
0010
0000
,
1000
0000
0000
0100
0000
0000
0001
0000
0010
0100
0010
0100
0010
0000
1000
0000
,
0010
0100
0010
0100
0010
0000
0001
0000
1000
0000
0000
0100
0000
0000
0001
0000
,
0010
0000
0000
0100
0000
0000
1000
0000
0001
1000
0001
1000
0001
0000
0010
0000
,
1000
0001
1000
0001
1000
0000
0100
0000
0010
0000
0000
0001
0000
0000
1000
0000
,
0100
0000
0000
0010
0000
0000
0001
0000
0010
0000
0000
0000
1000
0000
0000
0100
,
0000
0010
0001
0010
0001
0000
0010
0000
1000
0000
0000
0100
0000
0000
0001
0000
,
0010
0000
0000
1000
0000
0000
0100
0000
0010
0000
0000
0000
1000
0000
0000
0001
,
0000
0100
0010
0100
0010
0000
1000
0000
0100
0000
0000
0001
0000
0000
0010
0000
,
1000
0000
0000
0100
0000
0000
0010
0000
0001
0000
0000
0000
1000
0000
0000
0100
,
0000
0001
0010
0001
0010
0000
0001
0000
1000
0000
0000
0100
0000
0000
0001
0000
,
0010
0000
0000
1000
0000
0000
0100
0000
0010
0000
0000
0000
1000
0000
0000
0001
,
0000
0100
0010
0100
0010
0000
1000
0000
0100
0000
0000
0001
0000
0000
0010
0000
,
1000
0000
0000
0100
0000
0000
0010
0000
1001
0000
1001
0000
1001
0000
2002
0000
,
0000
0000
0000
0000
,
0000
3003
0000
0000
;
