#VERSION:0.83;
#TITLE:FEELING EMOTIONS;
#ARTIST:EMOTIONS;
#GENRE:ITALODANCE;
#CREDIT:B. M'Rey;
#MUSIC:FEELING EMOTIONS.ogg;
#BANNER:FEELING EMOTIONS-BN.png;
#BACKGROUND:FEELING EMOTIONS-bg.png;
#CDTITLE:./CDTITLES/DANCEMANIA 23 (Future Overload).PNG;
#SAMPLESTART:0.160;
#SAMPLELENGTH:15.000;
#OFFSET:-0.420;
#BPMS:0.000=139.756;
#DISPLAYBPM:140.000;

//--------------- dance-single - B. M'Rey ----------------
#NOTEDATA:;
#STEPSTYPE:dance-single;
#DESCRIPTION:B. M'Rey;
#DIFFICULTY:Beginner;
#METER:1;
#RADARVALUES:0.092819,0.140483,0.087802,0,0,74,64,10,0,0,0,0.092819,0.140483,0.087802,0,0,74,64,10,0,0,0;
#NOTES:
0000
0000
0000
0000
,
0000
0000
0000
0000
,
0000
0000
0000
0000
,
0000
0000
0000
0000
,
0000
0000
0000
0000
,
1000
0000
0000
0000
,
1000
0000
0000
0000
,
0001
0000
0000
0000
,
0001
0000
0000
0000
,
1000
0000
0000
0000
,
0010
0000
0000
0000
,
0100
0000
0000
0000
,
1001
0000
0000
0000
,
1000
0000
0000
0000
,
0010
0000
0000
0000
,
0100
0000
0000
0000
,
1001
0000
0000
0000
,
0100
0000
0000
0000
,
0010
0000
0000
0000
,
0001
0000
0000
0000
,
1000
0000
0000
0000
,
0100
0000
0000
0000
,
1000
0000
0000
0000
,
0001
0000
0000
0000
,
0010
0000
0000
0000
,
0100
0000
0000
0000
,
0010
0000
0000
0000
,
0100
0000
0000
0000
,
0001
0000
0000
0000
,
0010
0000
0000
0000
,
1000
0000
0000
0000
,
0001
0000
0000
0000
,
0100
0000
0000
0000
,
1000
0000
0000
0000
,
0001
0000
0000
0000
,
1000
0000
1000
0000
,
1001
0000
0000
0000
,
0100
0000
0000
0000
,
0010
0000
0000
0000
,
0001
0000
0001
0000
,
1001
0000
0000
0000
,
0100
0000
0000
0000
,
0010
0000
0000
0000
,
0100
0000
0100
0000
,
0110
0000
0000
0000
,
0001
0000
0000
0000
,
1000
0000
0000
0000
,
0010
0000
0010
0000
,
0110
0000
0000
0000
,
1000
0000
0000
0000
,
0001
0000
0000
0000
,
0010
0000
0000
0000
,
0110
0000
0000
0000
,
1000
0000
0000
0000
,
0001
0000
0000
0000
,
0010
0000
0000
0000
,
0110
0000
0000
0000
,
1000
0000
0000
0000
,
0001
0000
0000
0000
,
0010
0000
0000
0000
,
0110
0000
0000
0000
,
1000
0000
0000
0000
,
0100
0000
0000
0000
,
0001
0000
0000
0000
,
0110
0000
0000
0000
;

//--------------- dance-single - B. M'Rey ----------------
#NOTEDATA:;
#STEPSTYPE:dance-single;
#DESCRIPTION:B. M'Rey;
#DIFFICULTY:Easy;
#METER:4;
#RADARVALUES:0.196927,0.226528,0.061461,0.026341,0,157,150,7,3,0,0,0.196927,0.226528,0.061461,0.026341,0,157,150,7,3,0,0;
#NOTES:
0000
0000
0000
0000
,
0000
0000
0000
0000
,
0000
0000
0000
0000
,
0000
0000
0000
0000
,
0000
0000
0000
0000
,
2000
0000
0000
0000
,
3200
0000
0000
0000
,
0320
0000
0000
0000
,
0030
0000
0000
0000
,
1000
1000
1000
0000
,
0001
0001
0001
0000
,
0010
0010
0010
0000
,
0100
0000
0100
0000
,
0010
0010
0010
0000
,
0001
0001
0001
0000
,
1000
1000
1000
0000
,
0100
0000
0100
0000
,
0010
0000
1000
0000
,
0001
1000
0001
1000
,
0001
0000
0100
0000
,
0010
0100
0010
0100
,
0010
0000
0001
0000
,
0001
1000
0001
1000
,
0001
0000
1000
0000
,
0010
0100
0010
0100
,
0010
0000
0001
0000
,
0001
1000
0001
1000
,
0001
0000
0100
0000
,
0010
0100
0010
0100
,
0010
0000
1000
0000
,
0001
1000
0001
1000
,
0001
0000
0100
0000
,
0010
0100
0010
0100
,
0010
0000
0001
0000
,
1000
0000
0010
0000
,
0100
0000
0100
0000
,
0110
0000
0000
0000
,
0001
0000
1000
0000
,
0010
0000
0100
0000
,
0001
0000
1000
0000
,
1001
0000
0000
0000
,
0010
0000
0100
0010
,
0001
0000
1000
0100
,
0010
0000
0001
0000
,
1000
0000
0010
0000
,
0100
0000
0001
0010
,
0100
0000
1000
0010
,
0100
0000
0001
0000
,
1001
0000
0000
0000
,
1000
1000
1000
0000
,
0010
0010
0010
0000
,
0001
0001
0001
0000
,
0001
0000
1001
0000
,
0010
0010
0010
0000
,
0100
0100
0100
0000
,
1000
1000
1000
0000
,
1000
0000
1001
0000
,
0100
0100
0100
0000
,
0010
0010
0010
0000
,
0001
0001
0001
0000
,
1000
0000
1001
0000
,
0010
0010
0010
0000
,
0100
0100
0100
0000
,
0001
0001
0001
0000
,
1000
0000
1001
0000
;

//--------------- dance-single - B. M'Rey ----------------
#NOTEDATA:;
#STEPSTYPE:dance-single;
#DESCRIPTION:B. M'Rey;
#DIFFICULTY:Medium;
#METER:7;
#RADARVALUES:0.307306,0.396425,0.158043,0.052681,0,245,227,18,6,0,0,0.307306,0.396425,0.158043,0.052681,0,245,227,18,6,0,0;
#NOTES:
0000
0000
0000
0000
,
0000
0000
0000
0000
,
0000
0000
0000
0000
,
0000
0000
0000
0000
,
0000
0000
0000
0000
,
2000
0001
0001
3001
,
0002
1000
1000
1000
,
2003
0001
0001
0001
,
3000
0000
0000
0000
,
1000
0100
0010
0001
,
1000
0100
0010
0001
,
1000
0100
0010
0001
,
1001
0000
1001
0000
,
0001
0010
0100
1000
,
0001
0010
0100
1000
,
0001
0010
0100
1000
,
1001
0000
0000
0000
,
1000
0001
0010
0100
,
1000
0100
0001
0010
,
0100
1000
0100
1000
,
0001
0100
0010
1000
,
0100
0001
0010
0100
,
1000
0100
0001
0010
,
0001
0100
1000
0010
,
0100
1000
0001
0010
,
0100
0001
1000
0010
,
0100
0001
0100
1000
,
0010
0100
0001
0010
,
1000
0100
0001
0010
,
0001
0100
1000
0010
,
0100
0001
0010
0100
,
0010
1000
0010
0100
,
0002
0000
0000
0000
,
1003
1000
1000
0000
,
0010
0010
0010
0000
,
1001
0000
0110
0000
,
1001
0000
0000
0000
,
0100
0100
0100
0000
,
0001
0001
0001
0000
,
1000
0001
0100
0020
,
0000
0000
0030
0000
,
1000
0000
0001
0000
0010
0000
0100
0010
,
1000
0000
0001
0000
0010
0000
1000
0100
,
0010
0000
0001
0000
0010
0000
0100
1000
,
0010
0000
0100
0000
0001
0000
0001
1000
,
0100
0000
0010
0000
0100
0000
0001
0010
,
1000
0000
0100
0000
0001
0000
0010
0100
,
1000
0000
0100
0000
0001
0000
0010
1000
,
0200
0000
0000
0000
,
0310
0000
0001
0000
0010
0100
1000
0000
,
0100
0000
0010
0000
0001
0010
1000
0000
,
0100
0000
0010
0000
0001
0010
0100
0000
,
1001
0110
1001
0000
,
1000
0000
0001
0000
0010
0100
0010
0000
,
1000
0000
0001
0000
0010
0001
0010
0000
,
0100
0000
1000
0000
0010
0100
0010
0000
,
0011
1100
0011
0000
,
0100
0000
1000
0000
0001
0010
0001
0000
,
0100
0000
0010
0000
1000
0100
1000
0000
,
0010
0000
0100
0000
0001
0010
0001
0000
,
1001
0110
1001
0000
,
0010
0000
1000
0000
0010
0100
0001
0000
,
0010
0000
1000
0000
0100
1000
0010
0000
,
0100
0000
0001
0000
0001
0100
0010
0000
,
1010
0101
1010
0000
;

//--------------- dance-single - B. M'Rey ----------------
#NOTEDATA:;
#STEPSTYPE:dance-single;
#DESCRIPTION:B. M'Rey;
#DIFFICULTY:Hard;
#METER:11;
#RADARVALUES:0.524302,0.570711,0,0.193164,0.289746,418,418,0,22,0,0,0.524302,0.570711,0,0.193164,0.289746,418,418,0,22,0,0;
#NOTES:
0000
0000
0000
0000
,
0000
0000
0000
0000
,
0000
0000
0000
0000
,
0000
0000
0000
0000
,
0000
0000
0000
0000
,
1000
0000
0000
0001
0000
0000
0100
0000
0010
0000
0000
0001
0000
0000
0010
0000
,
0100
0000
0000
1000
0000
0000
0100
0000
0010
0000
0000
0001
0000
0000
0010
0000
,
1000
0000
0000
0100
0000
0000
0010
0000
0100
0000
0000
0001
0000
0000
1000
0000
,
0200
0000
0000
0000
0000
0000
0000
0010
,
0310
0100
0010
0100
0010
0100
0000
0001
,
1000
0001
1000
0001
1000
0001
0000
0010
,
0001
0010
0001
0010
0001
0010
0000
0000
,
1000
0000
0000
0100
0000
0000
0010
0000
0001
0000
0000
0000
0000
0000
0100
0000
,
0100
0010
0100
0010
0100
0010
0000
0001
,
1000
0001
1000
0001
1000
0001
0000
0100
,
1000
0100
1000
0100
1000
0100
0000
0000
,
1000
0000
0000
0001
0000
0000
0010
0000
0100
0000
0000
0000
0000
0000
0000
0000
,
1000
0100
0001
0010
1000
0100
1000
0010
,
0100
0001
0010
0001
1000
0010
0100
0010
,
1000
0100
0001
0010
1000
0100
0010
1000
,
0001
0010
0001
0100
0010
1000
0010
0100
,
0010
0001
0100
0010
1000
0010
0100
1000
,
0010
0100
0001
0010
0001
0100
0010
1000
,
0010
0100
0010
0001
0100
0010
1000
0010
,
0100
0010
1000
0001
0100
0010
1000
0010
,
0100
0001
0010
0100
0010
1000
0010
0100
,
0001
0100
0010
1000
0010
0100
0001
0100
,
0010
1000
0010
0100
0001
0010
0100
1000
,
0010
0100
0001
0100
0010
1000
0010
0100
,
0001
1000
0010
0100
1000
0010
0100
0001
,
0010
0100
0010
1000
0010
0100
0001
0100
,
0010
1000
0100
0010
0001
0100
0010
0001
,
2000
3200
0302
0023
,
0130
1000
0100
1000
0100
0000
0010
0000
,
0001
0010
0001
0010
0001
0000
0100
0000
,
0001
1000
0001
0000
0001
1000
0001
0000
,
0100
0000
0010
0000
1000
0100
0001
0000
,
0010
0100
1000
0010
0100
0000
0001
0000
,
0010
0100
0010
1000
0100
0000
0001
0000
,
1000
1000
1000
0100
0100
0010
0010
0010
,
0001
0000
1000
0000
0100
0001
1000
0000
,
0100
0000
0010
0000
1000
0000
0001
0000
0100
0000
0010
0100
0010
0000
0001
0000
,
1000
0000
0100
0000
0001
0000
0010
0000
1000
0000
0010
0100
0010
0000
0001
0000
,
1000
0100
0001
0010
1000
0100
0001
0010
,
0000
0000
1000
0000
0000
0000
0100
1000
0010
0000
0100
0010
0100
0000
0001
0000
,
0010
0000
1000
0000
0100
0000
1000
0000
0100
0000
0001
0010
0001
0000
0100
0000
,
0010
0000
1000
0000
0001
0000
0100
0000
0010
0000
1000
0010
0100
0000
0001
0000
,
0010
0010
0010
1000
1000
1000
0100
0100
,
0200
0000
0000
0000
0000
0000
0310
0001
,
1000
0000
0100
0010
0000
0001
0000
1000
0000
0100
0000
0000
0010
0000
0001
0000
,
0010
0000
1000
0100
0000
0001
0000
0010
0000
0100
0000
0000
0100
0000
1000
0000
,
0100
0000
0001
0010
0000
1000
0000
0100
0000
0010
0000
0000
0000
0000
0000
0000
,
2000
0000
0000
3200
0000
0000
0320
0000
0032
0000
0000
0000
1003
0000
0100
0000
,
0001
0000
0010
0100
0000
1000
0000
0001
0000
0100
0000
0000
0010
0000
0001
0000
,
0100
0000
0010
0001
0000
1000
0000
0100
0000
0010
0000
0000
0100
0000
0001
0000
,
0010
0000
1000
0100
0000
0010
0000
0001
0000
1000
0000
0000
0100
0000
0010
0000
,
0002
0000
0000
2003
0000
0000
3200
0000
0320
0000
0000
0000
1030
0000
0010
0000
,
0100
0000
0001
1000
0000
0010
0000
0100
0000
0001
0000
0000
1000
0000
0010
0000
,
1000
0000
0100
0001
0000
0010
0000
1000
0000
0001
0000
0000
0001
0000
0100
0000
,
0001
0000
0010
1000
0000
0100
0000
0001
0000
1000
0000
0000
0000
0000
0000
0000
,
0200
0000
0000
0302
0000
0000
2003
0000
3020
0000
0000
0000
0130
0000
0001
0000
,
0010
0000
1000
0001
0000
0100
0000
0010
0000
0001
0000
0000
1000
0000
0010
0000
,
0001
0000
1000
0010
0000
0100
0000
0001
0000
1000
0000
0000
0001
0000
0010
0000
,
1000
0000
0100
0001
0000
1000
0000
0010
0000
0100
0000
0000
0001
0000
1000
0000
,
0020
0000
0000
0230
0000
0000
0302
0000
2003
0000
0000
0000
0000
0000
0000
0000
,
3000
0000
0000
0000
;
