#TITLE:ENTRE EL MAR Y UNA ESTRELLA;
#SUBTITLE:(PABLO FLORES CLUB MIX);
#ARTIST:THALIA;
#GENRE:HOUSE;
#CREDIT:B. M'Rey;
#MUSIC:Entre El Mar y Una Estrella (Pablo Flores Club Mix).ogg;
#BANNER:Entre El Mar y Una Estrella (Pablo Flores Club Mix)-bn.png;
#BACKGROUND:Entre El Mar y Una Estrella (Pablo Flores Club Mix)-bg.png;
#CDTITLE:./CDTITLES/DANCEMANIA LATINA.PNG;
#SAMPLESTART:74.188;
#SAMPLELENGTH:12.000;
#OFFSET:0.120;
#BPMS:0.000=126.000;

//--------------- dance-single - B. M'Rey ----------------
#NOTES:
     dance-single:
     B. M'Rey:
     Beginner:
     1:
     0.095663,0.155453,0.015944,0.135523,0,84,82,2,17,0,0,0.095663,0.155453,0.015944,0.135523,0,84,82,2,17,0,0:
0000
0000
0000
0000
,
0000
0000
0000
0000
,
0000
0000
0000
0000
,
0000
0000
0000
0000
,
0000
0000
0000
0000
,
1000
0000
0000
0000
,
0001
0000
0000
0000
,
0010
0000
0000
0000
,
0200
0000
0000
0000
,
0310
0000
0000
0000
,
0001
0000
0000
0000
,
1000
0000
0000
0000
,
0010
0000
0000
0000
,
0110
0000
0000
0000
,
0001
0000
0000
0000
,
1000
0000
0000
0000
,
0100
0000
0000
0000
,
0002
0000
0000
0000
,
0023
0000
0000
0000
,
0230
0000
0000
0000
,
2300
0000
0000
0000
,
3200
0000
0000
0000
,
0320
0000
0000
0000
,
0032
0000
0000
0000
,
2000
0000
0000
0000
0000
0000
0000
3003
,
0100
0000
0000
0000
,
0001
0000
0000
0000
,
1000
0000
0000
0000
,
0100
0000
0000
0000
,
0010
0000
0000
0000
,
1000
0000
0000
0000
,
0001
0000
0000
0000
,
0200
0000
0000
0000
,
0310
0000
0001
0000
,
1000
0000
0010
0000
,
0100
0000
0001
0000
,
0220
0000
0000
0000
,
0000
0000
0000
0000
,
0330
0000
0000
0000
,
1000
0000
0001
0000
,
0010
0000
0100
0000
,
0010
0000
1000
0000
,
0001
0000
0100
0000
,
0010
0000
1000
0000
,
0010
0000
0001
0000
,
0100
0000
0010
0000
,
1000
0000
0010
0000
,
0100
0000
0001
0000
,
0010
0000
0001
0000
,
1000
0000
0010
0000
,
0100
0000
0010
0000
,
1000
0000
0001
0000
,
0010
0000
0100
0000
,
0010
0000
1000
0000
,
0010
0000
0001
0000
,
0010
0000
0100
0000
,
1000
0000
0100
0000
,
0002
0000
0000
0000
,
0203
0000
0000
0000
,
0320
0000
0000
0000
,
2030
0000
0000
0000
,
3001
0000
0010
0000
,
1000
0000
0100
0000
,
0001
0000
0010
0000
,
0020
0000
0000
0000
,
0030
0000
0000
0000
;

//--------------- dance-single - B. M'Rey ----------------
#NOTES:
     dance-single:
     B. M'Rey:
     Easy:
     2:
     0.141217,0.233179,0.015944,0.199298,0,124,122,2,25,0,0,0.141217,0.233179,0.015944,0.199298,0,124,122,2,25,0,0:
0000
0000
0000
0000
,
0000
0000
0000
0000
,
0000
0000
0000
0000
,
0000
0000
0000
0000
,
0000
0000
0000
0000
,
2000
0000
0000
0000
,
3002
0000
0000
0000
,
0103
0000
1001
0000
,
0202
0000
0000
0000
,
0303
0000
0000
0000
,
0010
0000
0000
0000
,
2000
0000
3000
0000
,
0001
0000
0000
0000
,
0200
0000
0300
0000
,
0010
0000
0000
0000
,
2000
0000
3000
0000
,
0001
0000
0000
0000
,
0100
0000
0010
0000
,
0001
0000
1000
0000
,
0010
0000
0100
0000
,
0020
0000
0000
0000
,
0031
0000
1000
0000
,
0010
0000
0100
0000
,
2000
0000
0000
0000
,
3002
0000
0000
0000
,
0013
1000
0100
0000
,
0001
0010
0100
0000
,
1000
0000
0001
0000
,
0010
0000
0000
0000
,
0000
0100
0001
1000
,
0000
0010
0100
0001
,
0000
0010
0000
2000
,
0000
0000
0000
0000
,
3001
0010
0100
1000
,
2000
0000
0000
0000
0000
0000
0000
3000
,
1000
0100
0010
0001
,
0002
0000
0000
0000
,
0000
0000
0000
0000
,
1003
0000
0000
0000
,
0100
0001
1000
0010
,
0100
0000
0000
0001
,
0010
1000
0100
0010
,
0002
0000
2003
0000
,
3100
0001
0010
1000
,
0100
0000
0010
0000
,
0001
1000
0010
0100
,
0002
0000
0000
0000
,
1003
0010
0100
0001
,
0000
0000
0000
0100
,
1000
0001
0100
0001
,
0010
0000
0000
0000
,
1000
0001
0010
0100
,
0010
0000
0000
0001
,
1000
0010
0100
0010
,
0001
0000
0000
1000
,
0010
0100
0001
0010
,
1000
0001
0010
0100
,
0020
0000
2030
0000
,
3002
0000
0203
0000
,
0320
0000
2030
0000
,
3002
0000
0203
0000
,
0310
0000
0001
0000
,
1000
0000
0010
0000
,
0100
0000
0001
0000
,
0200
0000
0000
0000
,
0310
0000
0000
0000
;

//--------------- dance-single - B. M'Rey ----------------
#NOTES:
     dance-single:
     B. M'Rey:
     Medium:
     5:
     0.30635,0.621811,0.175383,0.103635,0.015944,269,247,22,13,0,2,0.30635,0.621811,0.175383,0.103635,0.015944,269,247,22,13,0,2:
0000
0000
0000
0000
,
0000
0000
0000
0000
,
0000
0000
0000
0000
,
0000
0000
0000
0000
,
0000
0000
0000
0000
,
1000
0001
0010
0100
,
1000
0100
0010
0001
,
0010
0100
1000
0100
0010
0001
0010
0100
,
2000
0000
0002
0000
,
3023
0000
0000
0000
,
0230
0000
0000
0000
,
0302
0000
0000
0000
,
2003
0000
0000
0000
,
3200
0000
0000
0000
,
0320
0000
0000
0000
,
0032
0000
0000
0000
,
2003
0000
0000
0000
,
3001
1001
1000
1001
,
0001
1001
1000
1001
,
0001
1001
1000
1001
,
0001
0010
0100
0010
,
0100
0110
0010
0110
,
0100
0110
0010
0110
,
0200
0000
0000
0000
,
0002
0000
0000
0000
,
0313
1000
0100
0001
,
0010
0000
1000
0010
0100
0000
0010
0000
,
1000
0000
0001
1000
0010
0000
0100
0001
,
0010
1000
0100
0010
,
1000
0001
0010
0100
,
0010
0000
1000
0100
0001
0000
0100
0000
,
0010
0000
1000
0010
0100
0000
0001
0010
,
0100
0000
0010
1000
0100
0000
0010
0100
,
0010
0000
0001
0000
0010
1000
0100
0000
,
0010
0000
1000
0000
0001
0100
1000
0000
,
0010
0100
0001
1000
,
0110
0000
0000
0110
0000
0000
0110
0000
1001
0000
0000
1001
0000
0000
1001
0000
,
0101
0000
0000
0101
0000
0000
0101
0000
1010
0000
0000
1010
0000
0000
1010
0000
,
0000
0000
0000
0000
0000
1000
0001
0100
,
0010
0000
1000
0000
0001
0100
1000
0000
,
0010
0100
0001
1000
0010
0000
0000
0000
,
0001
0010
1000
0000
0010
0100
0001
0000
,
0010
1000
0001
0010
,
0100
0010
1000
0000
0001
0100
0010
0000
,
1000
0001
0010
0100
1000
0000
0001
0100
,
0010
0000
0010
1000
0100
0000
0001
0100
,
0010
1000
0001
0010
,
0100
0000
1000
0000
0001
0000
0010
0100
,
1000
0000
0000
0000
0001
0000
0100
0010
,
0001
0000
1000
0000
0010
0000
0100
0010
,
0001
0000
1000
0001
0010
0000
0100
0000
,
1000
0000
0001
0000
0010
0000
0100
1000
,
0010
0000
0001
0000
1000
0000
0010
1000
,
0010
0000
0001
0100
0001
0000
0100
1000
,
0100
0000
0010
0000
0001
0000
0010
1000
,
0010
0000
0100
0001
0100
0000
0010
1000
,
0010
0001
1000
0010
,
0100
1000
0010
0001
,
0010
0100
0001
0100
,
1000
0100
0001
0000
0010
0001
0100
0000
,
0010
0100
1000
0000
0001
1000
0010
0000
,
1000
0001
0010
0100
,
0001
1000
0010
0100
,
0010
0001
0010
1000
,
0020
0000
0000
0000
,
0030
0000
0000
0000
;

//--------------- dance-single - B. M'Rey ----------------
#NOTES:
     dance-single:
     B. M'Rey:
     Hard:
     7:
     0.446429,0.64772,0.103635,0.255102,0.115593,392,379,13,32,0,0,0.446429,0.64772,0.103635,0.255102,0.115593,392,379,13,32,0,0:
0000
0000
0000
0000
,
1000
0000
0001
0000
0100
0000
0010
1000
,
0001
0100
0010
1001
,
0100
0000
0001
0000
1000
0000
0001
0010
,
0100
0000
1000
0100
0010
0000
0001
1000
,
0010
0000
0100
0000
0001
0000
1000
0001
,
1000
0000
0001
1000
0001
0000
0100
0000
,
0100
0010
0100
0010
0100
0010
0100
0010
,
0200
0000
0000
0000
,
0320
0000
0000
0032
0000
0000
1003
0100
,
0020
0000
0000
2030
0000
0000
3001
0010
,
0200
0000
0000
0302
0000
0000
1003
0100
,
2000
0000
0000
3020
0000
0000
0031
1000
,
0020
0000
0000
0230
0000
0000
0301
1000
,
0020
0000
0000
2030
0000
0000
3001
1000
,
0020
0000
0230
0000
2300
0000
3001
1000
,
0020
0000
0000
0130
0001
1000
0010
0100
,
0002
1000
1000
1000
,
2003
0001
0001
0001
,
3002
1000
1000
1000
,
1003
0000
0001
0000
1000
0000
0001
0000
1000
0000
0001
0000
1000
0001
1000
0001
,
0200
0010
0010
0010
,
0320
0100
0100
0100
,
0130
0000
0000
1000
0000
0000
0001
0000
0000
0000
0000
0000
0000
0000
0000
0000
,
0100
0000
0000
0001
0000
0000
1000
0000
0000
0000
0000
0000
0000
0000
0000
0000
,
1000
0000
0001
1000
0010
0100
0001
0010
,
0000
0100
1000
0100
0010
0000
0001
0000
,
0100
0000
1000
0001
0010
0100
0010
1000
,
0001
0100
0010
1000
,
0001
0000
0010
1000
0100
0001
0010
0100
,
0000
0000
0001
0000
0001
1000
0001
1000
0001
0000
1000
0000
0001
0000
0100
0000
,
0010
0000
0000
0001
1000
0000
0001
0000
1000
0000
0010
0000
0100
0000
0010
0000
,
0200
0000
0000
0000
0000
0000
0000
0000
0000
0000
0000
0000
0000
0000
0000
0310
,
0000
0100
0001
0010
1000
0100
0001
0010
,
0200
1000
0001
0010
,
0301
1000
0010
0100
0001
1000
0010
0100
,
1001
0000
0000
1001
0000
0000
0110
0000
0110
0000
0000
0101
0000
0000
0101
0000
,
1010
0000
0000
1010
0000
0000
1100
0000
1100
0000
0000
0011
0000
0000
0011
0000
,
0002
0000
0000
0000
0000
0000
0000
0000
1003
0000
0000
0001
1000
0000
0001
0000
,
0100
0000
0001
0000
1000
0010
0100
0001
,
0010
0000
1000
0000
0001
0000
0010
0000
0001
0000
0100
0000
0010
0000
1000
0001
,
1000
0100
0001
0010
0100
1000
0001
0010
,
0200
0302
2003
3020
,
0130
0000
0001
0000
1000
0010
0100
0001
,
0010
0000
0100
0000
1000
0000
0001
0000
1000
0000
0001
0000
0100
0000
0010
0001
,
1000
0100
0001
0010
1000
0100
0001
0010
,
0100
0000
0000
1000
0000
0000
0010
0000
0001
1000
0001
1000
0001
0000
0010
0000
,
0100
1000
0001
0010
,
0100
0010
0100
0010
0100
0010
0100
0000
,
0001
1000
0010
0100
,
0001
0000
1000
0010
0001
1000
0010
0000
,
0100
0000
0001
0000
1000
0010
0001
0100
,
0010
0000
1000
0000
0100
0000
0000
0000
0001
0000
0000
0000
0010
0000
1000
0001
,
1000
0100
0001
0010
1000
0100
0010
0001
,
0200
0000
0000
0000
0320
0000
0000
0000
0032
0000
0000
0000
0013
0000
1000
0001
,
1000
0000
0100
0000
0001
0000
0010
0000
1000
0000
0100
0000
0010
0000
1000
0001
,
1000
0100
0001
0010
1000
0100
0010
0001
,
1000
0001
0100
0010
0001
1000
0010
0100
,
0001
0010
1000
0010
0100
0001
0010
0100
,
1000
0001
0000
0100
0010
0000
0001
0000
0010
1000
0000
0100
0010
0000
0001
0000
,
1000
0100
0000
0010
0001
0000
0100
0000
0001
0010
0000
1000
0100
0000
0001
0000
,
1000
0000
0001
0000
0010
0000
0100
0010
,
0100
0000
0001
1000
0001
0000
0100
0000
,
1000
0000
0001
0000
0010
0000
0100
0010
,
0100
0010
0100
0010
0100
0010
0100
0010
,
0100
0000
0000
0000
;
