#TITLE:ECSTASY;
#SUBTITLE:(Original Airplay Mix);
#ARTIST:ATB;
#GENRE:TRANCE;
#CREDIT:B. M'Rey;
#MUSIC:ECSTASY (Original Airplay Mix)-bg.ogg;
#BANNER:ECSTASY (Original Airplay Mix)-bg-bn.png;
#BACKGROUND:ECSTASY (Original Airplay Mix)-bg.png;
#CDTITLE:./CDTITLES/DANCE MAX 2004.PNG;
#SAMPLESTART:30.200;
#SAMPLELENGTH:11.800;
#OFFSET:-0.021;
#BPMS:0.000=130.012,30.000=65.000,31.000=130.000,63.000=65.000,65.000=130.000,157.000=65.000,159.000=130.000,191.000=65.000,193.000=130.000;

//--------------- dance-single - B. M'Rey ----------------
#NOTES:
     dance-single:
     B. M'Rey:
     Beginner:
     2:
     0,0,0,0,0:
0000
0000
0000
0000
,
0000
0000
0000
0000
,
0000
0000
0000
0000
,
0000
0000
0000
0000
,
0001
0000
0100
0000
,
0010
0000
0000
0000
,
1000
0000
0010
0000
,
0100
0000
0000
0001
,
0010
0001
0000
0010
,
0000
1000
0000
0100
,
1000
0100
0000
0010
,
0000
0100
0000
0010
,
0001
1000
0000
0010
,
0000
0100
0000
0001
,
0010
0000
1000
0100
,
0000
0000
0000
0110
0000
0000
0000
0000
,
0001
1000
0001
0000
,
0000
0010
0000
0100
,
0000
1010
0000
0000
,
0000
0101
0000
0010
,
0000
0000
1000
0000
0010
1000
0000
0000
,
0001
0000
0000
0000
,
0000
0101
0000
0000
,
0000
1010
0000
0100
,
0000
0001
1000
0000
,
0000
0010
0000
0100
,
0000
0011
0000
0000
,
0000
1100
0000
0010
,
0000
0000
0001
0000
0010
0001
0000
0000
,
1000
0000
0000
0000
,
0000
1100
0000
0000
,
0000
0011
0000
0000
,
0000
1000
0000
0010
,
0000
0000
0000
0000
,
0100
0001
0000
1000
,
0000
0010
0100
0001
,
0000
0010
0000
1000
,
0000
0000
0000
0000
,
0000
0010
0000
0001
,
0000
0100
0000
1001
,
0010
0001
0000
0010
,
0000
1000
0000
0100
,
1000
0100
0000
0010
,
0000
0100
0000
0010
,
0001
1000
0000
0010
,
0000
0100
0000
0001
,
0010
0000
1000
0100
,
0000
0000
0000
0110
0000
0000
0000
0000
,
0001
1000
0001
0000
,
0000
0010
0000
0100
,
0000
1010
0000
0000
,
0000
0101
0000
0010
,
0000
0000
1000
0000
0010
1000
0000
0000
,
0001
0000
0000
0000
,
0000
0101
0000
0000
,
0000
1010
0000
0100
,
0000
1001
0000
0000
;

//--------------- dance-single - B. M'Rey ----------------
#NOTES:
     dance-single:
     B. M'Rey:
     Easy:
     3:
     0,0,0,0,0:
0000
0000
0000
0000
,
0000
0000
0000
0000
,
0000
0000
0000
0000
,
0000
0000
0000
0000
,
0001
0010
0100
2000
,
0000
3000
0010
0000
,
0100
0010
1000
0001
,
0010
0000
0001
0010
0000
0000
1000
0000
,
0010
0100
0000
0001
0010
0000
1000
0000
,
0100
0000
1000
0000
0000
0010
0100
0000
,
0001
0010
1000
0000
0000
0010
0100
0000
,
0001
0010
0000
0000
0000
0000
1000
0000
,
0100
0000
0010
0000
0001
1000
0000
0000
,
0010
0100
0000
0000
0000
0000
1000
0000
,
0010
0000
0100
0000
0001
0010
0000
0001
,
1000
0100
0000
0020
0000
0000
0030
0000
,
0001
0010
1000
0000
0100
2000
0000
0000
,
3000
0010
0100
0001
,
0000
0010
1000
0000
0010
0000
0100
0000
,
0000
0010
1000
0000
0000
0000
0001
0000
,
0010
0000
0001
0000
0100
0020
0000
0000
,
1030
0200
0000
0000
0310
0000
0100
0000
,
0000
0001
0010
0000
1000
0000
0100
0000
,
0000
0001
0100
0000
0000
0010
1000
0000
,
0100
0000
0010
0000
0001
2000
0000
0000
,
3010
0100
0001
0010
,
0000
0010
1000
0000
0100
0000
0010
0000
,
0000
0001
0100
0000
0000
0010
0100
0000
,
1000
0000
0010
0000
0001
0200
0000
0000
,
0310
2000
0000
0000
3100
0000
0010
0000
,
0000
1000
0001
0000
0010
0000
0100
0000
,
0001
0220
0000
0000
,
0330
1000
0100
1000
,
0010
0000
0000
0000
,
0001
0010
0001
0000
1000
0100
0000
0010
,
0000
0000
0001
0000
0010
1000
0100
0000
,
0001
0000
0010
0000
0001
0010
0000
1000
,
0000
0001
0000
0100
,
0010
0000
0001
1000
0001
1000
0000
0010
,
0000
0100
0001
0000
1000
0000
1000
0000
,
0010
0100
0000
0001
0010
0000
1000
0000
,
0100
0000
1000
0000
0000
0010
0100
0000
,
0001
0010
1000
0000
0000
0010
0100
0000
,
0001
0010
0000
0000
0000
0000
1000
0000
,
0100
0000
0010
0000
0001
1000
0000
0000
,
0010
0100
0000
0000
0000
0000
1000
0000
,
0010
0000
0100
0000
0001
0010
0000
0001
,
1000
0100
0000
0020
0000
0000
0030
0000
,
0001
0010
1000
0000
0100
2000
0000
0000
,
3000
0010
0100
0001
,
0000
0010
1000
0000
0010
0000
0100
0000
,
0000
0010
1000
0000
0000
0000
0001
0000
,
0010
0000
0001
0000
0100
0020
0000
0000
,
1030
0200
0000
0000
0310
0000
0100
0000
,
0000
0001
0010
0000
1000
0000
0100
0000
,
0000
0001
0100
0000
0000
0010
1000
0000
,
0100
0220
0000
0000
,
0000
0000
0330
0000
;

//--------------- dance-single - B. M'Rey ----------------
#NOTES:
     dance-single:
     B. M'Rey:
     Medium:
     4:
     0,0,0,0,0:
0000
0000
0000
0000
,
0000
0000
0000
0000
,
0000
0000
0000
0000
,
0000
0000
0000
0000
,
0001
0000
0010
1000
0100
0000
0010
0000
,
0010
0001
0000
0000
,
0010
0000
1000
0100
1000
0000
0010
0000
,
0100
0000
0001
0010
0000
0000
0100
0000
,
1000
0100
0000
0010
0100
0000
0001
0000
,
0010
0000
0001
0000
0000
0010
0100
1000
,
0100
0010
0100
0000
0000
0001
0010
0000
,
0001
1000
0000
0000
0000
0000
0010
0000
,
0100
0000
0001
0000
0010
1000
0000
0000
,
0010
0200
0000
0000
0300
0000
0001
0000
,
1000
0000
0010
0000
0100
0010
0000
0001
,
1000
0010
0000
0200
0000
0000
0300
0000
,
1001
0110
0001
0000
0010
1000
0000
0010
,
0100
0000
0010
0100
1000
0000
0100
0000
,
0010
0000
0001
0000
0010
1000
0100
1000
,
0000
0010
0110
0000
0000
0000
0001
0000
,
0010
0000
1000
0000
0100
2000
0000
0000
,
3010
0200
0000
0301
0010
0000
1000
0100
,
0000
0010
0100
0000
0001
0000
0010
0000
,
1000
0000
0110
0000
0000
0001
0010
0000
,
0001
0100
0010
0000
1000
0200
0000
0000
,
0310
0100
0001
0010
,
1000
0100
1000
0000
0010
0000
0100
0000
,
0001
0000
1001
0000
0000
0010
0100
0001
,
0010
0000
1000
0000
0100
2000
0000
0000
,
3010
0200
0000
0301
0010
0000
1000
0100
,
0000
0010
0100
0000
1000
0000
0100
0000
,
0010
2002
0000
0000
,
3003
0010
0100
0010
,
0001
1000
0100
1000
,
0010
0100
0010
0000
0001
0010
0000
1000
,
0000
0000
0010
0100
0010
1000
0001
0000
,
0010
0000
0100
0000
0001
0100
0000
0010
,
1000
0010
0100
0010
,
0001
1000
0100
0000
0010
0100
0000
0001
,
0000
0010
1000
0001
0100
0000
0100
0000
,
1000
0100
0000
0010
0100
0000
0001
0000
,
0010
0000
0001
0000
0000
0010
0100
1000
,
0100
0010
0100
0000
0000
0001
0010
0000
,
0001
1000
0000
0000
0000
0000
0010
0000
,
0100
0000
0001
0000
0010
1000
0000
0000
,
0010
0100
0000
0000
0000
0000
0001
0000
,
1000
0000
0010
0000
0100
0010
0000
0001
,
1000
0010
0000
0100
0000
0000
0000
0000
,
1001
0110
0010
0000
1000
0200
0000
0000
,
0310
0100
0001
0010
,
1000
0100
1000
0000
0010
0000
0100
0000
,
0001
0000
1001
0000
0000
0010
0100
0001
,
0010
0000
1000
0000
0100
2000
0000
0000
,
3010
0200
0000
0301
0010
0000
1000
0100
,
0000
0010
0100
0000
1000
0000
0100
0000
,
0010
0000
1001
0000
0000
0001
0010
0000
,
1000
0100
0020
0000
0000
0000
0000
0000
,
0000
0000
0030
0000
;

//--------------- dance-single - B. M'Rey ----------------
#NOTES:
     dance-single:
     B. M'Rey:
     Hard:
     6:
     0,0,0,0,0:
0000
0000
0000
0000
,
0000
0000
0000
0000
,
0000
0000
0000
0000
,
0000
0000
0000
0000
,
0100
1000
0010
1000
0001
0000
0001
0000
,
0001
0100
0010
0000
0100
1000
0000
1000
,
0010
0100
0010
1000
0001
1000
0010
1000
,
0010
0000
0001
1000
0000
0000
0100
0010
,
0100
0010
0000
1000
0001
0000
0100
0010
,
0100
0000
0100
1000
0000
0100
0010
1000
,
0100
0010
0001
0000
0001
0010
0001
0000
,
0010
1000
0000
0000
0001
0010
0100
0010
,
0001
1000
0010
0000
0010
0100
0000
0010
,
0100
0010
0000
0000
0001
1000
0001
0010
,
0100
0000
0100
0000
0001
0100
0000
1000
,
0001
0010
0000
0200
0000
0000
0000
0301
,
0010
1000
0010
1000
0001
0010
0000
1000
,
0001
0000
0001
1000
0100
0000
0010
0001
,
0000
1000
0001
0000
0010
0100
0010
0100
,
0000
1000
0100
0000
0001
1000
0100
0010
,
0100
0000
0001
0000
0010
1000
0000
0010
,
0100
0010
0000
1000
0001
0000
0001
0010
,
0000
0010
0001
0000
0001
1000
0001
0100
,
0000
0100
0001
0000
0010
1000
0001
0100
,
0001
1000
0010
0000
0100
0010
0000
0010
,
0100
1000
0001
0100
0001
0000
0100
0010
,
0000
0010
0100
0000
0001
1000
0001
0000
,
0001
0010
0100
0000
0100
0010
0001
0100
,
0010
0000
0001
0000
0100
0010
0000
0010
,
0001
0100
0000
1000
0010
0000
0100
0010
,
0000
1000
0010
0000
0010
1000
0001
0100
,
0000
0010
0200
0000
0000
0000
0000
0000
,
0000
0000
0301
0100
0010
1000
0001
0000
,
0100
0000
0100
1000
0010
0000
0010
0100
,
0000
1000
0001
1000
0010
0100
0000
1000
,
0000
0010
0100
1000
0010
0100
0010
0000
,
0010
1000
0100
0010
0001
0010
0000
1000
,
0000
0100
0010
1000
0100
0000
0001
1000
,
0000
0010
0001
0100
0010
0100
0000
1000
,
0000
1000
0100
0000
0100
0000
0010
1000
,
0010
1000
0000
0010
0001
0000
0001
1000
,
0100
0000
0001
0010
0000
1000
0001
0100
,
0010
1000
0001
0000
0010
1000
0001
0000
,
0010
1000
0000
1000
0010
0100
0001
1000
,
0010
0000
0001
0000
0010
1000
0000
1000
,
0001
0010
0000
0000
0010
0100
0001
0010
,
0100
1000
0100
1000
0001
0010
0100
1000
,
0010
1000
0001
0100
0010
1000
0010
0000
,
0010
1000
0010
1000
0001
0010
0000
1000
,
0001
0000
0001
1000
0100
0000
0010
0001
,
0000
1000
0001
0000
0010
0100
0010
0100
,
0000
1000
0100
0000
0001
1000
0100
0010
,
0100
0000
0001
0000
0010
1000
0000
0010
,
0100
0010
0000
1000
0001
0000
0001
0010
,
0000
0010
0001
0000
0001
1000
0001
0100
,
0000
0100
0001
0000
0010
1000
0001
0100
,
0001
1000
0220
0000
0000
0000
0000
0000
,
0000
0000
0330
0000
;
