#VERSION:0.83;
#TITLE:DIDDLEY DEE;
#ARTIST:CARTOONS;
#GENRE:EUROPOP;
#CREDIT:B. M'Rey;
#MUSIC:Diddley Dee.ogg;
#BANNER:DIDDLEY DEE-bn.png;
#BACKGROUND:DIDDLEY DEE-bg.png;
#CDTITLE:./CDTITLES/Cartoons Toontastic!.png;
#SAMPLESTART:47.169;
#SAMPLELENGTH:15.000;
#OFFSET:0.820;
#BPMS:0.000=134.000;

//--------------- dance-single - B. M'Rey ----------------
#NOTEDATA:;
#STEPSTYPE:dance-single;
#DESCRIPTION:B. M'Rey;
#DIFFICULTY:Beginner;
#METER:1;
#RADARVALUES:0.069777,0.105015,0.012211,0,0,40,39,1,0,0,0,0.069777,0.105015,0.012211,0,0,40,39,1,0,0,0;
#NOTES:
0000
0000
0000
0000
,
0000
0000
0000
0000
,
0000
0000
0000
0000
,
0000
0000
0000
0000
,
0000
0000
0000
0000
,
1000
0000
0000
0000
,
0001
0000
0000
0000
,
0010
0000
0000
0000
,
0100
0000
0000
0000
,
0001
0000
0000
0000
,
1000
0000
0000
0000
,
0010
0000
0000
0000
,
1000
0000
0000
0000
,
0001
0000
0000
0000
,
0010
0000
0000
0000
,
0100
0000
0000
0000
,
0010
0000
0000
0000
,
0001
0000
0000
0000
,
1000
0000
0000
0000
,
0010
0000
0000
0000
,
0100
0000
0000
0000
,
1000
0000
0000
0000
,
0100
0000
0000
0000
,
1000
0000
0000
0000
,
0001
0000
0000
0000
,
0010
0000
0000
0000
,
0001
0000
0000
0000
,
0100
0000
0000
0000
,
0010
0000
0000
0000
,
1000
0000
0000
0000
,
0100
0000
0000
0000
,
0001
0000
0000
0000
,
0010
0000
0000
0000
,
0001
0000
0000
0000
,
0100
0000
0000
0000
,
0010
0000
0000
0000
,
1000
0000
0000
0000
,
0001
0000
0000
0000
,
0010
0000
0000
0000
,
0001
0000
0000
0000
,
0100
0000
0000
0000
,
0010
0000
0000
0000
,
0001
0000
0000
0000
,
1001
0000
0000
0000
;

//--------------- dance-single - B. M'Rey ----------------
#NOTEDATA:;
#STEPSTYPE:dance-single;
#DESCRIPTION:B. M'Rey;
#DIFFICULTY:Easy;
#METER:3;
#RADARVALUES:0.15351,0.183776,0.024422,0.048844,0,88,86,2,4,0,0,0.15351,0.183776,0.024422,0.048844,0,88,86,2,4,0,0;
#NOTES:
0000
0000
0000
0000
,
0000
0000
0000
0000
,
0000
0000
0000
0000
,
0000
0000
0000
0000
,
0000
0000
0000
0000
,
1000
0000
0001
0000
,
0010
0000
0100
0000
,
0001
0000
1000
0000
,
0110
0000
0000
0000
,
0001
0000
1000
1000
,
0100
0000
0001
0001
,
0100
0000
0010
0010
,
0100
0000
0001
0000
,
0010
0000
1000
1000
,
0100
0000
0001
0001
,
0010
0000
0100
0100
,
0010
0000
0001
0001
,
0100
0000
0000
0000
,
0001
0000
0000
0000
,
1000
0000
0010
0000
,
0100
0000
0001
0000
,
0010
0000
0001
0000
,
0100
0000
0010
0000
,
1000
0000
0100
0000
,
0001
0000
0010
0000
,
0100
0000
0001
0000
,
1001
0000
0000
0000
,
1000
0000
0010
0010
,
0100
0000
0001
0001
,
1000
0000
0010
0010
,
0100
0000
0001
0000
,
1000
0000
0100
0100
,
0010
0000
0001
0001
,
0010
0000
1000
1000
,
0100
0000
0001
0000
,
0010
0010
0010
0010
,
0020
0000
0000
0000
,
0130
0000
0001
0000
,
2000
0000
0000
0000
,
3100
0100
0100
0100
,
0200
0000
0000
0000
,
0310
0000
0001
0000
,
2000
0000
0000
0000
,
3001
0000
0000
0000
;

//--------------- dance-single - B. M'Rey ----------------
#NOTEDATA:;
#STEPSTYPE:dance-single;
#DESCRIPTION:B. M'Rey;
#DIFFICULTY:Medium;
#METER:9;
#RADARVALUES:0.362843,0.451504,0.036633,0.158744,0.006106,208,205,3,13,0,0,0.362843,0.451504,0.036633,0.158744,0.006106,208,205,3,13,0,0;
#NOTES:
0000
0000
0000
0000
,
0000
0000
0000
0000
,
0000
0000
0000
0000
,
0000
0000
0000
0000
,
0000
0000
0000
0000
,
1000
0000
0010
0000
0001
0010
0100
0000
,
0010
0000
1000
0000
0010
0100
0001
0000
,
0010
0000
1000
0000
0001
0000
0010
0010
,
0010
0000
0000
0000
0000
0100
0100
0000
,
0001
1000
0100
0001
0010
0100
0010
1000
,
0100
0001
0010
0001
1000
0100
0001
0010
,
0100
0000
0001
0000
0010
0000
1000
0001
,
0100
0020
2030
3002
,
0013
1000
0100
0001
0010
0001
0100
0010
,
1000
0001
0010
0001
0100
0010
1000
0100
,
0001
0010
0100
0001
0010
1000
0100
0001
,
0100
0010
1000
0001
,
0010
0000
0000
0000
,
1000
0000
0000
0000
,
0001
0000
0010
0000
0100
0000
0001
0010
,
1000
0100
0010
0001
,
0010
1000
0010
0001
0100
0010
1000
0100
,
0001
0010
0100
1000
,
0100
0000
0001
0000
0010
0000
1000
0010
,
0100
0001
0010
0001
,
0100
0001
1000
0010
0100
0001
0010
0100
,
1001
0000
0000
1001
0000
0000
1001
0000
0000
0000
0000
0000
0000
0000
0000
0000
,
0001
1000
0100
0001
0010
0100
0010
1000
,
0100
0001
0010
0001
1000
0100
0001
0010
,
0100
0000
0001
0000
0010
0000
1000
0001
,
0100
0020
2030
3002
,
0013
1000
0100
0001
0010
0001
0100
0010
,
1000
0001
0010
0001
0100
0010
1000
0100
,
0001
0010
0100
0001
0010
1000
0100
0001
,
0100
0010
1000
0001
,
0001
1000
0100
0001
0010
0100
0010
1000
,
0200
0000
0302
0000
,
0013
0000
0001
0000
0010
0000
1000
0001
,
0200
0000
0310
0000
,
0010
1000
0100
0001
0010
0001
0100
0010
,
2000
0000
3002
0000
,
0103
0100
0010
0100
,
0200
0000
0320
0000
,
0031
0010
0100
1000
0100
0000
0000
0000
;

//--------------- dance-single - B. M'Rey ----------------
#NOTEDATA:;
#STEPSTYPE:dance-single;
#DESCRIPTION:B. M'Rey;
#DIFFICULTY:Hard;
#METER:13;
#RADARVALUES:0.552986,0.587657,0.244221,0.256432,0.262538,317,297,20,21,0,0,0.552986,0.587657,0.244221,0.256432,0.262538,317,297,20,21,0,0;
#NOTES:
0000
0000
0000
0000
,
0000
0000
0000
0000
,
0000
0000
0000
0000
,
0000
0000
0000
0000
,
0000
0000
0000
0000
0000
0000
0000
0000
0000
0000
0000
0000
0000
0000
0001
1000
,
0100
0000
1000
0000
0001
0100
0001
0000
1000
0000
0100
0000
0010
0000
0001
0000
,
0100
0000
0001
0000
1000
0001
1000
0000
0001
0000
0100
0000
0001
0000
0010
0000
,
0001
0000
0100
0000
0001
0100
0001
0000
1000
0100
1000
0000
0001
0000
0100
0000
,
0001
0010
0001
0000
0010
0001
0010
0000
0001
0000
0001
0000
0001
0000
1000
0001
,
1000
0000
0001
0000
0100
0001
1000
0000
0010
0000
0100
0000
0001
0000
1000
0000
,
0100
0000
0010
0000
0001
0010
0100
0000
1000
0000
0100
0000
0100
0000
0010
0000
,
0001
0000
0100
0000
0001
1000
0001
0000
1000
0001
1000
0000
0001
0000
0100
0000
,
0002
0000
0000
0000
0203
0000
0000
0000
0320
0000
0000
0000
1030
0000
0001
1000
,
0100
0000
0010
0000
0001
1000
0001
0000
0010
0000
0100
0000
0100
0000
1000
0000
,
0100
0000
0010
0000
0001
1000
0001
0000
0010
0000
0100
0000
1000
0000
0001
0000
,
0100
0000
0010
0000
1000
0010
1000
0000
0010
0100
0010
0000
0100
0000
0010
0000
,
2000
3200
0320
0031
,
1001
0000
0000
1100
0000
0000
0110
0000
0000
0000
0110
0000
0011
0000
0000
0000
,
0011
0000
0000
1001
0000
0000
0101
0000
0220
0000
0330
0000
0002
0000
0000
0000
,
1003
0100
0010
0001
1000
0100
0010
0001
,
1000
0000
0000
0001
0000
0000
0100
0000
0000
1000
0010
0000
1100
0000
0000
0000
,
0001
0000
1000
0000
0100
0000
0010
0000
0001
0000
1000
0010
0100
0000
0001
0000
,
0110
0000
0000
1100
0000
0000
1001
0000
0000
0001
0100
0000
1010
0000
0000
0000
,
0100
0010
0001
0100
0010
1000
0100
0010
,
1001
0000
0000
0101
0000
0000
0110
0000
0000
0010
0100
0000
0001
0000
0000
0000
,
1000
0100
0010
0001
0010
0100
1000
0001
,
1100
0000
0000
0110
0000
0000
0011
0000
0000
0000
0100
0000
0100
0000
0000
0000
,
0001
0000
1000
0000
0100
0010
0100
0000
1000
0000
0001
0000
0100
0000
0010
0000
,
0100
0000
0001
0000
1000
0001
1000
0000
0100
0000
0010
0000
0001
0000
0010
0000
,
0100
0000
1000
0000
0001
0100
0001
0000
1000
0100
1000
0000
0001
0000
0100
0000
,
0020
0230
0302
1003
,
0100
0000
0010
0000
0001
0100
0001
0000
0010
0000
0100
0000
1000
0000
0100
0000
,
0001
0000
0100
0000
1000
0001
1000
0000
0100
0000
0010
0000
0001
0000
1000
0000
,
0100
0000
0010
0000
0100
1000
0100
0000
1000
0001
1000
0000
0100
0000
1000
0000
,
0002
0023
0230
1300
,
0100
1000
0100
0000
0010
0000
0001
0000
1000
0000
0001
0000
1000
0000
0001
0000
,
0200
0000
0000
0000
0000
0000
0000
0000
0301
0000
0000
0002
0000
0000
1003
0000
,
0100
0000
0010
0000
0001
1000
0001
0000
0010
0000
0100
0000
1000
0000
0001
0000
,
2000
0000
0000
0000
0000
0000
0000
0000
3001
0000
0000
0000
0000
0000
1000
0001
,
0100
0000
0010
0000
1000
0001
1000
0000
0100
0000
0010
0000
0001
0000
0100
0000
,
0020
0000
0000
0000
1030
0000
2000
3001
,
0010
0000
0100
0000
1000
0001
1000
0000
0001
0000
0100
0000
0010
0000
1000
0000
,
0002
0000
0000
0000
0000
0000
0000
0000
1003
0000
0000
0000
0000
0000
0001
1000
,
0001
0000
0100
0000
0010
1000
0010
0000
0100
0000
0001
0000
0001
0000
0000
0000
;
