#TITLE:DANCING WITH TEARS IN MY EYES;
#SUBTITLE:(Radio Edit);
#ARTIST:NOVASPACE;
#GENRE:TRANCE;
#CREDIT:B. M'Rey;
#MUSIC:DANCING WITH TEARS IN MY EYES (Radio Edit).ogg;
#BANNER:DANCING WITH TEARS IN MY EYES (Radio Edit)-BN.png;
#BACKGROUND:DANCING WITH TEARS IN MY EYES (Radio Edit)-BG.png;
#CDTITLE:./CDTITLES/DANCE MAX 2004.png;
#SAMPLESTART:27.703;
#SAMPLELENGTH:12.000;
#OFFSET:-0.277;
#BPMS:0.000=70.007,32.000=140.015,136.000=70.007,152.000=140.015;

//--------------- dance-single - B. M'Rey ----------------
#NOTES:
     dance-single:
     B. M'Rey:
     Beginner:
     1:
     0,0,0,0,0:
0000
0000
0000
0000
,
0000
0000
0000
0000
,
0000
0000
0000
0000
,
0000
0000
0000
0000
,
0001
0000
0000
0000
,
0100
0000
0000
0000
,
1000
0000
0000
0000
,
0001
0000
1001
0000
,
0100
0000
0000
0000
,
0010
0000
0000
0001
,
0010
0000
1000
0000
,
0100
0000
0000
0000
,
0010
0000
0001
0010
,
0001
0000
0000
0100
,
1000
0000
0000
0010
,
0000
0000
0000
0000
,
1000
0000
0000
0000
,
0000
0000
0000
0001
,
1000
0000
0010
0000
,
0100
0000
0001
0010
,
0001
0000
1000
0000
,
0000
0000
0000
0010
,
0100
0000
0010
0000
,
0100
0000
0001
0010
,
1000
0000
0100
0000
,
0000
0000
0000
0001
,
1000
0000
0000
0000
,
0000
0010
0100
0001
,
0010
0000
0001
0000
,
0000
0000
0000
1000
,
0100
0000
0000
0001
,
0010
0000
0000
0000
,
0100
0000
0000
0000
,
0010
0000
0000
0000
,
0001
0000
0000
0000
,
1000
0000
0000
0000
,
0010
0000
0000
0000
,
0100
0000
1001
0000
,
0100
0000
0000
0000
,
0010
0000
0000
0001
,
0010
0000
1000
0000
,
0100
0000
0000
0000
,
0010
0000
0001
0010
,
0001
0000
0000
0100
,
1000
0000
0000
0010
,
0000
0000
0000
0000
,
0100
0000
0000
0000
,
0010
0000
0000
0001
,
0010
0000
1000
0000
,
0100
0000
0000
0000
,
0010
0000
0001
0010
,
0001
0000
0000
0100
,
1000
0000
0000
0010
,
0000
0000
0000
0000
,
1000
0000
0000
0000
;

//--------------- dance-single - B. M'Rey ----------------
#NOTES:
     dance-single:
     B. M'Rey:
     Easy:
     1:
     0,0,0,0,0:
0000
0000
0000
0000
,
0000
0000
0000
0000
,
0000
0000
0000
0000
,
0000
0000
0000
0000
,
1000
0001
0000
0000
,
0100
0010
0000
0000
,
0001
0010
0000
1000
,
0100
0000
1001
0000
,
0001
0010
0001
0000
,
1000
0100
1000
0000
,
0010
0000
0100
0000
,
0001
0000
1000
0000
,
0010
0100
0010
0000
,
0001
0010
0001
0000
,
1000
0000
0100
0000
,
1000
0000
0010
0000
,
0100
0000
0000
0000
,
0001
0000
0000
0000
,
0001
0000
1000
0000
,
0001
0000
0100
0000
,
0010
0000
0000
0000
,
0100
0000
0000
0000
,
1000
0000
0001
0000
,
0100
0000
0000
0000
,
0010
0000
1000
0000
,
0001
0000
0000
0000
,
0100
0000
0010
0000
,
1000
0000
0000
0000
,
0001
0000
0010
0000
,
0001
0000
0000
0000
,
0100
0000
0010
0000
,
1000
0000
0000
0000
,
0001
0000
0000
0000
,
0100
0000
0000
0000
,
0001
1000
0000
0000
,
0100
0010
0000
0000
,
1000
0001
0100
0000
,
0001
0010
1001
0000
,
0001
0000
1000
0000
,
0010
0100
0100
0000
,
0001
0000
1000
0000
,
0100
0100
0010
0000
,
0001
0000
1000
0000
,
0010
0010
0100
0000
,
0001
0000
1000
0000
,
0100
0100
1000
0000
,
0010
0000
0100
0000
,
0001
0001
0010
0000
,
0001
0000
1000
0000
,
0010
0100
0100
0000
,
0001
0000
1000
0000
,
0010
0010
0001
0000
,
0100
0000
0010
0000
,
1000
1000
1000
0000
,
1001
0000
0000
0000
;

//--------------- dance-single - B. M'Rey ----------------
#NOTES:
     dance-single:
     B. M'Rey:
     Medium:
     5:
     0,0,0,0,0:
0000
0000
0000
0000
,
0000
0000
0000
0000
,
0000
0000
0000
0000
,
0000
0000
0000
0000
,
1000
0001
0000
0000
0000
0000
0000
0100
,
0010
1000
0100
0000
1000
0000
0000
0000
,
0001
0010
0001
0100
,
0010
1000
1001
0000
,
0001
0010
0001
0010
,
0100
0000
1000
0100
1000
0000
0010
0000
,
0100
0010
0001
0010
,
1000
0000
0001
1000
0001
0000
0001
1000
,
0001
0000
0100
0000
0010
1000
0100
0000
,
0001
0000
0010
0000
0001
0000
0001
0010
,
0100
0000
0000
1000
0100
0000
0010
0001
,
0010
0000
0001
0010
1000
0000
0100
0010
,
1000
0001
0100
0010
,
1000
0000
0100
0000
1000
0000
0001
0100
,
0010
0000
0001
1000
0100
0000
0010
1000
,
0100
0001
0010
0001
,
0100
0010
1000
0000
0100
0010
0100
0000
,
0001
1000
0010
0000
0100
1000
0100
0000
,
0001
1000
0100
0001
,
0010
0000
0001
1000
0100
0000
1000
0000
,
0010
0000
0100
0000
0001
0010
0001
0000
,
1000
0000
0100
0000
0010
0000
0010
0100
,
0010
0000
0001
0010
0001
0000
1000
0100
,
1000
0010
0100
0001
,
0001
0010
1000
0000
0100
1000
0100
0000
,
0010
0100
0001
1000
,
0001
1000
0001
0000
0001
0000
1000
0000
,
1000
0001
1000
0000
0010
0000
0100
0000
,
0101
0000
0000
1010
0000
0000
0000
0000
,
0101
0000
0000
1010
0000
0000
0000
0000
,
0001
1000
0000
0000
0000
0000
0000
0100
,
0010
0000
0001
1000
0100
0000
0000
0000
,
0010
1000
0100
1000
0001
0001
0000
0010
,
0100
0001
1000
0000
,
0001
0010
0001
0000
1000
0100
1000
0000
,
0010
0000
0100
0000
0001
0000
0001
0010
,
0001
0000
1000
0100
1000
0000
0010
0100
,
1000
0100
0001
1000
,
0010
0000
0100
0000
0001
0010
0001
1000
,
0100
0000
1000
0000
0010
0000
0100
0010
,
0100
0000
0001
0010
0001
0000
1000
0000
,
0100
1000
0010
0100
,
0001
0010
0001
0000
1000
0100
1000
0000
,
0010
0100
0010
0000
0001
0000
1000
0000
,
0010
0100
0010
0000
0001
0010
0001
0000
,
1000
0100
1000
0010
,
0100
0000
0001
0010
0001
1000
0100
1000
,
0010
0000
0100
0000
0001
0000
0001
0010
,
0001
0000
1000
0100
1000
0000
0010
0100
,
0010
0000
1000
0000
0001
0000
0010
0001
,
1001
0000
0000
0000
;

//--------------- dance-single - B. M'Rey ----------------
#NOTES:
     dance-single:
     B. M'Rey:
     Hard:
     8:
     0,0,0,0,0:
0000
0000
0000
0000
,
0000
0000
0000
0000
0000
0000
0000
1000
,
0001
0000
0000
0100
0000
0000
0000
0000
0000
0000
0010
0000
0001
0000
0010
0000
,
0100
0000
0000
1000
0000
0000
0010
0000
0000
0000
0000
0000
0000
0000
0000
0000
,
1000
0000
0000
0001
0000
0000
0000
0000
0000
0000
0000
0000
0000
0000
0100
0000
,
0010
0000
0000
1000
0000
0001
0000
0000
0010
0000
0000
0000
0000
0000
0000
0000
,
0100
0000
0000
1000
0000
0000
0000
0000
0000
0000
0001
0000
0010
0000
0001
0000
,
0100
0000
0000
0010
0000
0000
1000
0000
1001
0000
0000
0000
0000
0000
0000
0000
,
0001
1000
0001
1000
0001
0010
0100
0010
,
0100
0010
0001
0100
0010
0100
0010
0100
,
0001
1000
0001
1000
0001
0100
0010
0100
,
0010
0100
0001
1000
0001
1000
0010
1000
,
0010
0100
0010
1000
0001
0100
0001
0100
,
0001
0010
0100
1000
0100
1000
0100
0010
,
0001
1000
0001
1000
0001
0100
0010
0100
,
0010
0100
0001
1000
0100
1000
0100
1000
,
0010
0000
0010
0100
0010
0000
0001
1000
,
0001
0000
0010
0100
0010
0000
0100
1000
,
0001
0000
0100
0010
0100
0000
0100
1000
,
0001
0000
0001
1000
0010
0100
0010
0100
,
0010
0000
0100
1000
0000
1000
0001
0000
,
0100
0010
0001
0000
0001
0100
0001
0100
,
0010
0000
0001
0010
0001
0000
0001
1000
,
0010
0000
0001
0010
0001
0000
0001
1000
,
0100
1000
0100
1000
0010
0100
0010
0000
,
0010
1000
0001
0000
0001
1000
0010
0100
,
0010
0000
0010
1000
0001
0000
0100
1000
,
0100
0000
0100
0010
0001
0000
0001
1000
,
0001
0000
0010
0100
0010
0000
0001
1000
,
0001
0000
0001
0010
0100
0000
0100
0010
,
0001
0100
0001
0100
0001
0010
0100
0010
,
0100
0010
0001
0100
0001
0100
0001
1000
,
0010
1000
0010
1000
0001
0100
0001
0100
,
0001
1000
0010
1000
0010
1000
0100
0010
,
0001
0000
0000
1000
0000
0000
0010
0000
0100
0000
0001
0000
0010
0000
1000
0000
,
0100
0000
0000
1000
0000
0001
0000
0000
0010
0000
0100
0000
0001
0000
0010
0000
,
1000
0000
0000
0100
1000
0100
0010
1000
0100
0000
0001
0000
0010
0000
0001
0010
,
0001
0000
0100
0010
0000
0000
1000
0000
1001
0000
0000
0000
0000
0000
0000
0000
,
0010
1000
0010
1000
0010
0100
0001
0100
,
0001
0010
0001
0010
0100
0010
0100
1000
,
0100
1000
0001
0100
0001
0100
0001
1000
,
0100
1000
0100
1000
0001
0100
0001
0100
,
0001
0010
0100
0010
0100
0010
0001
1000
,
0001
1000
0100
1000
0100
0010
0100
0010
,
0001
0010
0001
1000
0001
0010
0100
0010
,
0100
1000
0100
1000
0001
0100
0001
0100
,
0001
0010
0100
0010
0100
0010
0001
0100
,
0001
0100
0001
1000
0100
0010
0100
0010
,
0100
1000
0001
1000
0001
1000
0100
0010
,
0100
0010
0001
0010
0001
0100
0010
0100
,
0001
0100
0001
1000
0001
1000
0010
1000
,
0010
0100
0010
0100
0001
0100
0001
1000
,
0001
1000
0100
1000
0010
0100
0010
0100
,
0010
1000
0001
1000
0001
1000
0100
0010
,
2000
0000
0000
0000
,
0000
0000
0000
0000
,
3000
0000
0000
0000
;
