#TITLE:Cyber Girl;
#ARTIST:good-cool;
#GENRE:RAVE;
#CREDIT:DWipeout/B.M'Rey;
#MUSIC:Cyber Girl.mp3;
#BANNER:Cyber Girl-bn.png;
#BACKGROUND:Cyber Girl-bg.png;
#CDTITLE:./CDTITLES/BEATMANIA III.PNG;
#SAMPLESTART:2.080;
#SAMPLELENGTH:12;
#OFFSET:-2.210;
#BPMS:0.000=133.000;

//--------------- dance-single - ----------------
#NOTES:
     dance-single:
     :
     Beginner:
     1:
     0.116,0.175,0.063,0.042,0:
0010
0000
1000
0000
,
0000
1001
0000
0000
,
0010
0000
0001
0000
,
0000
1001
0000
0000
,
0100
0000
1000
0000
,
0000
1001
0000
0000
,
0100
0000
0001
0000
,
0000
1001
0000
0000
,
0010
0000
0000
0000
,
0100
0000
0000
0000
,
0010
0000
1000
0000
,
0100
0000
0000
0000
,
0010
0000
0000
0000
,
0100
0000
0000
0000
,
0010
0000
0001
0000
,
0100
0000
0000
0000
,
0010
0000
0001
0000
,
1000
0000
0000
0000
,
0100
0100
0100
0000
,
0100
0100
0100
0000
,
0010
0000
1000
0000
,
0001
0000
0000
0000
,
0100
0100
0100
0000
,
0100
0100
0100
0000
,
0001
0000
0000
0000
,
0010
0000
0000
0000
,
0100
0000
0000
0000
,
1000
0000
0001
0000
,
1000
0000
0000
0000
,
0010
0000
0000
0000
,
0100
0000
0000
0000
,
0001
0000
1000
0000
,
1002
0000
0000
0000
,
0000
0000
0000
0000
,
2003
0000
0000
0000
,
0000
0000
0000
0000
,
3002
0000
0000
0000
,
0000
0000
0000
0000
,
2003
0000
0000
0000
,
0000
0000
0000
0000
,
3001
0000
0100
0000
,
0001
0000
0000
0000
,
1000
0000
0100
0000
,
1000
0000
0000
0000
,
0010
0000
0100
0000
,
0001
0000
0000
0000
,
0010
0000
0100
0000
,
1000
0000
0001
0000
,
1001
0000
0000
0000
;

//--------------- dance-single - ----------------
#NOTES:
     dance-single:
     :
     Easy:
     2:
     0.185,0.225,0.083,0.083,0:
0010
0000
1000
0000
,
0100
1001
0000
0000
,
0010
0000
0001
0000
,
0100
1001
0000
1001
,
0010
0000
0001
0000
,
0100
1001
0000
0000
,
0010
0000
1000
0000
,
0100
1001
0100
1001
,
0100
0000
1000
0000
,
0100
0000
0010
0000
,
0100
0000
0001
0000
,
0100
0000
0000
0000
,
0010
0000
0001
0000
,
0010
0000
0100
0000
,
0010
0000
1000
0000
,
0010
0000
0000
0000
,
1000
0000
0001
0000
,
1000
0000
0001
0000
,
0100
0100
0100
0100
,
0100
0100
0100
0100
,
0001
0000
1000
0000
,
0001
0000
1000
0000
,
0100
0100
0100
0100
,
0100
0100
0100
0100
,
1000
0000
0010
0000
,
1000
0000
0010
0000
,
0100
0000
0001
0000
,
0100
0001
1000
0000
,
0001
0000
0010
0000
,
0001
0000
0010
0000
,
0100
0000
1000
0000
,
0100
1000
0001
0000
,
2001
0000
0000
0000
,
3200
0000
0000
0000
,
0320
0000
0000
0000
,
0032
0000
0000
0000
,
2003
0000
0000
0000
,
3020
0000
0000
0000
,
0230
0000
0000
0000
,
0302
0000
0000
0000
,
1003
0100
0010
0001
,
0100
0000
0010
0000
,
1000
0010
0100
0001
,
0010
0000
0100
0000
,
1000
0100
0010
0001
,
0100
0000
0010
0000
,
1000
0010
0100
0001
,
0010
0000
0100
0000
,
1001
0000
0000
0000
;

//--------------- dance-single - ----------------
#NOTES:
     dance-single:
     :
     Medium:
     5:
     0.329,0.428,0.23,0.25,0:
1000
0001
1000
0100
,
0000
0000
2002
3003
0000
0000
0000
0000
,
0010
1000
0100
0010
,
0000
0000
2002
3003
0100
0000
2002
3003
,
0001
1000
0001
0100
,
0000
0000
2002
3003
0000
0000
0000
0000
,
0010
1000
0100
0010
,
0000
0000
2002
3003
0100
0000
2002
3003
,
1000
0100
0010
0100
,
0001
0100
0010
0100
,
1000
0001
1000
0100
,
0020
0000
0000
0030
,
0001
0010
0100
0010
,
1000
0010
0100
0010
,
0001
1000
0001
0010
,
0200
0000
0000
0300
,
1000
0100
1000
0100
,
0001
0000
0100
0000
0001
0000
0100
1000
,
0001
0101
1000
1010
,
0110
0101
1000
0110
,
0001
0100
0010
0001
,
1000
0000
0100
0000
0010
0000
1000
0100
,
0010
1100
0110
0011
,
1001
0101
0110
1010
,
1001
0000
1000
0000
1000
0000
1000
0001
,
0100
0000
1000
0000
1000
0000
1000
0001
,
0010
1000
1000
1000
,
0001
0010
0100
1000
0001
0000
0000
0000
,
1001
0000
0001
0000
0001
0000
0001
1000
,
0100
0000
0001
0000
0001
0000
0001
1000
,
0010
0001
0001
0001
,
0010
0100
1000
0001
0100
0000
0010
0000
,
2001
0000
0000
0000
,
3200
0000
0000
0000
,
0320
0000
0000
0000
,
0032
0000
0000
0000
,
0203
0000
0000
0000
,
0320
0000
0000
0000
,
2030
0000
0000
0000
,
3002
0000
0000
0000
,
1003
0001
0100
0000
0100
0000
0100
0000
,
1000
0001
0100
0000
0100
0000
0100
0000
,
1000
0010
0100
0000
0100
0000
0100
0000
,
1000
0010
0100
0001
1000
0000
0100
0000
,
0001
1000
0100
0000
0100
0000
0100
0000
,
0001
1000
0100
0000
0100
0000
0100
0000
,
0001
0010
0100
0000
0100
0000
0100
0000
,
0001
0010
0100
1000
0010
0100
0001
0000
,
0220
0330
0000
0000
;

//--------------- dance-single - ----------------
#NOTES:
     dance-single:
     :
     Hard:
     7:
     0.465,0.453,0.198,0.261,0.235:
1000
0000
0010
0000
0100
0000
0001
0000
0000
1000
0000
0000
0020
0000
0000
0000
,
0130
0001
2002
3003
0001
0000
1000
0000
,
0001
0000
0010
0000
0100
0000
1000
0000
0000
0001
0000
0000
0020
0000
0000
0000
,
0130
0000
1000
0000
2002
0000
3003
0000
0000
1010
0000
0000
0101
0000
0000
0000
,
0001
0000
0010
0000
0100
0000
1000
0000
0000
0001
0000
0000
0020
0000
0000
0000
,
0130
1000
2002
3003
1000
0000
0001
0000
,
1000
0000
0010
0000
0100
0000
0001
0000
0000
1000
0000
0000
0020
0000
0000
0000
,
1030
0010
0100
0001
1000
0010
0100
0001
,
1000
0000
0000
1100
0000
0000
0010
0000
0000
0100
0000
0000
1000
0000
0001
0000
,
1000
0000
0000
1010
0000
0000
0100
0000
0000
1000
0000
0000
0100
0000
0001
0000
,
0010
0000
0000
1100
0000
0000
0010
0000
0000
0001
0000
0000
0100
0000
0010
0000
,
1000
0101
0010
1100
,
0001
0000
0000
0101
0000
0000
1000
0000
0000
1100
0000
0000
0001
0000
1000
0000
,
0001
0000
0000
0011
0000
0000
0100
0000
0000
1010
0000
0000
1000
0000
0010
0000
,
0100
0000
0000
0101
0000
0000
0010
0000
0000
1100
0000
0000
0010
0000
1000
0000
,
0200
0000
0000
0300
,
1000
0001
0100
0000
0010
0100
1000
0000
,
0001
0001
0100
0010
1000
1000
0100
0000
,
0001
0000
0000
0001
0010
0000
0000
0010
0100
0000
0000
0100
1000
0000
0000
1000
,
0010
0000
0000
0010
0001
0000
0000
0001
0010
0000
0000
0010
1000
0000
1000
0000
,
0001
1000
0100
1000
0010
0100
1000
0000
,
0100
0001
2000
0000
3100
1000
0002
0000
,
1003
0000
0000
1000
0010
0000
0000
0010
0100
0000
0000
0100
1000
0000
0000
1000
,
0100
0000
0000
0100
0001
0000
0000
0001
0010
0000
0000
0010
0100
0000
1000
0000
,
0001
0000
0000
0100
0000
0000
0100
0000
0000
0100
0000
0000
0010
0000
0000
0000
,
1000
0000
0000
0100
0000
0000
0100
0000
0000
0100
0000
0000
0010
0000
0010
0000
,
0001
0000
0000
0100
0000
0000
1000
0000
0000
0100
0000
0000
0001
0000
1000
0000
,
0100
0000
0000
0001
0000
0000
0010
0000
0000
0000
0000
0000
1001
0000
0000
0000
,
0010
0000
0000
0100
0000
0000
0001
0000
0000
0100
0000
0000
0010
0000
0100
0000
,
1000
0000
0000
0100
0000
0000
0010
0000
0000
0100
0000
0000
0001
0000
1000
0000
,
0100
0000
0000
0010
0000
0000
1000
0000
0000
0001
0000
0000
0100
0000
0010
0000
,
0100
0000
0000
0001
0000
0000
1000
0000
0200
0000
0010
0000
0310
0000
0000
0000
,
2002
3000
0000
0000
,
0200
0003
0000
0000
0000
0000
0000
0000
,
0020
0300
0000
0000
0000
0000
0000
0000
,
2000
0030
0000
0000
0000
0000
0000
0000
,
0002
3000
1000
1000
0000
0000
0000
0000
,
0020
0003
0000
0000
0000
0000
0000
0000
,
0200
0030
1000
1000
0000
0000
0000
0000
,
2000
0300
0000
0000
0000
0000
0000
3000
,
0001
0100
0010
1000
0001
0100
0010
1000
,
0100
0001
0100
1000
0010
0100
0010
1000
,
0001
0010
0100
1000
0001
0010
0100
1000
,
0010
0100
0010
0001
0010
0100
0010
1000
,
0001
0010
1000
0010
0001
0100
0010
0100
,
1000
0100
0010
0100
0001
1000
0100
0010
,
0001
0100
0001
0100
1000
0100
1000
0100
,
0001
0010
0100
1000
0010
0100
0001
1000
,
2200
3300
0000
0000
;
