#TITLE:Colors;
#SUBTITLE:~Technicolor Remix~;
#ARTIST:dj TAKA;
#GENRE:TRANCE;
#CREDIT:B. M'Rey;
#MUSIC:Colors ~Technicolor Remix~.ogg;
#BANNER:Colors ~Technicolor Remix~.png;
#BACKGROUND:Colors ~Technicolor Remix~-bg.png;
#CDTITLE:./CDTITLES/Arcade Exclusive.PNG;
#SAMPLESTART:49.224;
#SAMPLELENGTH:12.000;
#OFFSET:-0.063;
#BPMS:0.000=155.000;

//--------------- dance-single - B. M'Rey ----------------
#NOTES:
     dance-single:
     B. M'Rey:
     Beginner:
     1:
     0,0,0,0,0:
0000
0000
0000
0000
,
0000
0000
0000
0000
,
0000
0000
0000
0000
,
0000
0000
0000
0000
,
0000
0000
0000
0000
,
0000
0000
0000
0000
,
0000
0000
0000
0000
,
0000
0000
0000
0000
,
0000
0000
0000
0000
,
1000
0000
0010
0000
,
0100
0000
0001
0001
,
0010
0000
1000
0000
,
0100
0000
1000
1000
,
1000
0000
0010
0000
,
0100
0000
0001
0001
,
0001
0000
0010
0000
,
0100
0000
0000
0000
,
1000
0000
0000
0000
,
0001
0000
0000
0000
,
0010
0000
0000
0000
,
0100
0000
0001
0000
,
1000
0000
0000
0010
,
0001
0000
0000
0000
,
0100
0000
0000
0000
,
1000
0000
0001
0000
,
1000
0000
0000
0000
,
0100
0000
0000
0000
,
0001
0000
0000
0000
,
0010
0000
0001
0000
,
1000
0000
0000
0000
,
0010
0000
0000
0200
,
0000
0000
0000
0000
0000
0000
0000
0000
0000
0000
0000
0000
0000
0000
0000
0000
0000
0000
0000
0000
0000
0000
0000
0000
0000
0000
0000
0000
0000
0000
0000
0000
0000
0000
0000
0000
0000
0000
0000
0000
0000
0000
0000
0000
0000
0000
0000
0000
0000
0000
0000
0000
0000
0000
0000
0000
0000
0000
0000
0000
0000
0000
0000
0000
0000
0000
0000
0000
0000
0000
0000
0000
0000
0000
0000
0000
0000
0000
0000
0000
0000
0000
0000
0000
0000
0000
0000
0000
0000
0000
0000
0000
0000
0000
0000
0000
0000
0000
0000
0000
0000
0000
0000
0000
0000
0000
0000
0000
0000
0000
0000
0000
0000
0000
0000
0000
0000
0000
0000
0000
0000
0000
0000
0000
0000
0000
0000
0000
0000
0000
0000
0000
0000
0000
0000
0000
0000
0000
0000
0000
0000
0000
0000
0000
0000
0000
0000
0000
0000
0000
0000
0000
0000
0000
0000
0000
0000
0000
0000
0000
0000
0000
0000
0000
0000
0000
0000
0000
0000
0000
0000
0000
0000
0000
0000
0000
0000
0000
0000
0000
0000
0000
0000
0000
0000
0000
0000
0300
0000
0000
0000
0000
,
0001
0000
0000
1000
,
0010
0000
0000
0100
,
0001
0000
0000
0000
,
0010
0000
1000
0000
,
0100
0000
0000
0000
,
0001
0010
0000
0000
,
0100
0000
1000
0000
,
0010
0000
0000
0000
,
1000
0000
0000
0001
,
0010
0000
0000
1000
,
0100
0000
0000
0000
,
0010
0000
0100
0000
,
0001
0000
0000
0000
,
1000
0000
0000
0000
,
0010
0000
0100
0000
,
0001
0000
0000
0000
,
1000
0000
0000
0000
,
0100
0000
0000
0000
,
1000
0000
0000
0000
,
0000
0000
0000
0000
,
0010
0000
0000
0000
,
0001
0000
0000
0000
,
0100
0000
0000
0000
,
0000
0000
0000
0000
,
0010
0000
0010
0000
,
0001
0000
0001
0000
,
1000
0000
1000
0000
,
0010
0000
0010
0000
,
0100
0000
0000
0000
,
0001
0000
0000
0000
,
1000
0000
0000
0000
,
0000
0000
0000
0000
,
1000
0000
0000
0001
,
0010
0000
0000
0100
,
1000
0000
0000
0000
,
0010
0000
0100
0000
,
1000
0000
0000
0000
,
0010
0000
0000
0000
,
0100
0000
0001
0000
,
0010
0000
0000
0000
,
0001
0000
0000
0010
,
1000
0000
0000
0100
,
0001
0000
0000
0000
,
0010
0000
1000
0000
,
0001
0000
0000
0000
,
0100
0000
0000
0000
,
1000
0000
0010
0000
,
0001
0000
0000
0000
,
1000
0000
0000
0000
;

//--------------- dance-single - B. M'Rey ----------------
#NOTES:
     dance-single:
     B. M'Rey:
     Easy:
     3:
     0,0,0,0,0:
0000
0000
0000
0000
,
0000
0000
0000
0000
,
0000
0000
0000
0000
,
0000
0000
0000
0000
,
0000
0000
0000
0000
,
0000
0000
0000
0000
,
0000
0000
0000
0000
,
0000
0000
0000
0000
,
0000
0000
0000
0000
,
0001
0100
0010
0100
,
0000
0010
0000
1000
,
0100
0010
0001
0010
,
0000
1000
0000
0100
,
0001
0010
0100
0010
,
0000
1000
0000
1000
,
0001
0100
0010
0100
,
0020
0000
0000
0000
,
0130
1000
0000
1000
,
0010
1000
0000
0010
,
0001
0100
0000
1000
,
0020
0000
0230
0000
,
0301
0010
0000
0010
,
0001
0000
0010
0000
,
0020
0000
0031
0010
,
0100
0000
0010
0000
,
0001
1000
0001
0010
,
0200
0000
0000
1300
,
0001
0000
0100
0010
,
0001
0000
0100
0000
,
0010
1000
0100
0010
,
0002
0000
0003
0010
,
0002
0000
0000
0103
,
0020
0000
0031
0100
,
0002
0000
0103
0010
,
0002
0000
1003
0000
,
0100
0000
0001
0000
,
0010
1000
0010
0100
,
0001
2000
3000
0010
,
0002
0003
0100
1000
,
0002
0000
0003
1000
,
0020
0000
0031
0010
,
0200
0000
0310
1000
,
0020
0000
0031
0000
,
0100
0000
0010
0000
,
0001
1000
0001
0010
,
0100
0020
0000
0130
,
0002
0000
0013
0100
,
0020
0000
0031
1000
,
0002
0000
0000
0000
,
0203
0000
0310
0001
,
0200
0000
0000
0000
,
0000
0300
0000
0000
,
0120
0000
0000
0031
,
0200
0000
0310
0001
,
0200
0000
0000
0000
,
0300
0000
0000
1000
,
0100
0000
0001
0000
,
0010
1000
0100
1000
,
0010
0000
0001
0000
,
1000
0000
0001
1000
,
1100
0000
0001
0000
,
1010
0000
0010
0000
,
0220
0000
0000
0000
,
0330
0000
0000
0100
,
0020
0000
0031
0100
,
0002
0000
0103
0010
,
0002
0000
1003
0000
,
0100
0000
0001
0000
,
0010
1000
0010
0100
,
0001
2000
3000
0010
,
0002
0003
0100
1000
,
0002
0000
0003
1000
,
0020
0000
0031
0010
,
0200
0000
0310
1000
,
0020
0000
0031
0000
,
0100
0000
0010
0000
,
0001
1000
0001
0010
,
0100
0020
0000
0130
,
0002
0000
0013
0100
,
0020
0000
0031
1000
,
0002
0000
0000
0000
,
0003
0000
0000
0000
;

//--------------- dance-single - B. M'Rey ----------------
#NOTES:
     dance-single:
     B. M'Rey:
     Medium:
     5:
     0,0,0,0,0:
0000
0000
0000
0000
,
0000
0000
0000
0000
,
0000
0000
0000
0000
,
0000
0000
0000
0000
,
0000
0000
0000
0000
,
0000
0000
0000
0000
,
0000
0000
0000
0000
,
0000
0000
0000
0000
,
0000
0000
0000
0000
,
0010
0000
0100
0000
0001
0000
1000
0010
,
0000
0001
0100
0000
0001
0000
1000
0001
,
0000
0000
0010
0000
0001
0000
1000
0100
,
0000
0001
1000
0000
0001
0000
1000
0100
,
0000
0000
1000
0000
0010
0000
0100
0001
,
0000
1000
0010
0000
0001
0000
0010
0100
,
0000
0000
1000
0000
0100
0000
0010
0200
,
0000
0000
0000
0000
,
0301
0000
1000
0000
0010
0100
0010
0000
,
0001
0000
0010
0000
0000
0100
0010
0000
,
1000
0000
0100
0000
0000
1000
0100
1000
,
0000
0000
0000
0001
0000
0010
0000
0000
,
0001
0000
0100
0000
0000
0001
0100
0010
,
0000
0000
1000
0100
0000
0000
0000
0000
,
0001
0000
0000
0010
0100
0000
0001
0010
,
0000
1000
0000
0100
0000
0010
0000
0000
,
0001
0000
0000
1000
0000
0000
0010
0000
,
0100
0000
0001
0000
0010
0000
1000
0001
,
1000
0001
0000
0010
0000
0000
0100
0000
,
1000
0000
0000
0010
0000
0000
0100
0000
,
0001
0000
0010
0000
0001
0000
0001
0010
,
1000
0000
0100
0000
1000
0000
0010
0100
,
0100
0000
0000
0000
0000
0000
0001
0010
,
0002
0000
0000
0013
1000
0010
1000
0200
,
0000
0000
0300
0010
0100
0010
0100
2000
,
0000
0000
0000
0000
0000
0000
3001
0000
0010
0000
0000
0001
0000
0000
0100
0000
,
0000
0001
0010
0000
1000
0001
1000
0000
,
0010
0000
0100
0000
0010
1000
0000
0100
,
0000
0000
0010
0000
2000
0000
0000
0000
0000
0000
3001
0000
0000
0010
0000
0000
,
0200
0000
0000
0000
0000
0000
0000
0000
0301
0000
0000
0100
0000
0000
0010
0000
,
1000
0000
0010
0000
0100
0010
0001
0000
,
1002
0000
0000
0013
1000
0010
1000
0020
,
0000
0000
0000
0130
0010
0100
0010
0200
,
0000
0000
0000
0000
0000
0000
0301
0000
0010
0000
0000
1000
0000
0000
0100
0000
,
0000
0001
0010
0000
0001
1000
0001
0000
,
0010
0000
0100
0000
0001
0010
0000
0001
,
0000
0000
1000
0000
0020
0000
0000
0000
0000
0000
0031
0000
0000
0100
0000
0000
,
0002
0000
0000
0000
0000
0000
0000
0000
0013
0000
0000
1000
0000
0000
0001
0000
,
2000
0000
0000
0000
3001
0100
0001
0100
,
0001
0000
0100
0000
,
0001
0000
0010
0100
,
1000
0000
0001
0000
,
0010
0000
0001
0000
,
0202
0000
0303
1000
,
0100
0000
0010
0100
,
0002
0000
1000
0000
,
1003
0000
0000
0000
1000
0000
0001
0100
,
0010
1000
0100
0000
,
0010
0100
0010
0000
,
0001
1000
0001
0000
,
0010
0100
0010
0000
,
0101
0000
0010
0000
,
1010
0000
0100
0000
,
0220
0000
0000
0000
,
0330
0000
0000
0000
0001
0000
0001
0010
,
0002
0000
0000
0013
1000
0010
1000
0200
,
0000
0000
0300
0010
0100
0010
0100
2000
,
0000
0000
0000
0000
0000
0000
3001
0000
0010
0000
0000
0001
0000
0000
0100
0000
,
0000
0001
0010
0000
1000
0001
1000
0000
,
0010
0000
0100
0000
0010
1000
0000
0100
,
0000
0000
0010
0000
2000
0000
0000
0000
0000
0000
3001
0000
0000
0010
0000
0000
,
0200
0000
0000
0000
0000
0000
0000
0000
0301
0000
0000
0100
0000
0000
0010
0000
,
1000
0000
0010
0000
0100
0010
0001
0000
,
1002
0000
0000
0013
1000
0010
1000
0020
,
0000
0000
0000
0130
0010
0100
0010
0200
,
0000
0000
0000
0000
0000
0000
0301
0000
0010
0000
0000
1000
0000
0000
0100
0000
,
0000
0001
0010
0000
0001
1000
0001
0000
,
0010
0000
0100
0000
0001
0010
0000
0001
,
0000
0000
1000
0000
0020
0000
0000
0000
0000
0000
0031
0000
0000
0100
0000
0000
,
0002
0000
0000
0000
0000
0000
0000
0000
0013
0000
0000
1000
0000
0000
0001
0000
,
2000
0000
0000
0000
3001
0100
0001
0100
,
0002
0000
0000
0000
,
0003
0000
0000
0000
;

//--------------- dance-single - B. M'Rey ----------------
#NOTES:
     dance-single:
     B. M'Rey:
     Hard:
     8:
     0,0,0,0,0:
0000
0000
0000
0000
,
0000
0000
0000
0000
,
0000
0000
0000
0000
,
0000
0000
0000
0000
,
0000
0000
0000
0000
,
0000
0000
0000
0000
,
0000
0000
0000
0000
,
0000
0000
0000
0000
,
0000
0000
0000
0000
,
0001
0010
0001
0010
0001
0100
0010
0100
,
0000
0100
0001
0000
0001
0010
0001
0010
,
0000
0010
0100
0000
0100
1000
0010
1000
,
0000
0100
0010
0000
0001
0100
0001
1000
,
0000
1000
0100
1000
0100
0010
0100
0010
,
0000
0010
0001
0000
0001
0100
0010
1000
,
0000
1000
0010
0000
0100
0010
0001
0010
,
0200
0000
0000
0000
,
0310
0000
0100
0000
0001
1000
0001
0000
,
0010
0000
0001
0000
0010
0100
0010
0000
,
0001
1000
0010
0000
0100
0010
0100
0020
,
0000
0000
0031
1000
0000
0010
0000
0000
,
1001
0000
0011
0000
0100
1000
0100
0010
,
0000
1000
0001
1000
0000
0000
0100
0000
,
0002
0000
0013
0100
0010
0000
0001
0010
,
0000
0001
0000
0100
0000
1000
0000
0100
,
0001
0000
0100
0010
0100
0000
0001
0100
,
0001
0010
0010
0100
,
0100
0010
0000
1000
0010
0000
0100
1000
,
0001
0000
0010
0100
0001
0000
0001
0000
,
0100
0000
0001
0010
0100
0000
0200
0000
,
0010
0000
0010
0000
0310
0000
0001
0010
,
0200
0000
0010
0000
0010
0000
0301
1000
,
0001
1000
0001
1000
0001
0100
0010
0100
,
0010
0100
0010
0100
0001
0010
0001
0010
,
0001
0010
0100
0010
0100
1000
0100
1000
,
0100
0010
0001
0000
0001
0010
0001
0000
,
0100
0000
0100
1000
0010
1000
0010
1000
,
0010
0100
0010
0100
0001
0100
0001
0100
,
0001
0000
0010
1000
0010
0000
0010
1000
,
0001
0000
0001
0100
0001
0000
0001
1000
,
0100
1000
0100
1000
0100
1000
0010
0100
,
0010
0100
0001
1000
0010
1000
0010
1000
,
0010
1000
0001
0010
0001
1000
0001
1000
,
0010
1000
0010
0000
0010
0100
0010
0000
,
0001
0000
0001
1000
0001
1000
0001
1000
,
0010
1000
0010
0100
0010
0100
0010
0100
,
0001
0000
0001
1000
0100
0000
0010
1000
,
0010
0000
0010
0100
0010
1000
0100
1000
,
0020
0000
0000
0000
,
0130
0000
0100
1000
,
0002
0000
0100
0000
,
0100
0000
0100
0003
,
2001
0000
0010
0000
,
3001
1000
0100
1000
,
0200
0000
0001
0000
,
0301
0000
0010
0000
,
0010
1000
0001
0100
,
0001
0100
0001
0010
,
0100
0010
0100
1000
,
0010
1000
0001
0010
,
1100
1000
0001
0100
,
0101
0100
0010
1000
,
1001
1000
0010
1000
,
0010
0000
0000
0000
0100
0000
0001
1000
,
0001
1000
0001
1000
0001
0100
0010
0100
,
0010
0100
0010
0100
0001
0010
0001
0010
,
0001
0010
0100
0010
0100
1000
0100
1000
,
0100
0010
0001
0000
0001
0010
0001
0000
,
0100
0000
0100
1000
0010
1000
0010
1000
,
0010
0100
0010
0100
0001
0100
0001
0100
,
0001
0000
0010
1000
0010
0000
0010
1000
,
0001
0000
0001
0100
0001
0000
0001
1000
,
0100
1000
0100
1000
0100
1000
0010
0100
,
0010
0100
0001
1000
0010
1000
0010
1000
,
0010
1000
0001
0010
0001
1000
0001
1000
,
0010
1000
0010
0000
0010
0100
0010
0000
,
0001
0000
0001
1000
0001
1000
0001
1000
,
0010
1000
0010
0100
0010
0100
0010
0100
,
0001
0000
0001
1000
0100
0000
0010
1000
,
0010
0000
0010
0100
0010
1000
0100
1000
,
0020
0000
0000
0000
,
0030
0000
0000
0000
;
