#TITLE:Colored;
#ARTIST:Yamajet;
#GENRE:HOUSE;
#CREDIT:B. M'Rey;
#MUSIC:Colored.ogg;
#BANNER:Colored.png;
#BACKGROUND:Colored-bg.png;
#CDTITLE:./CDTITLES/DDR HOME VERSION.PNG;
#SAMPLESTART:29.608;
#SAMPLELENGTH:12.000;
#OFFSET:-0.070;
#BPMS:0.000=130.000;

//--------------- dance-single - B. M'Rey ----------------
#NOTES:
     dance-single:
     B. M'Rey:
     Beginner:
     2:
     0,0,0,0,0:
0000
0000
0000
0000
,
0000
0000
0000
0000
,
0000
0000
0000
0000
,
0000
0000
0000
0000
,
0000
0000
0000
0000
,
0000
0000
0000
0000
,
0000
0000
0000
0000
,
0000
0000
0000
0000
,
1001
0000
0000
0000
,
0100
0000
0000
0000
,
0010
0000
0000
0000
,
1000
0000
0000
0000
,
0101
0000
0000
0000
,
1010
0000
0000
0000
,
0101
0000
1010
0000
,
0100
0100
0100
0000
,
0001
0000
1000
0000
,
0010
0000
0100
0100
,
0001
0000
0010
0000
,
0001
0000
1000
1000
,
0100
0000
1000
0000
,
0010
0000
0001
0001
,
0100
0000
0010
0000
,
1000
0000
0001
0001
,
0100
0000
0010
0000
,
1000
0000
0100
0000
,
1000
0000
0010
0000
,
0100
0001
0010
0000
,
1000
0000
0010
0000
,
0100
0001
1000
0000
,
0010
0000
0100
0000
,
0001
0000
1000
0000
,
0110
0000
0101
0000
,
0110
0000
0000
0000
,
1010
0000
0110
0000
,
1010
0000
0000
0000
,
0100
0000
0100
0000
,
0100
0000
0100
0000
,
0010
0010
0010
0010
,
2002
0000
0000
3003
,
0000
0000
0000
0000
,
0020
0000
0031
0000
,
1000
0000
0010
0000
,
0100
0000
1000
1000
,
0001
0000
0010
0000
,
0100
0000
0001
0001
,
1000
0000
0010
0000
,
0100
0000
0001
0001
,
1000
0000
0010
0000
,
0100
0000
1000
1000
,
0010
0000
0100
0000
,
0001
0000
0010
0010
,
1000
0000
0100
0000
,
1000
0000
0001
0001
,
0010
0000
0100
0000
,
0010
0000
1000
1000
,
0001
0000
0000
0000
,
0100
0000
0000
0000
,
0010
0000
0000
0000
,
1000
0000
0000
0000
,
1001
0000
0000
0000
,
0010
0000
0000
0000
,
0200
0000
0000
0000
,
0002
0000
0000
0303
;

//--------------- dance-single - B. M'Rey ----------------
#NOTES:
     dance-single:
     B. M'Rey:
     Easy:
     3:
     0,0,0,0,0:
0000
0000
0000
0000
,
0000
0000
0000
0000
,
0000
0000
0000
0000
,
0000
0000
0000
0000
,
1000
0000
0010
0100
,
0001
0000
0010
0100
,
1000
0000
0010
0100
,
0001
0000
1000
0010
,
0101
0010
1000
0100
,
1000
0100
0010
0100
,
0010
0001
0010
0001
,
0010
0100
0010
0100
,
1010
0000
0000
0000
,
0110
0000
0000
0000
,
0101
0000
1010
0000
,
0110
0110
0110
0000
,
0010
1000
0020
0000
,
0032
0000
0013
0010
,
0001
0100
0020
0000
,
0230
0000
0301
1000
,
0100
0010
0002
0000
,
0203
0000
0301
1000
,
0100
1000
0200
0000
,
0320
0000
0031
0100
,
0001
0010
0100
1000
,
0100
0010
0001
0010
,
0100
0010
0001
0100
,
0001
0100
0010
0100
,
0010
1000
0001
0010
,
0001
0010
0001
0100
,
0010
0100
0010
0100
,
0001
1000
0010
0100
,
0101
0000
1001
0000
,
0101
0000
0010
1000
,
0110
0000
0110
0000
,
1100
0000
0001
0100
,
0010
0000
0010
0000
,
0001
0000
0001
0000
,
0100
1000
0100
1000
,
0020
0000
0200
0000
,
0330
0000
0000
0000
,
0002
0103
0001
1000
,
0010
1000
0002
0000
,
0203
0000
0301
1000
,
0100
1000
0020
0000
,
0032
0000
0013
1000
,
0010
1000
0200
0000
,
0320
0000
0130
1000
,
0010
0100
0002
0000
,
0023
0000
1030
0100
,
0010
0100
0002
0000
,
0203
0000
0310
1000
,
0010
1000
0020
0000
,
0032
0000
0103
0100
,
0001
0010
0200
0000
,
0320
0000
0031
0010
,
0011
0000
0100
0010
,
0100
0000
0001
1000
,
0001
0000
0100
0010
,
0001
0000
0001
0100
,
1001
0000
0100
0000
,
0001
0000
0010
0000
,
0200
0000
0000
0000
,
0002
0000
0000
0303
;

//--------------- dance-single - B. M'Rey ----------------
#NOTES:
     dance-single:
     B. M'Rey:
     Medium:
     5:
     0,0,0,0,0:
0000
0000
0000
0000
,
0000
0000
0000
0000
,
0000
0000
0000
0000
,
0000
0000
0000
0000
,
0010
1000
0100
0010
,
0100
0010
0100
1000
,
0010
1000
0010
0100
,
0001
1000
0010
1000
,
0110
0100
0001
0100
,
0001
0100
0010
1000
,
0010
1000
0010
0100
,
0001
0100
0001
0100
,
0011
1000
0010
0100
,
0110
0100
0001
0100
,
1001
0010
0101
0010
,
0110
0011
0220
0330
,
0100
0001
1000
0000
0020
0000
1030
0100
,
0002
0000
0013
1000
0001
0000
1000
0000
,
0001
0010
0100
0000
0020
0000
0130
0000
,
0020
0130
1001
1010
,
0001
0010
1000
0000
0002
0000
0013
0000
,
0200
0310
1001
0110
,
0001
0000
1000
0001
0200
0000
1300
0000
,
0200
0310
0101
0110
,
0010
0100
1000
0000
0001
0000
1000
0000
,
0001
0010
1000
0000
0010
0001
0100
0000
,
0010
0000
0100
0000
0010
0001
1000
0000
,
0001
0000
1000
0000
0010
0000
1000
0001
,
0100
0000
0010
1000
0100
0000
1000
0010
,
0001
0000
0100
0000
0001
1000
0100
0000
,
0010
0000
0100
0000
0010
0001
1000
0000
,
0001
0010
0100
0000
0001
0010
1000
0000
,
1001
0010
0110
1000
,
0101
1000
0010
1000
,
0110
0100
1010
0100
,
0011
0010
0100
0010
,
0001
1010
0010
1100
,
0001
1010
0001
1010
,
0011
0110
1010
1010
,
0011
1100
0011
1100
,
0022
0000
0000
0000
,
0003
1030
0001
1000
,
0001
0010
0100
0000
0020
0000
0130
0000
,
0020
0130
1001
1010
,
0001
0010
1000
0000
0002
0000
0013
0000
,
0200
0310
1001
0110
,
0001
0000
1000
0001
0200
0000
1300
0000
,
0200
0310
0101
0110
,
0010
0100
1000
0000
0002
0000
1003
0000
,
0002
0000
1003
0000
0010
0001
1000
0000
,
0100
0000
1000
0010
0002
0000
0103
0000
,
0020
0130
1001
0110
,
0001
1000
0010
0000
0200
0000
1300
0000
,
0200
1300
0011
1100
,
0010
0000
1000
0100
0002
0000
0103
0000
,
0020
1030
1001
1100
,
0100
0010
0001
1000
,
0010
1000
0001
0010
,
0001
0010
0100
1000
,
0010
1000
0010
0100
,
0101
0010
0001
0100
,
0010
0100
0001
0100
,
0001
1000
0010
0100
,
0002
0000
0000
0003
;

//--------------- dance-single - B. M'Rey ----------------
#NOTES:
     dance-single:
     B. M'Rey:
     Hard:
     7:
     0,0,0,0,0:
0000
0000
0000
0000
,
0000
0000
0000
0000
,
0000
0000
0000
0000
,
0000
0000
0000
0000
,
0100
1000
0100
1000
,
0010
1000
0100
0010
,
0100
1000
0100
0010
,
0001
1000
0001
1000
,
0100
0010
0100
0000
0010
0000
0001
0000
,
0100
0010
0001
0000
0100
0000
1000
0000
,
0001
0010
0001
0000
0001
0000
0100
0000
,
0100
0010
0001
0000
0010
0000
0100
0000
,
0101
0000
0001
1000
0100
0000
0100
0000
,
1100
0000
0001
1000
0001
0000
0001
0000
,
1010
0000
0100
0010
0101
0000
0001
1000
,
1001
1100
2002
3003
,
0010
1000
0001
1000
0200
0000
1300
0010
,
0002
0000
0103
1000
1001
0000
0101
0000
,
0010
1000
0100
0010
0002
0000
0013
0100
,
0020
0000
0031
1000
0120
0030
0021
0030
,
0001
0010
0100
1000
0002
0000
0103
1000
,
0002
0000
1003
0010
1100
0000
1010
0000
,
0100
1000
0001
0010
0200
0000
0301
1000
,
0020
0000
0130
1000
0010
0000
0001
0000
,
0001
0010
0001
0100
0001
0100
0010
0100
,
0001
0000
0010
1000
0001
0000
0001
0100
,
0010
0100
0001
0010
0001
0100
0001
0010
,
0100
0000
1000
0000
0100
0000
0001
0100
,
0001
0000
0000
0000
0000
0000
0001
0000
0000
1000
0000
0000
0001
0000
0010
0000
0001
0000
1000
0000
0001
0000
1000
0000
,
0100
0010
0001
0010
0001
0100
0010
0100
,
0010
0000
0000
0000
1000
0000
0010
0000
0000
0001
0000
0000
0100
0000
0000
1000
0000
0000
0001
0000
0000
0100
0000
0000
,
0001
1000
0100
1000
0010
1000
0010
0100
,
1100
0000
0001
0010
1001
0000
0001
1000
,
0110
0000
0100
0010
0002
0000
0023
0000
,
1030
0000
0100
0010
0110
0000
0100
1000
,
0101
0000
0001
0010
0200
0000
0320
0000
,
1030
0000
0010
1000
0011
0000
0001
0010
,
0110
0000
0100
1000
1100
0000
0010
0100
,
0220
0330
2002
3003
0202
0303
0202
0303
,
0010
1000
0010
1000
0100
0010
0001
0010
,
0100
0001
1000
0010
,
0200
0000
0310
0100
0001
0100
0001
0010
,
0100
0010
0001
1000
0020
0000
0031
0100
,
0002
0000
0103
1000
1010
0000
0110
0000
,
0100
0010
0001
0010
0002
0000
1003
0100
,
0020
0000
0130
1000
0021
0030
2100
3000
,
0010
1000
0010
0100
0020
0000
0031
1000
,
0200
0000
1300
0100
0101
0000
1010
0000
,
0010
0100
0001
0010
0002
0000
1003
0010
,
0200
0000
0301
1000
0011
0000
1001
0000
,
0010
0100
0010
0100
0002
0000
0103
1000
,
0200
0000
0310
0100
0210
0300
1020
0030
,
0100
1000
0010
1000
0002
0000
0103
0100
,
0020
0000
0031
1000
0110
0000
0101
0000
,
0010
1000
0010
0100
0002
0000
0103
0010
,
0200
0000
0310
0010
0101
0000
0110
0000
,
0010
0100
0010
0100
0010
1000
0001
0010
,
0001
0010
0001
0100
0010
1000
0100
1000
,
0100
0010
0001
0010
0001
0010
0100
1000
,
0100
0010
0100
0010
0001
1000
0010
0100
,
1010
0100
1000
0001
,
1000
0001
0010
0001
,
0010
0100
1000
0001
,
2000
0000
0000
3000
;
