#VERSION:0.83;
#TITLE:Cloudy Skies;
#ARTIST:EGOISTIC LEMONTEA;
#GENRE:SYMPATHY;
#CREDIT:B. M'Rey;
#MUSIC:Cloudy Skies.ogg;
#BANNER:Cloudy Skies-bn.png;
#BACKGROUND:Cloudy Skies-bg.png;
#CDTITLE:./CDTITLES/Pop'n music 18 Sengoku Retsuden.PNG;
#SAMPLESTART:66.803;
#SAMPLELENGTH:15;
#OFFSET:-0.031;
#BPMS:0=149.000;

//--------------- dance-single - B. M'Rey ----------------
#NOTEDATA:;
#STEPSTYPE:dance-single;
#DESCRIPTION:B. M'Rey;
#DIFFICULTY:Beginner;
#METER:4;
#RADARVALUES:0,0,0,0,0;
#NOTES:
0000
0000
0000
0000
,
0000
0000
0000
0000
,
0000
0000
0000
0000
,
0000
0000
0000
0000
,
0000
0000
0001
0000
,
0000
0000
0100
0000
,
0000
0000
0010
0000
,
0000
0000
1000
0000
,
0001
0000
0001
0000
,
1000
0000
0010
0010
,
0100
0000
0001
0000
,
1000
0000
0100
0100
,
1000
0000
0010
0000
,
0100
0000
0001
0001
,
0010
0000
1000
0000
,
0010
0000
0100
0000
,
0001
0000
1000
0000
,
0000
0000
0000
0000
,
0000
0000
0000
0000
,
0000
0000
0000
0000
,
0000
0000
0010
0000
,
0000
0000
0001
0000
,
0000
0000
0100
0000
,
0000
0000
0010
0000
,
0010
0000
0001
0000
,
1000
0000
0100
0000
,
0000
0000
0010
0000
,
0000
0000
0000
0000
,
0001
0000
1000
0000
,
0010
0000
0100
0000
,
0010
0000
1000
0000
,
0001
0000
0100
0000
,
0010
0000
0000
0000
0000
0001
0000
0000
,
1000
0000
0000
0000
,
0010
0000
0000
0000
0000
0100
0000
0000
,
0001
0000
0000
1000
,
0000
0000
0000
0000
0000
0100
0000
0000
,
0010
0000
1000
0000
,
0001
0000
0010
0000
,
0000
0000
0100
0000
,
0010
0000
0001
0001
,
1000
0000
0010
0000
,
0100
0000
0010
0000
,
0001
0000
0000
0000
,
1000
0000
0010
0000
,
0100
0000
0000
0000
,
0010
0000
0001
0000
,
0010
0000
1000
0000
,
0001
0000
0100
0000
,
0010
0000
1000
0000
,
0100
0000
1000
0000
,
0001
0000
0000
0000
,
0010
0000
0100
0000
,
0001
0000
0000
0000
,
1000
0000
0010
0000
,
0100
0000
0001
0000
,
1000
0000
0010
0000
,
0100
0000
0001
0000
,
0000
0000
0000
0000
,
0000
0000
1000
0000
,
0010
0000
0100
0100
,
1000
0000
0001
0000
,
0010
0000
0001
0001
,
0010
0000
1000
0000
,
0100
0000
1000
1000
,
0100
0000
0010
0000
,
0001
0000
1000
0000
,
0000
2002
0000
0000
,
0000
0000
0000
0000
,
0000
0000
0000
0000
0000
3003
0000
0000
;

//--------------- dance-single - B. M'Rey ----------------
#NOTEDATA:;
#STEPSTYPE:dance-single;
#DESCRIPTION:B. M'Rey;
#DIFFICULTY:Easy;
#METER:7;
#RADARVALUES:0,0,0,0,0;
#NOTES:
0000
0000
0000
0000
,
0000
0000
0000
0000
,
0000
0000
0000
0000
,
0000
0000
0000
0000
,
0000
0000
1000
0000
,
0010
0000
0100
0000
,
0001
0010
0001
0000
,
1000
0000
1001
0000
,
1001
0000
0010
0100
,
0010
1000
0100
0001
,
0010
0001
0010
0100
,
1000
0100
0010
1000
,
0001
0010
0100
0001
,
0010
1000
0100
1000
,
0010
0100
0001
0010
,
0001
1000
0010
0000
,
0100
0000
0002
0000
,
0000
0000
0000
0000
,
0000
0000
2003
0000
,
0000
0000
3000
0000
,
0100
0100
0010
0000
,
0001
0000
1000
0000
,
0010
0100
0002
0000
,
0000
0003
1000
0000
,
1001
0000
0010
1000
,
0010
1000
0010
0100
,
0001
0100
0010
1000
,
0010
1000
0001
0100
,
0001
1000
0001
1000
,
0100
0010
0001
0100
,
0010
1000
0100
0010
,
0100
0010
0100
1000
,
0010
0000
0100
0000
0000
1001
0000
0000
,
0100
1000
0001
0010
,
0100
0000
0010
0000
0000
1100
0000
0000
,
0010
1000
0010
1000
,
0000
0000
0000
0000
0000
1100
0000
0000
,
0100
0010
0001
0010
,
0100
1000
0001
0000
,
0100
0000
0001
0100
,
0001
0000
0010
0100
,
0001
0000
0001
0100
,
0010
1000
0010
0100
,
0010
0000
0001
0010
,
0100
0010
0100
1000
,
0010
0000
0010
1000
,
0100
0010
0100
0010
,
0001
0100
0010
0000
,
0100
0000
1000
0000
,
0010
0000
0001
1000
,
0001
0010
0100
1000
,
0001
0000
0010
1000
,
0001
0010
0001
0010
,
0100
0000
0001
1000
,
0010
0100
0010
1000
,
0001
0010
0100
0000
,
0010
0000
0001
0100
,
0010
0100
0020
0000
,
0000
0000
0000
0000
,
0000
0000
0130
1000
,
0010
1000
0100
1000
,
0100
0010
0100
1000
,
0001
1000
0010
0100
,
0010
1000
0100
1000
,
0100
0010
0100
0010
,
0001
0100
0001
1000
,
0010
0000
0100
0000
0001
0000
0000
0100
,
0000
2002
0000
0000
,
0000
0000
0000
0000
,
0000
0000
0000
0000
0000
3003
0000
0000
;

//--------------- dance-single - B. M'Rey ----------------
#NOTEDATA:;
#STEPSTYPE:dance-single;
#DESCRIPTION:B. M'Rey;
#DIFFICULTY:Medium;
#METER:8;
#RADARVALUES:0,0,0,0,0;
#NOTES:
0000
0000
0000
0000
,
0000
0000
0000
0000
,
0000
0000
0000
0000
,
0000
0000
0000
0000
,
0000
0000
0001
0000
,
1000
0000
0010
0000
,
0100
0100
0010
0000
,
0001
0000
0001
1000
,
0001
0000
0000
0000
0001
0010
0001
0000
,
0010
0000
0100
0000
1000
0100
1000
0000
,
0010
0000
0100
0000
0001
0010
0001
0000
,
0010
0000
0100
0000
0010
0100
0010
0000
,
1000
0000
0100
0000
0001
0010
0001
0000
,
1000
0000
0100
0000
0001
1000
0001
0000
,
0010
0000
0100
0000
1000
0100
1000
0000
,
0010
0100
0002
0000
,
0023
0000
0000
1030
0100
0000
1000
0000
,
0001
0000
0010
0002
0000
0000
0000
0000
,
0000
0013
0100
0020
0000
0000
0000
0000
,
0000
0000
1030
0000
,
0001
0010
0100
0001
0010
0000
0000
1000
,
0100
0000
0000
0010
0100
0000
0000
0001
,
0010
1000
2002
0000
,
0000
3003
0000
0000
0010
0000
0100
0000
,
0001
0000
0000
0000
0010
0000
1000
0100
,
0000
0010
0100
0002
0000
0000
0013
0000
,
0000
0001
0010
2000
0000
0000
3100
0000
,
0000
0010
1000
0000
0001
0000
0000
0001
,
0010
0001
0100
0010
1000
0000
0000
0100
,
1000
0000
0010
0100
0000
0000
0000
0001
,
0010
0000
1000
0000
0200
0000
0000
0301
,
0020
0000
0000
0031
0100
0000
0010
0000
,
1000
0000
0000
0000
0000
0110
0000
0000
,
0001
0000
0010
1000
0000
0100
0000
1000
,
0000
0010
0100
0000
0000
1001
0000
0000
,
0001
0000
0010
0100
0000
0001
0200
0000
,
0000
0300
0000
0000
0000
1010
0000
0000
,
0010
0000
0100
0010
0000
0001
0000
1000
,
0000
0010
1000
0200
0000
0000
0000
0000
,
0300
0000
1001
0000
,
0101
0000
0010
1000
,
0101
0000
0010
1000
,
0100
0000
1000
0000
0010
0000
0100
0001
,
0010
0000
0100
0000
0001
1000
0000
0100
,
0001
0000
0010
0000
0100
0000
0001
0010
,
1000
0100
1001
0010
,
0100
0000
0001
0010
0000
1000
0100
1000
,
0000
0000
0010
0100
0020
0000
0000
0001
,
0031
0000
0000
1000
1000
0000
0000
0100
,
0100
0000
0000
0010
0100
0000
0010
0000
,
0001
0000
1000
0000
0100
0000
1000
0010
,
1000
0000
0010
0000
1000
0001
0000
0100
,
0010
0100
0001
0010
,
2002
3003
0010
0100
,
0010
0000
0001
1000
0000
0010
0100
1000
,
0000
0010
0100
0001
0020
0000
0000
0031
,
0200
0000
0000
0300
1001
0000
0110
0000
,
0101
1010
0220
0000
,
0000
0000
0000
0000
,
0000
0000
0000
0330
0001
0010
0001
0000
,
1000
0100
1000
0000
0010
0000
0100
0000
,
0010
0000
1000
0000
0001
0010
0001
0000
,
0100
1000
0100
0000
0010
0000
0100
0000
,
0001
0000
0010
0000
0100
0010
0100
0000
,
0001
1000
0001
0000
0010
0000
0100
0000
,
0001
0000
1000
0000
0100
1000
0100
0000
,
0010
0100
0010
0000
1001
0000
0000
0101
,
0000
0220
0000
0000
,
0000
0000
0000
0000
,
0000
0000
0000
0000
0000
0000
0000
0000
0000
0000
0000
0000
0000
0000
0000
0000
0000
0000
0000
0000
0000
0000
0000
0000
0000
0000
0000
0000
0000
0000
0000
0000
0000
0000
0000
0000
0000
0000
0000
0000
0000
0000
0000
0000
0000
0000
0000
0000
0000
0000
0000
0000
0000
0000
0000
0000
0000
0000
0000
0000
0000
0000
0000
0000
0000
0000
0000
0000
0000
0000
0000
0000
0000
0000
0000
0000
0000
0000
0000
0000
0000
0000
0000
0000
0000
0000
0000
0000
0000
0000
0000
0000
0000
0000
0000
0000
0000
0000
0000
0000
0000
0000
0000
0000
0000
0000
0000
0000
0000
0000
0000
0000
0000
0000
0000
0000
0000
0000
0000
0330
0000
0000
0000
0000
0000
0000
0000
0000
0000
0000
0000
0000
0000
0000
0000
0000
0000
0000
0000
0000
0000
0000
0000
0000
0000
0000
0000
0000
0000
0000
0000
0000
0000
0000
0000
0000
0000
0000
0000
0000
0000
0000
0000
0000
0000
0000
0000
0000
0000
0000
0000
0000
0000
0000
0000
0000
0000
0000
0000
0000
0000
0000
0000
0000
0000
0000
0000
0000
0000
0000
0000
0000
;

//--------------- dance-single - B. M'Rey ----------------
#NOTEDATA:;
#STEPSTYPE:dance-single;
#DESCRIPTION:B. M'Rey;
#DIFFICULTY:Hard;
#METER:10;
#RADARVALUES:0,0,0,0,0;
#NOTES:
0000
0000
0000
0000
,
0000
0000
0000
0000
,
0000
0000
0000
0000
,
0000
0000
0000
0000
,
0000
0000
0000
0000
0001
0010
0001
0000
,
1000
0000
0100
0000
0010
0100
0010
0000
,
1000
0000
0100
0000
0001
0010
0001
0000
,
1000
0000
0000
0000
0010
0000
0000
0000
0101
0000
0000
1001
0000
0000
0010
0000
,
1001
0000
0000
0000
0001
0010
0001
0000
,
0100
0010
0100
0000
1000
0000
0100
0000
,
1000
0000
0010
0000
0001
0010
0001
0000
,
1000
0100
1000
0000
0010
0000
0100
0000
,
0001
0000
1000
0000
0010
1000
0010
0000
,
0001
0100
0001
0000
0010
0000
1000
0000
,
0100
0000
0010
0000
0001
1000
0010
0000
,
0010
0100
0001
0000
1001
0000
0000
0000
,
0110
0000
0000
0000
0000
0000
0001
0000
0010
0000
0000
1000
0000
0000
0100
0000
,
0000
0010
1000
0200
0000
0000
0000
0000
,
0300
0001
0010
0002
0000
0000
0000
0000
,
1000
0000
0000
0000
0103
0000
0000
0010
,
0100
1000
0000
0100
0001
0000
0000
0010
,
1000
0000
0000
0010
0100
0000
0000
0001
,
1000
0000
0000
0000
0010
0000
0000
0100
0002
0000
0000
0000
0000
0000
0000
0000
,
0003
0000
0000
0000
0000
0000
0010
0000
1000
0000
0000
0100
0000
0000
0001
0000
,
0010
0000
0000
0001
1000
0000
0100
0010
,
0000
1000
0100
2000
0000
0000
3010
0000
,
0100
0001
0010
0001
1000
0000
0100
0000
,
1000
0010
0100
0000
1000
0000
0010
0000
,
0001
0010
0100
0010
1000
0000
0100
1000
,
0100
0000
0010
0100
0000
0001
0010
0001
,
0010
0000
0000
0010
0000
0000
0100
0000
1000
0000
0000
0000
0100
0000
0010
0000
,
1000
0000
0000
0000
0001
0000
0100
0000
0010
0000
0000
0001
0000
0000
1000
0000
,
0010
0000
0100
0000
0000
1001
0000
0000
,
0010
1000
0100
1000
0000
0010
0000
0100
,
0000
0001
0010
0000
0000
1100
0000
0100
,
0010
1000
0100
0010
0000
0001
0010
0000
,
0100
0010
0100
0000
0000
1001
0000
0000
,
0010
0100
1000
0100
0000
0010
0000
1000
,
0000
0001
0100
0010
0000
0001
1000
0000
,
0010
0100
1000
0000
1001
0000
0000
0000
,
0110
0000
0000
0000
0000
0000
0000
0000
0101
0000
0000
1010
0000
0000
0101
0000
,
1010
0000
0000
0000
0000
0000
0000
0000
0001
0000
0000
0100
0000
0000
0010
0000
,
0100
0000
0000
0001
0000
0000
1000
0000
0100
0000
0000
0000
0010
0000
1000
0000
,
0100
0000
0000
0000
0010
0000
0000
0000
0001
0000
0000
0000
0010
0000
0001
0100
,
0001
0000
0000
0010
0000
0000
1000
0000
0100
0000
0000
1000
0000
0000
0010
0000
,
0100
0001
1000
0010
,
0100
0000
1000
0100
0000
0010
1000
0010
,
0100
0000
0001
0010
1000
0000
0010
0100
,
1000
0000
0001
0010
0001
0000
0010
0100
,
1000
0000
0000
0000
0010
0000
0100
0010
0100
0000
0000
0001
0000
0000
0010
0000
,
1000
0000
0000
0100
0000
0000
1000
0000
0100
0000
0000
0010
0000
0000
0100
0000
,
0001
0000
0000
0000
0010
0000
0000
0000
1000
0000
0000
0001
0000
0000
1000
0010
,
1000
0000
0000
0001
0000
0000
0100
0000
0010
0000
0000
0100
0000
0000
0001
0000
,
1001
0000
0010
0000
0100
0000
0001
0010
,
1000
0010
0100
0001
0000
0010
1000
0100
,
0000
1000
0100
1000
0020
0000
0000
0031
,
0200
0000
0000
0000
0000
0000
0301
1000
0001
0000
0000
0000
0010
0000
0000
0000
,
0100
0000
0000
0001
0000
0000
2000
0000
0000
0000
0000
0000
0010
0000
0000
0000
,
0010
0010
0010
0000
,
0001
0000
0000
0000
3001
0010
0001
0010
,
1000
0000
0100
1000
0100
1000
0100
1000
,
0010
0000
0100
0000
0001
0010
0001
0010
,
0001
0000
0010
1000
0100
1000
0100
1000
,
0010
0000
0100
0000
0001
0010
0001
0010
,
1000
0000
0100
1000
0100
1000
0100
0000
,
0010
0000
0100
0000
0001
1000
0010
0000
,
0001
0100
0010
0000
1001
0000
0000
0101
,
0000
2020
0000
0000
,
0000
0000
0000
0000
,
0000
0000
0000
0000
0000
3030
0000
0000
;
