#TITLE:Carezza;
#ARTIST:Osamu Kubota;
#GENRE:R&B\/SWING;
#CREDIT:B. M'Rey;
#MUSIC:Carezza.ogg;
#BANNER:Carezza-bn.png;
#BACKGROUND:Carezza-bg.png;
#CDTITLE:./CDTITLES/KEYBOARDMANIA.png;
#SAMPLESTART:26.782;
#SAMPLELENGTH:12.000;
#OFFSET:-0.063;
#BPMS:0.000=128.000;

//--------------- dance-single - B. M'Rey ----------------
#NOTES:
     dance-single:
     B. M'Rey:
     Beginner:
     1:
     0,0,0,0,0:
0000
0000
0000
0000
,
0000
0000
0000
0000
,
0000
0000
0000
0000
,
0000
0000
0000
0000
,
0000
0001
0000
0000
,
0000
1000
0000
0000
,
0000
0001
0000
0000
,
0000
0100
0000
0000
,
0000
0010
0000
0000
,
0000
0110
0000
0000
,
0000
1000
0000
0000
,
0000
0100
0000
0000
,
0000
0010
0000
0000
,
0000
0000
0000
0000
,
0000
1001
0000
0000
,
0100
0000
0100
0000
,
0100
0000
0010
0000
,
0010
0000
0010
0000
,
0010
0000
1001
0000
,
0100
0000
0100
0000
,
0100
0000
0000
0000
,
0000
0001
0000
0000
,
0000
0000
0000
0010
,
0000
0000
0100
0000
,
0000
0000
0000
0000
,
1000
0000
0000
0001
,
0000
0000
0000
0000
,
0000
1000
0000
0000
,
0000
0000
0000
0010
,
0000
0000
0000
0000
,
0000
0100
0000
0000
,
0010
0000
0000
0100
,
0000
0000
0001
0000
,
0000
1000
0000
0000
,
0000
0000
0000
1001
,
0000
0000
0000
0100
,
0000
0000
0000
0010
,
0000
0000
0000
0100
,
0000
0000
0000
0001
,
0000
0001
0000
1000
,
0000
1000
0000
0001
,
0000
0001
0000
1000
,
0000
1000
0000
0010
,
0000
0010
0000
0010
,
0000
0100
0000
0110
,
0000
0000
1000
0000
,
0001
0000
1000
0000
,
0001
0000
0100
0000
,
0010
0000
0100
0000
,
0001
0000
1000
0000
,
0001
0000
1000
0000
,
0010
0000
0100
0000
,
0010
0000
1000
0000
,
0000
0000
0001
0000
,
0000
1000
0000
0000
,
0001
0000
0000
0000
;

//--------------- dance-single - B. M'Rey ----------------
#NOTES:
     dance-single:
     B. M'Rey:
     Easy:
     3:
     0,0,0,0,0:
0000
0000
0000
0000
,
0000
0000
0000
0000
,
0000
0000
0000
0000
,
0000
0000
0000
0000
,
0000
0100
0010
0001
,
0100
0010
0100
0001
,
0010
0001
0100
0010
,
0100
0010
1000
0100
,
1000
0001
1000
0010
,
0100
0010
1000
0010
,
1000
0100
1000
0010
,
0100
0010
0100
0010
,
1000
0001
0100
0010
,
1000
0100
0010
0100
,
1000
0110
0100
0001
,
0010
0100
0010
0100
,
1000
0000
1000
0100
,
0010
0100
0010
0100
,
1000
0000
0110
0010
,
1000
0100
1000
0010
,
1000
0202
0000
0000
,
0303
0001
0010
0001
,
0100
0001
0000
0000
,
0000
0000
0010
0100
,
0010
0100
0010
0001
,
0100
0000
0000
0100
,
1000
0001
1000
0000
,
0000
0001
1000
0100
,
0010
0000
0000
0100
,
1000
0010
1000
0000
,
0000
0001
1000
0100
,
1000
0010
0100
0001
,
0010
0100
1000
0100
,
1000
2000
0000
0000
,
0000
0000
0000
3010
,
1000
0100
0010
0100
,
0010
0100
1000
0010
,
0100
0001
0010
0001
,
0100
0010
1000
0001
,
0100
0010
1000
0100
,
0010
0100
1000
0001
,
0010
0001
0100
0001
,
0010
0100
1000
0100
,
1000
0001
0100
0001
,
0010
0200
0000
0310
,
0110
0010
1100
0100
,
0110
0100
1000
0100
,
0010
0000
0100
0000
,
1000
0010
0100
0010
,
1000
0001
0000
0010
,
0000
0001
1000
0100
,
0010
0001
1000
0100
,
0010
0100
0010
0200
,
0000
0300
2000
0000
,
3000
0000
0010
0000
0000
1000
0000
0000
,
0100
0000
0000
0010
0000
0000
0000
0000
;

//--------------- dance-single - B. M'Rey ----------------
#NOTES:
     dance-single:
     B. M'Rey:
     Medium:
     6:
     0,0,0,0,0:
0000
0000
0000
0000
,
0000
0000
0000
0000
,
0000
0000
0000
0000
,
0000
0000
0000
0000
,
0000
0000
0001
0000
1000
0000
0001
0010
,
0001
0010
0001
0000
0100
0000
0010
0100
,
0010
0100
0010
0000
0100
0000
0001
0000
,
1000
0001
1000
0001
,
0100
0010
1000
0010
,
1000
0000
0010
1000
0010
0000
0010
0000
,
1000
0000
0001
1000
0001
0000
0001
0000
,
0100
0000
0001
1000
0001
0000
0010
0000
,
1000
0000
0010
0100
1000
0000
0100
0001
,
0010
0100
0010
0100
,
1000
0000
0000
0000
0110
0000
0000
0001
0000
1000
0000
0001
0000
1000
0000
0001
,
0000
0100
0000
0010
0000
0100
0000
0010
0000
0100
0000
0001
0000
0010
0000
0001
,
0000
0010
0100
0000
0000
0000
0000
0000
0000
1000
0000
0100
0000
1000
0000
0001
,
0000
0010
0000
0001
0000
0010
0000
0001
0000
0100
0000
0010
0000
0100
0000
0001
,
0000
0100
0010
0000
0000
0000
0000
0010
0000
1000
0000
0010
0000
0100
0000
0001
,
0000
0100
0000
0001
0000
0100
0000
0010
0000
1000
0000
0010
0000
1000
0000
0010
,
0000
0100
0010
0000
0200
0000
0000
0000
0000
0000
0000
0000
0000
0000
0000
0000
,
0000
0301
1000
0001
,
1000
0001
0010
0100
,
1000
0100
1000
0100
,
0010
0001
0010
0001
,
0001
0010
0001
0100
0001
0100
0010
0000
,
0100
0000
1000
0000
0100
0000
0001
0100
,
0001
0100
0001
0000
0100
0000
0010
0000
,
0100
0000
0001
0010
0100
0010
0100
0000
,
0010
0000
1000
0000
0001
0100
0001
0100
,
0001
0000
0100
0010
0100
0000
0001
0000
,
0001
1000
0001
0000
0100
0000
0100
0010
,
0100
0000
0001
0000
0001
1000
0001
0000
,
0100
0000
0000
0000
0001
0000
0000
0000
1000
0000
0000
0001
0000
0000
1000
0000
,
0000
0001
0000
0000
0010
0000
0000
0100
0000
0000
1000
0000
0001
0000
0000
0000
,
1000
0000
0001
0010
1000
0100
0001
0000
,
0010
1000
0100
0001
0010
0000
0100
1000
,
0010
0000
0001
0010
1000
0000
0100
0001
,
1000
0100
1000
0001
,
0010
0000
0001
1000
0010
0100
0001
0000
,
0100
0000
0010
1000
0100
0001
0010
0000
,
0100
0010
0001
0000
1000
0100
0001
0000
,
1000
0010
0001
0000
0100
0000
0010
0000
,
0100
0010
0100
0001
,
1000
0001
1000
0100
,
1000
0001
0100
0000
1000
0001
0100
0000
,
1000
0001
0100
0000
1000
0000
0010
0100
,
1000
0000
0010
0001
1000
0000
0100
0001
,
0010
0000
0100
1000
0010
0000
0100
0000
,
1000
0010
1000
0010
,
1000
0001
0100
0001
,
1000
0000
0000
0000
0010
0001
0000
1000
0000
0100
0000
1000
0000
0100
0000
1000
,
0000
0001
0000
0100
0000
0010
0000
0100
0000
0010
0100
0000
0001
0000
1000
0000
,
0010
0000
0000
0010
0000
0000
0100
0000
0010
0000
0100
0000
0001
0000
0000
0010
,
0000
0000
0010
0000
0001
0000
1000
0010
0000
0000
0100
0000
0010
0100
0000
0000
,
0010
0000
1000
0001
0000
0000
1000
0000
0001
1000
0000
0000
0000
0000
0000
0000
;

//--------------- dance-single - B. M'Rey ----------------
#NOTES:
     dance-single:
     B. M'Rey:
     Hard:
     9:
     0,0,0,0,0:
0000
0000
0000
0000
,
0000
0000
0000
0000
,
0000
0000
0000
0000
,
0000
0000
0000
0000
,
0000
0000
0001
0100
0001
0000
0001
0100
,
0010
0000
0010
0100
0001
0000
0010
1000
,
0010
0000
0100
1000
0100
0000
0100
1000
,
0010
0000
0010
0100
0010
0000
0001
1000
,
0001
0000
0100
0010
0100
0000
0001
0000
,
0010
0000
0001
0010
0001
0010
0100
0010
,
0100
1000
0100
0010
0001
0100
0001
0010
,
0100
1000
0100
0010
0100
0010
0001
0100
,
0010
0100
0010
0100
0001
0010
0001
0100
,
0010
0100
0001
1000
0001
0100
0001
0010
,
0100
0000
1000
0000
1001
0000
0000
0100
0001
1000
0000
0010
0000
1000
0000
0010
,
0000
1000
0000
0001
0000
0100
0000
0001
0000
0010
0000
0001
0000
0010
0000
0100
,
0000
1000
0001
0000
0000
0000
0000
0001
1000
0100
0000
0010
0000
1000
0000
0010
,
0000
1000
0000
0001
0000
1000
0000
0010
0000
0100
0000
0001
0000
0100
0000
0010
,
0000
0100
0010
0000
0000
0000
0000
1000
0001
0010
0000
0100
0000
1000
0000
0100
,
0000
1000
0000
0010
0000
1000
0000
0010
0000
0100
0000
0010
0000
1000
0000
0100
,
0000
0010
0001
0000
2000
0000
0000
0000
0000
0000
0000
0000
0000
0000
0000
0000
,
0000
3100
1000
0010
,
1000
0010
1000
0001
,
0100
0010
0100
0010
0100
0000
0010
0000
,
1000
0010
0100
0001
,
0001
0000
0010
0000
0100
0000
1000
0000
0100
0000
0010
0000
0001
0000
1000
0001
,
1000
0000
0100
1000
0100
0000
0001
0100
0001
0000
0000
0000
0001
0000
0000
0000
,
0010
0000
1000
0000
0001
0000
0100
0010
0100
0000
0100
0001
0100
0000
0001
0100
,
0001
0000
0000
0000
0010
0000
0000
0000
0100
0000
0000
0000
0010
0000
0100
0001
,
0100
0000
0010
0100
0010
0000
0010
0001
0010
0000
1000
0000
0001
0000
0010
0000
,
0100
0000
0010
0000
0100
0000
1000
0100
1000
0000
1000
0010
1000
0000
1000
0000
,
0100
0000
0010
0000
0001
0100
0001
0000
0010
1000
0010
0000
0010
0100
1000
0010
,
0001
0000
0010
0100
0010
0000
1000
0000
0100
0000
0010
0100
0010
0000
0010
0001
,
0010
0000
0100
0000
0001
0000
0000
0000
1000
0000
0000
0100
0000
0000
1000
0000
,
0000
0100
0000
0000
0010
0000
0000
0001
0000
0000
1000
0000
0010
0000
0100
0000
,
0001
0000
0100
0010
0100
0000
0010
0100
,
0001
0000
0010
0100
0001
0000
0100
1000
,
0010
0000
0010
1000
0001
0000
0001
1000
,
0010
0000
0010
0100
0010
1000
0001
0100
,
0010
1000
0100
1000
0001
0100
0001
0010
,
0001
0100
0010
0100
0001
0010
0100
1000
,
0001
0010
0001
0100
0001
0010
0100
0010
,
0100
1000
0010
1000
0100
1000
0100
0010
,
0001
0010
0100
1000
0010
0100
0001
0010
,
0100
0000
1000
0000
0100
0000
1000
0000
0010
0000
1000
0000
0001
0000
1000
0001
,
0010
0000
0100
0010
0000
0010
0000
1000
0001
0000
0001
0010
0000
1000
0000
1000
,
0100
0000
0001
0010
0000
0100
0000
1000
0000
0010
0100
0000
0001
0000
1000
0000
,
0001
0000
1000
0000
0010
0100
1000
0001
0100
0000
0010
0000
0100
1000
0010
0001
,
0100
0000
1000
0000
0001
0010
1000
0001
0100
0000
1000
0000
0100
0000
0000
0010
,
0000
0000
1000
0000
0001
0010
1000
0100
0001
0000
1000
0000
0100
0001
0010
1000
,
0100
0000
1000
0000
0100
0001
1000
0100
0010
0000
1000
0000
0010
1000
0100
0001
,
0010
0000
0100
0001
0000
0100
0000
0001
0000
0100
0000
0001
0000
0010
0000
0100
,
0000
1000
0000
0010
0000
1000
0000
0100
0000
1000
0100
0000
0001
0010
0000
0100
,
0010
0000
0010
0100
0000
0001
0010
0000
0001
1000
0000
1000
0001
0000
1000
0100
,
0000
0100
1000
0000
0100
0010
0100
0010
0100
0000
0010
0001
0010
0001
0010
0000
,
0001
1000
0001
1000
0001
0000
1000
0001
1000
0001
1000
0000
0000
0000
0000
0000
;
