#TITLE:Cappuccino bossa;
#ARTIST:HASHED BOX;
#GENRE:BOSSA NOVA;
#CREDIT:B. M'Rey;
#MUSIC:Cappuccino bossa.ogg;
#BANNER:Cappuccino Bossa-bn.png;
#BACKGROUND:Cappuccino Bossa-bg.png;
#CDTITLE:./CDTITLES/beatmania.png;
#SAMPLESTART:22.523;
#SAMPLELENGTH:12.000;
#OFFSET:-0.500;
#BPMS:0.000=174.000;

//--------------- dance-single - B. M'Rey ----------------
#NOTES:
     dance-single:
     B. M'Rey:
     Beginner:
     1:
     0,0,0,0,0:
0000
0000
0000
0000
,
0000
0000
0000
0000
,
0000
0000
0000
0000
,
0000
0000
0000
0000
,
0010
0000
0000
0000
,
0100
0000
0000
0000
,
0001
0000
0000
0000
,
1001
0000
0000
0000
,
1000
0000
0010
0000
,
0100
0000
0001
0000
,
0010
0000
0001
0000
,
1000
0000
0010
0000
,
0100
0000
1000
0000
,
0010
0000
0100
0000
,
0001
0000
0010
0000
,
1001
0000
0000
0000
,
0010
0000
0000
0000
,
0100
0000
0000
0000
,
0001
0000
0000
0000
,
1000
0000
0000
0000
,
0010
0000
0000
0000
,
0100
0000
0000
0000
,
0010
0000
0000
0000
,
1001
0000
0000
0000
,
0001
0000
1000
0000
,
0010
0000
0100
0000
,
0010
0000
1000
0000
,
0001
0000
0010
0000
,
0001
0000
0100
0000
,
0010
0000
1000
0000
,
0100
0000
1000
0000
,
0010
0000
0100
0000
,
0001
0000
0000
0000
,
0010
0000
0001
0000
,
1000
0000
0000
0000
,
0010
0000
0100
1000
,
0010
0000
0000
0000
,
0001
0000
0010
0100
,
0001
0000
0000
0000
,
1000
0000
0000
0000
,
0010
0000
0000
0000
,
0100
0000
0000
0000
,
0001
0000
0000
0000
,
1000
0000
0000
0000
,
1010
0000
0000
0000
,
0100
0000
0000
0000
,
0010
0000
0000
0000
,
0001
0000
0000
0000
,
0010
0000
0000
0000
,
0100
0000
0000
0000
,
0001
0000
0000
0000
,
1000
0000
0000
0000
,
0010
0000
0000
0000
,
0100
0000
0000
0000
,
0010
0000
0000
0000
0000
0000
0000
1001
;

//--------------- dance-single - B. M'Rey ----------------
#NOTES:
     dance-single:
     B. M'Rey:
     Easy:
     3:
     0,0,0,0,0:
0000
0000
0000
0000
,
0000
0000
0000
0000
,
0000
0000
0000
0000
,
0000
0000
0000
0000
,
0100
0000
0100
0000
,
0010
0000
0100
0000
,
0001
0000
0010
0000
,
0001
0000
0000
0000
,
0001
1000
0100
0000
,
0100
1000
0010
0000
,
0010
0100
0010
0000
,
0001
0100
0010
0000
,
0001
0010
0001
0000
,
0010
1000
0010
0000
,
0100
1000
0100
0000
,
1001
0000
0000
0000
,
0010
0100
0001
0000
,
0001
0010
0100
0000
,
0100
1000
0001
0010
,
0100
0000
0001
0000
,
0001
0100
0010
0000
,
0001
1000
0010
0000
,
0001
0100
0001
0010
,
0001
0000
0000
0000
,
0010
0100
0001
0000
,
0001
0000
0001
0000
,
0100
1000
0001
0000
,
0010
0000
0100
0000
,
0100
0010
0001
0000
,
0100
0000
0010
0000
,
0010
0100
0001
0000
,
0010
0000
0001
0000
,
0010
1000
0010
0000
,
0001
0010
0001
0000
,
0001
0000
0100
1000
,
0001
0000
0001
0000
,
0010
0100
0001
0000
,
0010
1000
0001
0000
,
0100
0000
0001
1000
,
0010
0000
0000
0000
,
0001
0100
0010
0000
,
0010
0000
0100
0000
,
0100
0010
0100
0000
,
0001
0000
0001
0000
,
0100
0010
0100
0000
,
0001
0000
0100
0000
,
0100
0010
0001
0000
,
0100
0000
0000
0000
,
0010
0100
0001
0000
,
0001
0010
0100
0000
,
0001
0100
0001
0000
,
0010
0100
0010
0000
,
0100
0010
0001
0000
,
0100
0010
0100
0000
,
0010
0100
0010
0000
,
1001
0000
0000
0000
;

//--------------- dance-single - B. M'Rey ----------------
#NOTES:
     dance-single:
     B. M'Rey:
     Medium:
     6:
     0,0,0,0,0:
0000
0000
0000
0000
,
0000
0000
0000
0000
,
0000
0000
0000
0000
,
0000
0000
0000
0000
,
0001
0000
1000
0000
0010
1000
0000
0010
,
0000
0100
0000
0010
1000
0000
0100
0000
,
0010
0000
0001
0000
0010
0001
0000
0010
,
1000
0000
0000
0000
,
0010
0000
0100
0000
0010
0100
0000
0010
,
0000
1000
0000
0100
1000
0000
0100
0000
,
0010
0000
0100
0001
0100
0001
0000
0010
,
0000
1000
0000
0100
1000
0000
0100
0000
,
0010
0000
0100
0010
0100
0010
0000
1000
,
0000
0100
0000
0001
0010
0000
0010
0000
,
0100
0000
0010
1000
0100
0000
0000
0010
,
0001
0000
0000
0000
,
0010
0000
1000
0100
1000
0100
0000
0010
,
0000
0100
0001
0000
0010
0000
1000
0000
,
0001
0000
0001
0100
0001
0100
0000
0010
,
0000
0010
0000
1000
0100
0000
1000
0000
,
0010
0000
0100
0010
0100
0010
0000
1000
,
0000
0100
0001
0000
0010
0000
1000
0000
,
0010
0000
0100
0010
0100
0010
0000
0001
,
0110
1010
0110
0011
,
0001
0000
0010
1000
0010
1000
0000
0010
,
0000
0100
0000
0010
0001
0000
0010
0000
,
0001
0000
0010
0001
0010
0001
0000
0010
,
0000
0100
0000
1000
0100
0000
1000
0000
,
0010
0000
0100
0010
0100
0010
0000
1000
,
0000
0001
0010
0000
0001
0000
0010
0000
,
0100
0000
0010
1000
0010
1000
0000
0010
,
0000
0100
0000
0010
0001
0000
0010
0000
,
1000
0000
0010
0100
0010
1000
0000
0010
,
0000
0100
0000
0001
0010
0000
0001
0000
,
0010
0000
1000
0000
1000
0010
0000
0100
,
0000
0010
0000
0001
0010
0000
1000
0000
,
0010
0000
0100
0001
0100
0001
0000
0010
,
0000
1000
0000
0100
1000
0000
0010
0000
,
0100
0000
0010
0100
0010
0100
0000
0001
,
1010
0011
1010
1001
,
0010
0000
0001
0000
0010
0100
0000
0010
,
0000
0001
0000
0010
1000
0000
0010
0000
,
0100
0000
0010
0000
0100
0010
0000
1000
,
0000
0100
0000
0001
0100
0000
0010
0000
,
0001
0000
0010
1000
0010
1000
0000
0100
,
0000
0010
0000
1000
0001
0000
1000
0000
,
0010
0000
0100
0000
0001
0100
0000
0010
,
1000
0000
0000
0000
,
0010
0000
1000
0100
1000
0100
0000
0010
,
0000
0100
0001
0000
0010
0000
1000
0000
,
0001
0000
0001
0100
0001
0100
0000
0010
,
0000
0010
0000
1000
0100
0000
1000
0000
,
0010
0000
0100
0010
0100
0010
0000
1000
,
0000
0100
0001
0000
0010
0000
1000
0000
,
0010
0000
0100
0010
0100
0010
0000
0001
;

//--------------- dance-single - B. M'Rey ----------------
#NOTES:
     dance-single:
     B. M'Rey:
     Hard:
     9:
     0,0,0,0,0:
0000
0000
0000
0000
,
0000
0000
0000
0000
,
0000
0000
0000
0000
,
0000
0000
0000
0000
,
0001
0000
0010
0000
0001
0010
0000
1000
,
0000
0010
0000
0100
0010
0000
1000
0000
,
0010
0000
0100
0001
0100
0010
0000
0010
,
1000
0000
0000
1001
0000
1001
0000
0000
0000
0000
0000
0000
,
0010
1000
0010
0100
0001
0100
0010
1000
,
0001
0010
0001
0100
0001
0010
0100
1000
,
0001
0010
0100
1000
0010
1000
0001
0100
,
0010
1000
0001
1000
0100
1000
0100
0010
,
0100
0010
0001
0100
0001
1000
0100
0010
,
0001
0010
0001
1000
0100
1000
0100
0010
,
0100
0010
0001
0010
0001
0100
0010
0100
,
1001
0000
0000
0000
,
0001
1000
0001
1000
0001
0100
0010
1000
,
0010
1000
0001
1000
0001
0100
0001
0100
,
0010
0100
0010
1000
0010
1000
0001
1000
,
0001
0010
0001
0010
0100
0010
0100
1000
,
0001
1000
0100
1000
0100
0010
0100
0010
,
0001
0010
0100
1000
0100
1000
0100
0010
,
0001
1000
0001
1000
0010
0100
0001
0100
,
0001
0000
0000
1000
0000
0001
0000
0000
0000
0010
0000
0100
0000
0000
0000
0001
0000
0010
0000
0000
0000
0001
0000
0000
,
0010
1000
0100
1000
0100
1000
0001
0010
,
0000
0100
0000
1000
0010
0000
0010
0000
,
0010
0100
0001
0000
0010
1000
0001
1000
,
0000
1000
0010
0000
0010
0000
0010
0000
,
0001
1000
0001
0000
0010
0100
0010
0100
,
0000
1000
0000
0010
0001
0000
0100
0010
,
0001
0000
0010
1000
0100
1000
0000
0100
,
0000
0100
0010
0000
0001
1000
0010
0000
,
0010
0100
0001
0000
0001
0100
0010
1000
,
0000
1001
0000
0010
0100
0000
0100
0010
,
0100
0000
0001
1000
0100
0010
0100
0010
,
0000
1000
0001
0000
0001
0000
0001
0000
,
0010
1000
0010
0000
0001
0100
0001
0100
,
0000
0010
0100
0000
0100
0000
0001
0000
,
0001
1000
0001
0000
0010
0100
0010
0100
,
1000
0000
0000
0001
0000
1000
0000
0000
0000
0010
0000
0100
0000
0000
0000
0001
0000
0010
0000
0000
0000
0100
0000
0000
,
1000
0000
0001
0000
0010
0100
0000
0001
,
0000
0010
0000
1000
0010
0000
0100
0000
,
0010
0000
1000
0000
0001
1000
0000
0010
,
0000
0100
0000
0010
0100
0000
0001
0000
,
0010
0000
1000
0000
0001
1000
0000
0010
,
0000
0100
0000
0010
1000
0000
0010
0000
,
0100
0000
0010
0000
0001
0010
0000
1000
,
0001
0000
0000
0000
,
0001
1000
0001
1000
0100
1000
0100
0010
,
0100
0010
0001
0010
0001
0100
0001
0100
,
0010
0100
0010
1000
0001
1000
0001
1000
,
0010
0100
0010
1000
0010
1000
0100
0010
,
0100
1000
0100
1000
0001
1000
0001
0100
,
0001
0100
0010
0100
0010
1000
0010
1000
,
0001
1000
0001
0010
0001
0010
0100
0010
;
