#VERSION:0.83;
#TITLE:CSIKOS POST;
#ARTIST:VENTURA;
#GENRE:HAPPY HARDCORE;
#CREDIT:B. M'Rey;
#MUSIC:CSIKOS POST.ogg;
#BANNER:CSIKOS POST-bn.png;
#BACKGROUND:CSIKOS POST-bg.png;
#CDTITLE:./CDTITLES/DANCEMANIA CLASSICAL SPEED.PNG;
#SAMPLESTART:43.478;
#SAMPLELENGTH:15.000;
#OFFSET:-0.121;
#BPMS:0.000=180.000;

//--------------- dance-single - B. M'Rey ----------------
#NOTEDATA:;
#STEPSTYPE:dance-single;
#DESCRIPTION:B. M'Rey;
#DIFFICULTY:Beginner;
#METER:4;
#RADARVALUES:0.21,0.223,0.011,0,0;
#NOTES:
0000
0000
0000
0000
,
0000
0000
0000
0000
,
1000
0000
0010
0000
,
0100
0000
0001
0000
,
0010
0000
0001
0000
,
0100
0000
0010
0000
,
1000
0000
0100
0000
,
1000
0000
0001
0000
,
0010
0000
0001
0000
,
0100
0000
0010
0000
,
1000
0000
0100
0000
,
1000
0000
0001
0000
,
0010
0000
0001
0000
,
0100
0000
0010
0000
,
1000
0000
0010
0000
,
0100
0000
0001
0000
,
0010
0000
0001
0000
,
0100
0000
0010
0000
,
1000
0000
0100
0000
,
1000
0000
0001
0000
,
0100
0000
0010
0000
,
1000
0000
0010
0000
,
0100
0000
0001
0000
,
0100
0000
0010
0000
,
1000
0000
0010
0000
,
0100
0000
0001
0000
,
0010
0000
0001
0000
,
0100
0000
0010
0000
,
0001
0000
1000
0000
,
0010
0000
0100
0000
,
0001
0000
0010
0000
,
0001
0000
1000
0000
,
0010
0000
0100
0000
,
0001
0000
0010
0000
,
0001
0000
0100
0000
,
0010
0000
1000
0000
,
0100
0000
1000
0000
,
0010
0000
0100
0000
,
0001
0000
0010
0000
,
0001
0000
0100
0000
,
0010
0000
1000
0000
,
0100
0000
1000
0000
,
0010
0000
0100
0000
,
0001
0000
0010
0000
,
0001
0000
0100
0000
,
0010
0000
1000
0000
,
0010
0000
0100
0000
,
0001
0000
0010
0000
,
0001
0000
0100
0000
,
0010
0000
1000
0000
,
0010
0000
0100
0000
,
0001
0000
0010
0000
,
0001
0000
0100
0000
,
0010
0000
1000
0000
,
0010
0000
0001
0000
,
0100
0000
0010
0000
,
1000
0000
0010
0000
,
0100
0000
0001
0000
,
0010
0000
0001
0000
,
0100
0000
0010
0000
,
1000
0000
0010
0000
,
0100
0000
0001
0000
,
0010
0000
1000
0000
,
0010
0000
0100
0000
,
0010
0000
0001
0000
,
1000
0000
0010
0000
,
1001
0000
0000
0000
;

//--------------- dance-single - B. M'Rey ----------------
#NOTEDATA:;
#STEPSTYPE:dance-single;
#DESCRIPTION:B. M'Rey;
#DIFFICULTY:Easy;
#METER:7;
#RADARVALUES:0.34,0.372,0.169,0,0;
#NOTES:
0000
0000
0000
0000
,
0000
0000
0000
0000
,
1000
0000
0001
0000
,
0010
0010
0010
0000
,
0110
0000
0101
0000
,
1010
0000
0001
0001
,
0001
0000
0100
0000
,
0010
1000
0010
0000
,
0100
0010
0100
0010
,
0100
0000
0001
0000
,
0010
0000
1000
0000
,
0001
0010
0100
0000
,
1000
0000
0001
0000
,
0010
0000
0100
0001
,
0010
0000
1000
0000
,
0010
0000
0100
0000
,
0001
0010
1000
0100
,
0010
0001
0010
0100
,
0010
0000
0011
0000
,
0010
0000
0110
0000
,
1000
0010
0001
0100
,
0010
1000
0100
0001
,
0010
0000
1010
0000
,
0010
0000
0011
0000
,
1000
0001
0010
0100
,
0010
1000
0001
0010
,
0100
0000
0001
0000
,
1000
0100
0010
0000
,
0001
0000
1000
0000
,
0100
0000
0010
1000
,
0100
0000
0001
0000
,
0100
0000
0010
0000
,
1000
0100
0001
0010
,
0100
1000
0100
0010
,
0100
0000
1100
0000
,
0100
0000
0110
0000
,
0001
0100
1000
0010
,
0100
0001
0010
1000
,
0100
0000
0101
0000
,
0100
0000
1100
0000
,
0001
1000
0100
0010
,
0100
0001
1000
0100
,
0010
0001
0010
0000
0100
0000
1000
0000
,
0001
0010
0100
0010
,
0001
1000
0010
0000
0100
0000
0010
0000
,
1000
0001
0010
0001
,
0100
0010
0100
0000
1000
0000
0001
0000
,
0010
0001
0100
0010
,
1000
0010
0100
0000
0010
0000
0001
0000
,
0100
0010
1000
0001
,
0010
0000
1000
0000
,
0001
0010
0100
0000
,
1000
0000
0001
0000
,
0010
0000
0100
0001
,
0010
0000
1000
0000
,
0010
0000
0100
0000
,
0001
0010
1000
0100
,
0010
0001
0010
0100
,
0010
0000
0011
0000
,
0010
0000
0110
0000
,
1000
0010
0001
0100
,
0010
1000
0100
0001
,
0010
0000
1010
0000
,
0010
0000
0011
0000
,
1000
0001
0010
0100
,
0010
1000
0001
0010
,
0100
0000
0000
0000
;

//--------------- dance-single - B. M'Rey ----------------
#NOTEDATA:;
#STEPSTYPE:dance-single;
#DESCRIPTION:B. M'Rey;
#DIFFICULTY:Medium;
#METER:10;
#RADARVALUES:0.458,0.521,0.226,0.135,0;
#NOTES:
0000
0000
0000
0000
,
0000
0000
0000
0000
,
1000
0000
0001
0000
,
0010
0100
1000
0000
,
0011
0000
1100
0000
,
0110
0000
0000
0000
0001
1000
0001
0000
,
0110
1000
0000
0001
,
0100
0010
1000
0000
,
0001
0001
0001
0000
0100
0100
0100
0000
,
0010
0010
0010
0000
1000
1000
1000
0000
,
0001
0000
1000
0000
,
0100
0010
0001
0000
,
1100
0000
0011
0000
,
0110
0000
0000
0000
1000
0001
1000
0000
,
0110
0001
0000
1000
,
0010
0100
0001
0000
,
1000
1000
1000
0000
0010
0010
0010
0000
,
0100
0100
0100
0000
0001
0001
0001
0000
,
2000
0000
3010
0000
,
0002
0000
0103
0000
,
0010
0000
1000
0000
0001
1000
0001
0000
,
0001
0000
1000
0000
0001
1000
0001
0000
,
0020
0000
0130
0000
,
2000
0000
3001
0000
,
0001
0010
0001
0000
0010
1000
0100
0000
,
0001
0010
0100
0000
1000
0000
1001
0000
,
0010
0000
0100
0000
,
0001
1000
0010
0000
,
0101
0000
1010
0000
,
1001
0000
0000
0000
0100
0010
0100
0000
,
1001
0010
0000
0100
,
1000
0001
0010
0000
,
0100
0100
0100
0000
1000
1000
1000
0000
,
0001
0001
0001
0000
0010
0010
0010
0000
,
0200
0000
1300
0000
,
0020
0000
0031
0000
,
1000
0000
0100
0000
0010
0100
0010
0000
,
0010
0000
0100
0000
0010
0100
0010
0000
,
2000
0000
3001
0000
,
0200
0000
0310
0000
,
0010
1000
0010
0000
1000
0100
0001
0000
,
0010
1000
0001
0000
0100
0000
0110
0000
,
0001
1000
0010
0000
1000
0001
0100
0000
,
0010
0100
0010
0000
1000
0001
0100
0000
,
0010
1000
0100
0000
0001
0010
0100
0000
,
0010
1000
0100
0000
0001
0010
0100
0000
,
0010
0001
0100
0000
0010
1000
0100
0000
,
0010
0100
0010
0000
1000
0100
1000
0000
,
0001
0010
0100
0000
1000
0001
0010
0000
,
0100
0010
0001
0000
0010
0100
0010
0000
,
1000
0000
0001
0000
,
0010
0100
1000
0000
,
0011
0000
1100
0000
,
0110
0000
0000
0000
0001
1000
0001
0000
,
0110
1000
0000
0001
,
0100
0010
1000
0000
,
0001
0001
0001
0000
0100
0100
0100
0000
,
0010
0010
0010
0000
1000
1000
1000
0000
,
0002
0000
0103
0000
,
2000
0000
3010
0000
,
0100
0000
0001
0000
1000
0001
1000
0000
,
1000
0000
0001
0000
1000
0001
1000
0000
,
0200
0000
0310
0000
,
0002
0000
1003
0000
,
1000
0100
1000
0000
0100
0001
0010
0000
,
1000
0100
0010
0000
0001
0000
1001
0000
,
1001
0000
0000
0000
;

//--------------- dance-single - B. M'Rey ----------------
#NOTEDATA:;
#STEPSTYPE:dance-single;
#DESCRIPTION:B. M'Rey;
#DIFFICULTY:Hard;
#METER:14;
#RADARVALUES:0.7,0.67,0.936,0,0.023;
#NOTES:
0000
0000
0000
0000
,
0000
0000
0000
0000
,
0001
0000
0010
0100
1000
0000
0010
0000
,
0100
0001
0100
0000
,
0010
1000
0100
0000
0001
0010
0100
0000
,
0001
1000
0010
0000
1001
1001
1001
0000
,
0110
0000
0001
1000
0010
0000
0100
0000
,
0001
1000
0010
0000
,
0100
1000
0100
0010
0100
0010
0001
0010
,
0100
0000
0001
1000
0110
0000
0110
0000
,
1001
0000
0001
1000
0010
0000
0100
0000
,
1000
0001
0010
0000
,
0010
1000
0100
0000
0001
0010
0100
0000
,
0010
1000
0100
0000
0110
0110
0110
0000
,
1001
0000
0001
0010
1000
0000
0100
0000
,
0010
1000
0001
0000
,
1000
0100
1000
0100
0010
0100
0010
0001
,
0010
0000
0001
1000
0110
0000
1001
0000
,
0101
1001
0110
0011
,
0110
1100
0101
1010
,
1001
0000
0001
1000
0001
1000
0001
0000
,
0110
0000
0010
0100
0010
0100
0010
0000
,
0011
1010
0110
1001
,
0110
0101
0110
1001
,
0100
0010
0100
0000
0001
0001
0010
0010
,
0100
0100
1000
1000
0000
0000
1001
0000
,
0001
0000
0010
0100
1000
0000
0010
0000
,
0100
0001
0100
0000
,
0010
1000
0100
0000
0001
0010
0100
0000
,
0001
1000
0010
0000
1001
1001
1001
0000
,
0110
0000
0001
1000
0010
0000
0100
0000
,
0001
1000
0010
0000
,
0100
1000
0100
0010
0100
0010
0001
0010
,
0100
0000
0001
1000
0110
0000
0110
0000
,
0101
1001
0110
0011
,
0110
1100
0101
1010
,
1001
0000
0001
1000
0001
1000
0001
0000
,
0110
0000
0010
0100
0010
0100
0010
0000
,
0011
1010
0110
1001
,
0110
0101
0110
1001
,
0100
0010
0100
0000
0001
0001
0010
0010
,
0100
0100
1000
1000
1000
0000
1001
0000
,
0001
0000
0010
0000
1000
0000
0100
0001
0010
0000
0000
0000
0010
0000
1000
0000
,
0010
0100
0001
0010
1000
0100
0001
0010
,
0001
0000
0010
0000
1000
0000
0100
0001
0010
0000
0000
0000
0010
0000
1000
0000
,
0010
0100
0001
0010
1000
0100
0001
0010
,
1000
0000
0100
0000
0001
0000
0010
1000
0100
0000
0000
0000
0100
0000
0001
0000
,
0100
0010
1000
0100
0001
0010
1000
0100
,
0010
0000
1000
0000
0100
0000
0001
0010
1000
0000
0000
0000
1000
0000
0100
0000
,
1000
0001
0010
1000
0100
0001
0010
1000
,
0001
0000
0010
0100
1000
0000
0010
0000
,
0100
0001
0100
0000
,
0010
1000
0100
0000
0001
0010
0100
0000
,
0001
1000
0010
0000
1001
1001
1001
0000
,
0110
0000
0001
1000
0010
0000
0100
0000
,
0001
1000
0010
0000
,
0100
1000
0100
0010
0100
0010
0001
0010
,
0100
0000
0001
1000
0110
0000
0110
0000
,
0101
1001
0110
0011
,
0110
1100
0101
1010
,
1001
0000
0001
1000
0001
1000
0001
0000
,
0110
0000
0010
0100
0010
0100
0010
0000
,
0011
1010
0110
1001
,
0110
0101
0110
1001
,
0100
0010
0100
0000
0001
0001
0010
0010
,
0100
0100
1000
1000
1000
0000
1001
0000
,
1001
0000
0000
0000
;
