#VERSION:0.83;
#TITLE:CONTRADANZA (ALMIGHTY RADIO EDIT);
#ARTIST:THE PLANETS;
#GENRE:TRANCE;
#CREDIT:B. M'Rey;
#MUSIC:CONTRADANZA (ALMIGHTY RADIO EDIT).ogg;
#BANNER:CONTRADANZA (ALMIGHTY RADIO EDIT)-bn.png;
#BACKGROUND:CONTRADANZA (ALMIGHTY RADIO EDIT)-bg.png;
#CDTITLE:./CDTITLES/DANCEMANIA EX0.PNG;
#SAMPLESTART:49.980;
#SAMPLELENGTH:14.860;
#OFFSET:-0.214;
#BPMS:0.000=139.970;

//--------------- dance-single - B. M'Rey ----------------
#NOTEDATA:;
#STEPSTYPE:dance-single;
#DESCRIPTION:B. M'Rey;
#DIFFICULTY:Beginner;
#METER:3;
#RADARVALUES:0.141,0.144,0.029,0.078,0;
#NOTES:
0000
0000
0000
0000
,
0000
0000
0000
0000
,
0000
0000
0000
0000
,
0000
0000
0000
0000
,
0000
0000
0000
0000
,
0000
0000
0000
0000
,
0000
0000
0000
0000
,
0000
0000
0000
0000
,
0000
0000
0000
0000
,
0000
0000
0000
0000
,
0000
0000
0000
0000
,
0000
0000
2000
0000
,
0000
0000
3010
0000
,
1000
0000
0001
0000
,
0100
0000
0001
0000
,
0100
0000
0020
0000
,
0000
0000
0000
0000
0000
0000
0000
0000
0000
0000
0000
0000
0000
0000
0000
0000
0000
0000
0000
0000
0000
0000
0000
0000
0000
0000
0000
0000
0000
0000
0000
0000
0000
0000
0000
0000
0000
0000
0000
0000
0000
0000
0000
0000
0000
0000
0000
0000
0000
0000
0000
0000
0000
0000
0000
0000
0000
0000
0000
0000
0000
0000
0000
0000
0000
0000
0000
0000
0000
0000
0000
0000
0000
0000
0000
0000
0000
0000
0000
0000
0000
0000
0000
0000
0000
0030
0000
0000
0000
0000
0000
0000
0000
0000
0000
0000
0001
0000
0000
0000
0000
0000
0000
0000
0000
0000
0000
0000
0000
0000
0000
0000
0000
0000
0000
0000
0000
0000
0000
0000
0000
0000
0000
0000
0000
0000
0000
0000
0000
0000
0000
0000
0000
0000
0000
0000
0000
0000
0000
0000
0000
0000
0000
0000
0000
0000
0000
0000
0000
0000
0000
0000
0000
0000
0000
0000
0000
0000
0000
0000
0000
0000
0000
0000
0000
0000
0000
0000
0000
0000
0000
0000
0000
0000
0000
0000
0000
0000
0000
0000
0000
0000
0000
0000
0000
0000
0000
0000
0000
0000
0000
0000
,
0100
0000
0200
0000
,
0000
0000
0000
0000
0000
0000
0000
0000
0000
0000
0000
0000
0000
0000
0000
0000
0000
0000
0000
0000
0000
0000
0000
0000
0000
0000
0000
0000
0000
0000
0000
0000
0000
0000
0000
0000
0000
0000
0000
0000
0000
0000
0000
0000
0000
0000
0000
0000
0000
0000
0000
0000
0000
0000
0000
0300
0000
0000
0000
0000
0000
0000
0000
0000
0000
0000
0000
0000
0000
0000
0000
0000
0000
0000
0000
0000
0000
0000
0000
0000
0000
0000
0000
0000
0000
0000
0000
0000
0000
0000
0000
0000
0000
0000
0000
0000
1000
0000
0000
0000
0000
0000
0000
0000
0000
0000
0000
0000
0000
0000
0000
0000
0000
0000
0000
0000
0000
0000
0000
0000
0000
0000
0000
0000
0000
0000
0000
0000
0000
0000
0000
0000
0000
0000
0000
0000
0000
0000
0000
0000
0000
0000
0000
0000
0000
0000
0000
0000
0000
0000
0000
0000
0000
0000
0000
0000
0000
0000
0000
0000
0000
0000
0000
0000
0000
0000
0000
0000
0000
0000
0000
0000
0000
0000
0000
0000
0000
0000
0000
0000
0000
0000
0000
0000
0000
0000
0000
0000
0000
0000
0000
0000
,
0010
0000
1000
0000
,
0100
0000
1000
0000
,
0010
0000
1000
0000
,
0200
0000
0000
0000
0000
0000
0000
0000
0000
0000
0000
0000
0000
0000
0000
0000
0000
0000
0000
0000
0000
0000
0000
0000
0000
0000
0000
0000
0000
0000
0000
0300
,
0010
0000
0001
0000
,
1000
0000
0001
0000
,
0010
0000
1000
0000
,
0010
0000
0010
0000
,
0200
0000
0000
0000
0000
0000
0000
0000
0000
0000
0000
0000
0000
0000
0000
0000
0000
0000
0000
0000
0000
0000
0000
0000
0000
0300
0000
0000
0000
0000
0000
0000
,
1000
0000
0010
0000
,
0002
0000
0000
0000
0000
0000
0000
0000
0000
0000
0000
0000
0000
0000
0000
0000
0000
0000
0000
0000
0000
0000
0000
0000
0000
0000
0000
0003
0000
0000
0000
0000
,
1000
0000
0010
0000
,
1000
0000
0100
0000
,
1000
0000
0010
0000
,
0001
0000
0220
0000
,
0000
0000
0000
0000
0000
0000
0000
0000
0000
0000
0000
0330
0000
0000
0000
0000
0001
0000
0000
0000
0000
0000
0000
0000
0000
0000
0000
0000
0000
0000
0000
0000
,
0100
0000
0010
0000
,
0001
0000
0100
0000
,
0001
0000
1000
0000
,
0001
0000
0100
0000
,
0100
0000
0010
0000
,
1000
0000
0100
0000
,
1000
0000
1000
0000
,
0010
0000
0110
0000
,
0001
0000
1000
0000
,
0100
0000
1000
0000
,
0100
0000
1000
0000
,
1000
0000
0100
0000
,
0001
0000
1000
0000
,
0010
0000
1000
0000
,
0010
0000
0010
0000
,
1000
0000
0010
0000
,
0001
0000
0100
0000
,
0001
0000
0010
0000
,
0001
0000
0100
0000
,
0001
0000
0010
0000
,
0001
0000
1000
0000
,
0010
0000
0010
0000
,
0100
0000
0100
0100
,
0001
0001
1001
0000
;

//--------------- dance-single - B. M'Rey ----------------
#NOTEDATA:;
#STEPSTYPE:dance-single;
#DESCRIPTION:B. M'Rey;
#DIFFICULTY:Easy;
#METER:6;
#RADARVALUES:0.256,0.345,0.137,0.078,0;
#NOTES:
0000
0000
0000
0000
,
0000
0000
0000
0000
,
0000
0000
0000
0000
,
0000
0000
0000
0000
,
0000
0000
0000
0000
,
0000
0000
0000
0000
,
0000
0000
0000
0000
,
0000
0000
0000
0000
,
0000
0000
0000
0000
,
0000
0000
0000
0000
,
0000
0000
0000
0000
,
0000
0000
0020
0000
,
0000
0000
0031
1000
,
0010
0000
0100
0010
,
1000
0000
0100
0010
,
1000
0000
0002
0000
,
0000
0000
0000
0000
0000
0000
0000
0000
0000
0000
0000
0000
0000
0000
0000
0000
0000
0000
0000
0000
0000
0000
0000
0000
0000
0000
0000
0000
0000
0000
0000
0000
0000
0000
0000
0000
0000
0000
0000
0000
0000
0000
0000
0000
0000
0000
0000
0000
0000
0000
0000
0000
0000
0000
0000
0000
0000
0000
0000
0000
0000
0000
0000
0000
0000
0000
0000
0000
0000
0000
0000
0000
0000
0000
0000
0000
0000
0000
0000
0000
0000
0000
0000
0000
0000
0003
0000
0000
0000
0000
0000
0000
0000
0000
0000
0000
0100
0000
0000
0000
0000
0000
0000
0000
0000
0000
0000
0000
0000
0000
0000
0000
0000
0000
0000
0000
0000
0000
0000
0000
0000
0000
0000
0000
0000
0000
0000
0000
0000
0000
0000
0000
0000
0000
0000
0000
0000
0000
0000
0000
0000
0000
0000
0000
0010
0000
0000
0000
0000
0000
0000
0000
0000
0000
0000
0000
0000
0000
0000
0000
0000
0000
0000
0000
0000
0000
0000
0000
0000
0000
0000
0000
0000
0000
0000
0000
0000
0000
0000
0000
0000
0000
0000
0000
0000
0000
0000
0000
0000
0000
0000
0000
,
1000
0000
2000
0000
,
0000
0000
0000
0000
0000
0000
0000
0000
0000
0000
0000
0000
0000
0000
0000
0000
0000
0000
0000
0000
0000
0000
0000
0000
0000
0000
0000
0000
0000
0000
0000
0000
0000
0000
0000
0000
0000
0000
0000
0000
0000
0000
0000
0000
0000
0000
0000
0000
0000
0000
0000
0000
0000
0000
0000
3000
0000
0000
0000
0000
0000
0000
0000
0000
0000
0000
0000
0000
0000
0000
0000
0000
0000
0000
0000
0000
0000
0000
0000
0000
0000
0000
0000
0000
0000
0000
0000
0000
0000
0000
0000
0000
0000
0000
0000
0000
0010
0000
0000
0000
0000
0000
0000
0000
0000
0000
0000
0000
0000
0000
0000
0000
0000
0000
0000
0000
0000
0000
0000
0000
0000
0000
0000
0000
0000
0000
0000
0000
0000
0000
0000
0000
0000
0000
0000
0000
0000
0000
0000
0000
0000
0000
0000
0000
0100
0000
0000
0000
0000
0000
0000
0000
0000
0000
0000
0000
0000
0000
0000
0000
0000
0000
0000
0000
0000
0000
0000
0000
0000
0000
0000
0000
0000
0000
0000
0000
0000
0000
0000
0000
0000
0000
0000
0000
0000
0000
0000
0000
0000
0000
0000
0000
,
0001
0000
0010
0100
,
1000
0000
0010
0100
,
0001
0000
0010
0001
,
2000
0000
0000
0000
0000
0000
0000
0000
0000
0000
0000
0000
0000
0000
0000
0000
0000
0000
0000
0000
0000
0000
0000
0000
0000
0000
0000
0000
0000
0000
0000
3000
,
0001
0010
0100
0001
,
0010
1000
0100
0010
,
0001
1000
0010
0100
,
0001
0010
0001
0100
,
2000
0000
0000
0000
0000
0000
0000
0000
0000
0000
0000
0000
0000
0000
0000
0000
0000
0000
0000
0000
0000
0000
0000
0000
0000
3000
0000
0000
0000
0000
0000
0000
,
0010
0100
0001
0010
,
0200
0000
0000
0000
0000
0000
0000
0000
0000
0000
0000
0000
0000
0000
0000
0000
0000
0000
0000
0000
0000
0000
0000
0000
0000
0000
0000
0300
0000
0000
0000
0000
,
0010
0001
1000
0100
,
0010
0001
1000
0100
,
0010
1000
0001
0010
,
0100
0001
2002
0000
,
0000
0000
0000
0000
0000
0000
0000
0000
0000
0000
0000
3003
0000
0000
0000
0000
0100
0000
0000
0000
0000
0000
0000
0000
0010
0000
0000
0000
0000
0000
0000
0000
,
1000
0100
0001
0010
,
0100
0001
1000
0010
,
0100
0001
0010
0001
,
0100
0010
1000
0100
,
1000
0010
0001
0100
,
0010
0001
1000
0100
,
0010
0001
0010
0100
,
0001
0010
1001
0010
,
0100
0001
0010
0001
,
1000
0100
0010
0001
,
1000
0100
0010
0001
,
0010
0100
1000
0010
,
0100
0001
0010
0100
,
0001
1000
0010
0100
,
0001
0010
0001
0100
,
0010
1000
1001
0010
,
0100
0001
1001
0010
,
0100
0001
1001
0010
,
0100
1000
1001
0010
,
0100
0001
1001
0010
,
0100
0001
1010
0100
,
0001
0010
0101
0010
,
1000
0100
1001
0110
,
0101
1010
0110
0000
;

//--------------- dance-single - B. M'Rey ----------------
#NOTEDATA:;
#STEPSTYPE:dance-single;
#DESCRIPTION:B. M'Rey;
#DIFFICULTY:Medium;
#METER:9;
#RADARVALUES:0.392,0.518,0.235,0.088,0.108;
#NOTES:
0000
0000
0000
0000
,
0000
0000
0000
0000
,
0000
0000
0000
0000
,
0000
0000
0000
0000
,
2000
0000
0000
0000
,
3001
0010
1000
0001
,
0200
0000
0300
0000
,
0010
0001
0010
0001
,
0100
0010
0001
0100
,
0010
0001
0100
1000
,
0001
0010
1001
0000
,
0000
0000
0020
0000
,
0000
0000
0130
0100
,
0001
1000
0100
0010
,
0100
1000
0001
0100
,
0001
0100
0200
0000
,
0000
0000
0000
0000
0000
0000
0301
0010
0000
0010
0100
0000
,
0100
1000
0000
1000
0100
0000
0002
0000
0000
0000
0000
0000
,
0000
0000
0013
1000
,
0001
0100
1000
0001
,
0100
0001
0010
1000
,
0010
0001
0100
0010
,
0200
0000
0000
0000
,
0310
0000
0001
0000
0010
1000
0100
0001
,
0010
0000
0100
0000
1000
0000
0001
0010
,
0001
0000
1000
0000
0010
0000
0100
0001
,
0010
0000
0100
0000
0010
0000
1000
0100
,
2000
0000
0000
0000
,
3001
0010
0000
0100
0010
0000
1000
0100
0000
0001
0010
0000
,
0200
0000
0000
0300
,
0001
0010
0000
0100
1000
0000
0100
0010
0000
0001
0010
0000
,
0001
0100
0000
0010
1000
0000
0100
0010
0000
0001
0010
0000
,
1000
0010
0000
0100
0001
0000
0010
0001
0000
0100
0010
0000
,
1000
0100
0000
0001
0010
0000
2000
0000
0000
0000
0000
0000
,
0000
0000
0000
0000
3001
0010
0100
0000
,
1000
0001
0010
0000
0010
0100
0010
0000
,
1000
0100
0001
0000
0010
0001
0100
0000
,
0010
1000
0100
0000
1000
0001
0010
0000
,
0001
0100
0010
0000
1000
0100
1000
0000
,
0001
0100
0010
0000
0010
1000
0100
0000
,
0001
0010
0100
0000
0010
1000
0100
0000
,
0001
0010
0001
0000
0100
0010
1000
0000
,
0001
0100
0010
0000
1001
0000
0110
0000
,
0001
1000
0010
0000
0100
0001
1000
0000
,
0010
0100
0010
0000
0001
0010
1000
0000
,
0100
0010
1000
0000
0010
0100
0001
0000
,
0010
1000
0100
0000
0001
0010
0001
0000
,
0100
0010
1000
0000
0001
0010
0100
0000
,
0001
1000
0010
0000
0100
1000
0001
0000
,
0010
0001
0100
0000
0010
1000
0100
0000
,
0001
0010
0001
0000
0110
0000
0001
0000
,
0100
0001
0110
1000
,
0001
0100
0011
1000
,
0100
1000
1001
0100
,
0010
0001
1010
0110
,
0101
1010
0110
1001
,
0101
0110
1010
1001
,
0101
1010
0110
0101
,
0110
1001
0110
0000
;

//--------------- dance-single - B. M'Rey ----------------
#NOTEDATA:;
#STEPSTYPE:dance-single;
#DESCRIPTION:B. M'Rey;
#DIFFICULTY:Hard;
#METER:13;
#RADARVALUES:0.594,0.661,0.186,0.284,0.676;
#NOTES:
0000
0000
0000
0000
,
0000
0000
0000
0000
,
0000
0000
0000
0000
,
0000
0000
0000
0000
,
0001
1000
0020
0000
0000
0000
0000
0000
0000
0000
0000
0000
,
0130
0010
0001
1000
,
0010
0100
0002
0000
0000
0000
0000
0000
0000
0000
0000
0000
,
0013
1000
0010
0100
,
0001
0010
1000
0100
,
0010
0100
0010
0001
,
0010
0000
0000
0001
1000
0010
0200
0000
0000
0000
0000
0000
,
0000
0000
0302
0000
,
0000
0000
0000
0000
0000
0000
1003
0010
0000
0001
0010
0000
,
1000
0010
0000
0001
0010
0000
0100
0010
0000
0100
0001
0000
,
0001
0100
0000
1000
0100
0000
0010
0100
0000
1000
0001
0000
,
0010
1000
0000
0010
0001
0000
0010
1000
0200
0000
0000
0000
,
0000
0320
0230
2300
,
3002
0000
0000
0203
0000
0000
0310
1000
0002
0000
0000
0000
,
0000
0000
0203
0302
,
0023
2030
3020
0230
,
0302
2003
3002
0203
,
0320
0000
0000
0230
0000
0000
0302
0000
0000
1003
0100
0010
,
0002
0000
0000
0000
,
0023
0100
0100
0100
,
0130
1000
0100
1000
0100
0010
0100
0010
0100
0010
0001
0010
,
0001
0010
0100
0010
0100
0010
0100
1000
0100
1000
0100
0010
,
0100
0010
0001
0100
0001
0100
0001
0010
1000
0010
1000
0010
,
1000
0100
0002
0000
0000
0000
0000
0000
0000
1003
0010
1000
,
0001
0100
0000
0001
1000
0000
0010
1000
0000
0001
0100
0000
,
1000
0001
0020
0000
0000
0000
0000
0000
0000
0000
0000
0000
,
0031
0100
0000
0010
1000
0000
1000
0001
0000
1000
0010
0000
,
1000
0100
0000
1000
0010
0000
0010
0001
0000
0100
1000
0000
,
0010
1000
0000
0001
1000
0000
0001
1000
0000
0001
0010
0000
,
0010
0001
0010
0100
0001
1000
0020
0000
0000
0000
0000
0000
,
0000
0000
0000
0000
0000
0000
0000
0000
0130
0000
1000
0100
0000
0001
0010
0000
,
0100
0000
0001
0010
0000
1000
0100
0000
0001
0000
0010
0100
0000
0010
1000
0000
,
0001
0000
0100
0010
0000
0001
1000
0000
0100
0000
0001
0010
0000
1000
0100
0000
,
0001
0000
0010
0001
0000
0100
0010
0000
1000
0000
0010
0100
0000
0001
0010
0000
,
0100
0000
0010
1000
0000
0100
0001
0000
0010
0000
0001
0100
0000
0010
1000
0000
,
0100
0000
0010
0100
0000
0001
0010
0000
1000
0000
0010
0100
0000
0010
0001
0000
,
0010
0000
0100
1000
0000
0010
0100
0000
0001
0000
0010
0001
0000
0100
0010
0000
,
1000
0000
0001
0010
0000
0100
0010
0000
0001
0000
1000
0010
0000
0100
0001
0000
,
0010
0000
0100
0010
0000
0001
0100
0000
1001
0000
0100
0001
0000
0010
1000
0000
,
0001
0000
0010
1000
0000
0100
0001
0000
0010
0000
1000
0001
0000
1000
0100
0000
,
0010
0000
0001
1000
0000
0010
0100
0000
0001
0000
0010
1000
0000
0100
0001
0000
,
0010
0000
1000
0010
0000
0001
1000
0000
0100
0000
1000
0001
0000
0010
1000
0000
,
0001
0000
1000
0100
0000
0001
0010
0000
1000
0000
0010
0001
0000
1000
0100
0000
,
0001
0000
1000
0001
0000
0010
1000
0000
0100
0000
1000
0001
0000
1000
0010
0000
,
1000
0000
0001
0100
0000
1000
0001
0000
0010
0000
1000
0010
0000
0001
1000
0000
,
0100
0000
0010
1000
0000
0001
1000
0000
0010
0000
0100
1000
0000
0001
0010
0000
,
1000
0000
0001
1000
0000
0010
0001
0000
1001
0000
0000
0000
0110
0000
0000
0000
,
0011
1001
0110
1010
,
0110
0101
1010
0110
,
0101
1010
0110
0101
,
1010
0000
0110
0000
1001
0010
0100
0001
,
0010
1000
0100
0010
1000
0100
0001
0010
,
0100
0010
1000
0100
0010
0001
0100
0010
,
0001
0010
1000
0010
0100
0010
0001
0100
,
0010
1000
0100
0001
1001
0000
0000
0000
;
