#VERSION:0.83;
#TITLE:Blueberry Stream;
#ARTIST:dj TAKA;
#GENRE:HOUSE;
#CREDIT:B. M'Rey;
#MUSIC:Blueberry Stream.ogg;
#BANNER:Blueberry Stream-bn.png;
#BACKGROUND:Blueberry Stream-bg.png;
#CDTITLE:./CDTITLES/beatmania IIDX 6th style.PNG;
#SAMPLESTART:69.940;
#SAMPLELENGTH:15;
#OFFSET:-0.421;
#BPMS:0=138;
#BGCHANGES:-5.000=Blueberry Stream.avi=1.000=1=0=0=StretchNoLoop==CrossFade==,;

//--------------- dance-single - B. M'Rey ----------------
#NOTEDATA:;
#STEPSTYPE:dance-single;
#DESCRIPTION:B. M'Rey;
#DIFFICULTY:Beginner;
#METER:1;
#RADARVALUES:0,0,0,0,0;
#NOTES:
0000
0000
0000
0000
,
0000
0000
0000
0000
,
0000
0000
0000
0000
,
0000
0000
0000
0000
,
0000
0000
0000
0000
,
0000
0000
0000
0000
,
0000
0000
0000
0000
,
0000
0000
0000
0000
,
0001
0000
0000
0000
,
0000
0000
0000
0000
,
1000
0000
0000
0000
,
0000
0000
0000
0000
,
0100
0000
0000
0000
,
0000
0000
0000
0000
,
0010
0000
0000
0000
,
0000
0000
0000
0000
,
0001
0000
0000
0000
,
0001
0000
0000
0000
,
1000
0000
0000
0000
,
0000
0000
0000
0000
,
0000
0100
0000
0000
,
0000
0010
0000
0000
,
0000
0000
0000
0000
,
0001
0000
0000
0000
,
1001
0000
0000
0000
,
0000
0000
0000
0000
,
0000
0000
0000
0000
,
0000
0000
0000
0000
,
1000
0000
0000
0000
,
0000
0000
0000
0000
,
0001
0000
0000
0000
,
0000
0000
0000
0000
,
0100
0000
0000
0000
,
0010
0000
0000
0000
,
0010
0000
0000
0000
,
0001
0000
0000
0000
,
0000
0000
0000
0000
,
1000
0000
0000
0000
,
0001
0000
0000
0000
,
0000
0000
0000
0000
,
0010
0000
0000
0000
,
1000
0000
0000
0000
,
1000
0000
0000
0000
,
1001
0000
0000
0000
,
0000
0010
0000
0000
,
0000
0010
0000
0000
,
0000
0000
0000
0000
,
0001
0000
0000
0000
,
1001
0000
0000
0000
,
0000
0000
0000
0000
,
0100
0000
0000
0000
,
0000
0000
0000
0000
,
0000
1001
0000
0000
,
0000
0001
0000
0000
,
0000
1000
0000
0001
,
0010
0000
0000
0000
,
1001
0000
0000
0000
;

//--------------- dance-single - B. M'Rey ----------------
#NOTEDATA:;
#STEPSTYPE:dance-single;
#DESCRIPTION:B. M'Rey;
#DIFFICULTY:Easy;
#METER:2;
#RADARVALUES:0,0,0,0,0;
#NOTES:
0000
0000
0000
0000
,
0000
0000
0000
0000
,
0000
0000
0000
0000
,
0000
0000
0000
0000
,
0100
0000
0000
0000
,
0100
0000
0000
0000
,
0010
0000
0000
0000
,
0010
0000
0000
0000
,
1000
0000
0000
0000
,
1000
0000
0000
0000
,
0001
0000
0000
0000
,
0001
0000
0000
0000
,
0010
0010
0000
0000
,
0010
0010
0000
0000
,
0100
0100
0000
0000
,
0100
0100
0000
0000
,
1000
0000
0000
0000
,
0001
0000
0000
0000
,
1000
0000
0000
0000
,
0001
0000
0000
0000
,
0000
1001
0000
0010
,
0000
0010
0000
0010
,
0010
0000
0000
0001
,
0001
0000
0000
1000
,
1000
0000
0000
0000
,
0001
0000
0000
0000
,
0100
0000
0000
0000
,
0010
0000
0000
0000
,
1000
0000
1000
0000
,
1000
0000
0000
0000
,
0001
0000
0001
0000
,
0001
0000
0000
0000
,
0100
0000
0000
0000
,
0010
0000
0000
0000
,
1000
0000
0000
0000
,
0100
0000
0000
0000
,
1001
0000
0000
0000
,
1001
0000
0000
0000
,
1001
0000
0000
0000
,
0000
0000
0000
0000
,
0010
0000
0010
0000
,
0100
0100
0100
0000
,
0100
0000
0100
0000
,
1001
0000
0000
0000
,
0001
0000
0000
0000
,
1000
0000
0000
0000
,
0001
0000
0000
0000
,
1000
0000
0000
0000
,
0001
0000
0001
0000
,
1000
1000
1000
0000
,
0100
0000
0100
0000
,
1001
0000
0000
0000
,
0000
0110
0000
0100
,
0000
0100
0001
0001
,
0001
0000
1000
0000
,
0001
0000
0000
0000
,
2002
0000
0000
0000
,
0000
0000
0000
0000
,
0000
0000
0000
0000
,
3003
0000
0000
0000
;

//--------------- dance-single - B. M'Rey ----------------
#NOTEDATA:;
#STEPSTYPE:dance-single;
#DESCRIPTION:B. M'Rey;
#DIFFICULTY:Medium;
#METER:8;
#RADARVALUES:0,0,0,0,0;
#NOTES:
0000
0000
0000
0000
,
0000
0000
0000
0000
,
0000
0000
0000
0000
,
0000
0000
0000
0000
,
0001
0100
0010
1000
,
0001
0000
1001
0000
0010
0100
0010
0000
,
0002
0000
0103
0000
1000
0100
0010
0000
,
0002
0000
0023
0000
,
0032
0100
0010
1003
,
0200
1000
0010
1300
,
0020
0100
0001
1030
,
0002
0100
1000
0013
,
0002
0000
0013
0100
1000
0000
1001
0000
,
2000
0000
3100
0010
0001
0000
0110
0000
,
0001
0010
0001
0000
1000
0100
1000
0000
,
0001
0100
1000
0000
1000
0100
0001
0000
,
1001
0000
0010
0100
0010
0000
0010
0000
,
0020
0000
1030
0100
,
0010
0001
0010
0100
0010
0001
0010
0000
,
0001
0001
1000
1000
,
0101
0000
1001
0000
0010
0100
0010
0000
,
1000
0000
0100
0000
1000
0100
1000
0000
,
0001
0100
0010
0000
1000
0010
0100
0000
,
0001
0100
0001
1000
0001
0100
0001
1000
,
0020
1000
0000
1030
,
0200
0010
0000
0310
,
0002
0010
0000
0103
,
0020
0100
0000
1030
,
0001
0100
1000
0000
0001
0010
1000
0000
,
0001
1000
0010
0000
1000
0001
0010
0000
,
0101
0010
1010
0100
,
0001
1000
0001
1000
0001
1000
0001
1000
,
0020
0000
0130
0000
0001
0100
0001
0000
,
2000
0000
3100
0000
0010
0100
0010
0000
,
0001
0100
0001
0000
1000
0010
1000
0000
,
0001
0010
1000
0010
0001
0000
1001
0000
,
0110
0000
0001
0000
,
0110
0000
1000
0000
,
0110
0000
1001
0000
,
0001
0000
1000
0000
0010
0100
0010
0100
,
0010
0000
1000
0000
0100
0010
0001
0000
,
0100
0000
0010
0000
0100
0010
1000
0000
,
0100
0000
0010
0000
0100
0010
0001
0000
,
1000
0000
0100
0000
1000
0100
0010
0000
,
0002
0010
0100
0013
,
2000
0100
0010
3100
,
0010
0110
0010
0110
,
1000
0000
0100
0000
0010
0001
1000
0100
,
0020
0001
1000
0031
,
0200
0010
0001
0310
,
0001
0101
1000
0101
,
1000
0000
0100
0000
0001
0010
0100
1000
,
0002
0000
1003
0000
0100
0010
0100
0000
,
2000
0000
3010
0000
0100
0001
0100
0000
,
0010
1000
0100
0000
1000
0100
0010
0000
,
0001
0100
0001
0100
0010
1000
0010
1000
,
0002
0000
0000
0000
,
0000
0000
0000
0000
,
0000
0000
0000
0000
,
0003
0000
0000
0000
;

//--------------- dance-single - B. M'Rey ----------------
#NOTEDATA:;
#STEPSTYPE:dance-single;
#DESCRIPTION:B. M'Rey;
#DIFFICULTY:Hard;
#METER:10;
#RADARVALUES:0,0,0,0,0;
#NOTES:
0000
0000
0000
0000
,
0000
0000
0000
0000
,
0000
0000
0000
0000
,
0000
0000
0000
0000
,
0010
1000
0001
0100
,
0001
0010
0100
1000
,
0100
0000
1000
0000
0001
0000
0010
0100
,
0002
0010
0000
0100
,
1003
0100
0010
1000
0000
0100
0010
0000
,
0001
0010
0100
0010
0001
0100
0001
0010
,
0001
0000
0010
1000
0000
0100
0001
0100
,
0010
0000
0001
0010
0000
0100
0001
0100
,
0010
0000
0010
1000
0010
0100
0001
0000
,
0001
0010
0100
0010
0100
1000
0100
1000
,
0001
0100
0010
1000
0001
0010
0100
1000
,
0001
0010
0001
0100
,
0010
0000
1000
0100
1000
0000
0010
0100
,
0010
0000
0001
1000
0100
1000
0100
1000
,
0010
0000
0100
0010
0100
0000
0001
0010
,
0001
0000
1000
0000
0100
0010
1000
0100
,
1000
0000
0010
0100
0010
0000
0001
1000
,
0010
0100
0001
0000
0010
1000
0100
1000
,
0100
0010
0100
0000
0010
1000
0100
0000
,
0011
0000
0100
0000
0100
0000
0010
1000
,
0200
0302
0023
0230
,
2300
0000
3020
0000
,
0230
0302
0023
2030
,
3200
0000
0302
0000
,
1003
0100
0001
1000
0010
0100
0001
0000
,
0010
1000
0100
1000
0100
0000
0010
0000
,
0100
0010
1000
0100
0010
0000
0001
0000
,
0010
0100
0001
0000
0010
1000
0100
0000
,
0010
0100
0010
1000
0100
0010
0001
0000
,
0010
0100
0001
0100
0010
1000
0010
0000
,
0100
1000
0100
0000
0001
0010
0001
0000
,
0010
0000
0100
0000
0001
1000
0010
0100
,
0010
1000
0010
0100
0001
0000
0010
0000
,
0001
0010
1000
0100
0010
0000
1000
0000
,
0001
1000
0010
0000
0001
0100
0010
0000
,
1001
0000
0010
0000
0100
0001
0100
0010
,
1000
0100
0010
1000
0000
0100
0010
0000
,
0001
0010
0100
0010
0001
0100
0001
0010
,
0001
0000
0010
1000
0000
0100
0001
0100
,
0010
0000
0001
0010
0000
0100
0001
0100
,
0010
0000
0010
1000
0010
0100
0001
0000
,
0001
0010
0100
0010
0100
1000
0100
1000
,
0001
0100
0010
1000
0001
0010
0100
1000
,
0001
0010
0001
0100
,
1000
0010
0100
1000
0000
0010
0100
0000
,
0001
0100
0010
0100
0001
0010
0001
0100
,
0001
0000
0100
1000
0000
0010
0001
0010
,
0100
0000
0001
0100
0000
0010
0001
0010
,
0100
0000
0100
1000
0100
0010
0001
0000
,
0001
0100
0010
0100
0010
1000
0010
1000
,
0001
0010
0100
1000
0001
0100
0010
1000
,
0001
0100
0001
0010
,
0202
0000
0000
0000
,
0000
0000
0000
0000
,
0000
0000
0000
0000
,
0303
0000
0000
0000
;
