#VERSION:0.83;
#TITLE:Before You;
#ARTIST:384MB;
#GENRE:TEKNO;
#CREDIT:B. M'Rey;
#MUSIC:Before You.ogg;
#BANNER:Before You-bn.png;
#BACKGROUND:Before You-bg.png;
#CDTITLE:./CDTITLES/DDR LEGACY PLUS.PNG;
#SAMPLESTART:38.971;
#SAMPLELENGTH:15;
#OFFSET:-0.043;
#BPMS:0=148;

//--------------- dance-single - B. M'Rey ----------------
#NOTEDATA:;
#STEPSTYPE:dance-single;
#DESCRIPTION:B. M'Rey;
#DIFFICULTY:Beginner;
#METER:5;
#RADARVALUES:0.241,0.307,0.29,0,0;
#NOTES:
0000
0000
0000
0000
,
0000
0000
0000
0000
,
0000
0000
0000
0000
,
0000
0000
0000
0000
,
0001
0010
1000
0100
,
0010
0001
0010
1000
,
0100
0001
0010
0100
,
1000
0010
0100
0010
,
0001
0000
0100
0000
,
0010
0010
0010
0010
,
0010
0000
1000
0000
,
0100
0100
0100
0100
,
0100
0000
0001
0000
,
1000
1000
1000
1000
,
1000
0000
0010
0000
,
0001
0001
0001
0001
,
0001
0000
1000
0000
,
0110
0000
0000
0000
,
0100
0000
0010
0000
,
1001
0000
0000
0000
,
0100
0000
0001
0000
,
1010
0000
0000
0000
,
1000
0000
0010
0000
,
0101
0000
0000
0000
,
1001
0000
0101
0000
,
0110
0000
1010
0000
,
0101
0000
0110
0000
,
1001
0000
0110
0000
,
0101
0000
1010
0000
,
0110
0000
0101
0000
,
1010
0000
0110
0000
,
0101
0000
1001
0000
,
0110
0000
0001
0000
,
0010
0010
0010
0010
,
0010
0000
1000
0000
,
0100
0100
0100
0100
,
0100
0000
0010
0000
,
0001
0001
0001
0001
,
0001
0000
0100
0000
,
1000
1000
1000
1000
,
0001
0000
1000
0000
,
0110
0000
0000
0000
,
0100
0000
0010
0000
,
1001
0000
0000
0000
,
0100
0000
0001
0000
,
1010
0000
0000
0000
,
1000
0000
0010
0000
,
0101
0000
0000
0000
,
1000
0010
1000
0000
,
0110
0000
1010
0000
,
0001
0100
0001
0000
,
1001
0000
0110
0000
,
0001
0100
0010
0000
,
0100
1000
0100
0000
,
1000
0010
0100
0000
,
0001
0100
0001
0000
,
0100
0010
0001
0000
,
0010
0100
0010
0000
,
0010
0100
1000
0000
,
0100
0010
0100
0000
,
0100
0000
0010
0000
;

//--------------- dance-single - B. M'Rey ----------------
#NOTEDATA:;
#STEPSTYPE:dance-single;
#DESCRIPTION:B. M'Rey;
#DIFFICULTY:Easy;
#METER:8;
#RADARVALUES:0.368,0.37,0.42,0,0;
#NOTES:
0000
0000
0000
0000
,
0000
0000
0000
0000
,
0000
0000
0000
0000
,
0000
0000
0000
0000
,
1100
0000
1000
0100
0000
1000
0010
0000
,
0100
1000
0010
0001
,
0011
0000
0001
0010
0000
0001
0100
0000
,
0010
0001
0100
1000
,
1000
0000
0000
1010
0000
0000
0010
0000
,
0100
0010
0001
1000
,
0100
0000
0000
0110
0000
0000
1100
0000
,
0000
0100
0001
0100
,
0001
0000
0000
0011
0000
0000
0010
0000
,
0100
0010
1000
0001
,
0100
0000
0000
0110
0000
0000
0101
0000
,
0000
0010
1000
0010
,
0000
0100
0000
0001
0000
0010
0000
1000
,
0000
0100
0000
0010
0000
0001
0010
0100
,
1000
0100
0000
0010
0000
0100
0000
1000
,
0000
0100
0000
0001
0000
0010
0100
0001
,
1000
0100
0000
0001
0000
0010
0000
1000
,
0000
0100
0000
0010
0000
0001
0010
0100
,
1000
0000
0101
0000
,
1001
0000
0100
0000
0100
0000
0010
0100
,
0010
1000
0100
1100
,
0100
0010
0001
0011
,
0010
0100
0010
1010
,
1000
0100
0001
0011
,
0010
0100
1000
1010
,
0010
0100
0001
0011
,
0010
0100
1000
1010
,
0010
1000
0100
0101
,
1000
0000
0000
1100
0000
0000
0100
0000
,
0010
0100
0001
1000
,
0010
0000
0000
0110
0000
0000
1010
0000
,
0000
0010
0001
0010
,
0001
0000
0000
0101
0000
0000
0100
0000
,
0010
0100
1000
0001
,
0010
0000
0000
0110
0000
0000
0011
0000
,
0000
0100
1000
0100
,
0000
1100
0000
0100
0000
0101
0000
0001
,
0000
0011
0000
0010
0000
1010
0000
1000
,
0000
1001
0000
0001
0000
0101
0000
0100
,
0000
0110
0000
0010
0000
1010
0000
1000
,
0000
1100
0000
0100
0000
0101
0000
0001
,
0000
0011
0000
0010
0000
1010
0000
1000
,
0000
1100
0000
0100
0000
0110
0000
0010
,
0000
0011
0000
0001
0000
1001
0000
0001
,
0000
0000
0001
0000
0000
0001
0000
0000
,
0001
0000
0000
0001
0000
0000
0000
0000
,
0000
0000
1000
0000
0000
1000
0000
0000
,
1000
0000
0000
1000
0000
0000
0100
0010
,
0100
0100
0010
0001
,
0100
0100
0010
1000
,
0010
0010
0100
0001
,
0010
0010
0100
1000
,
0001
0010
0100
1000
,
0001
0100
1000
0100
,
1000
0100
0010
0001
,
1000
0010
0001
0100
,
0011
0001
1000
1100
;

//--------------- dance-single - B. M'Rey ----------------
#NOTEDATA:;
#STEPSTYPE:dance-single;
#DESCRIPTION:B. M'Rey;
#DIFFICULTY:Medium;
#METER:11;
#RADARVALUES:0.487,0.493,0.36,0,0.015;
#NOTES:
0000
0000
0000
0000
,
0000
0000
0000
0000
,
0000
0000
0000
0000
,
0000
0000
0000
0000
,
1000
0100
0010
0100
0010
0001
0010
0100
,
1000
0000
1000
0100
0010
0010
0000
0000
,
0001
0100
0010
0100
0010
1000
0010
0100
,
0001
0000
0001
0100
0010
0010
0000
0000
,
0000
0011
0000
0011
0000
0110
0000
1000
,
0100
0000
0010
0000
0100
0000
0010
0000
0100
0000
0010
0000
0000
0000
0100
0001
,
0000
0101
0000
0101
0000
1001
0000
0010
,
1000
0000
0100
0000
1000
0000
0100
0000
1000
0000
0100
0000
0000
0000
1000
0001
,
0000
1010
0000
1010
0000
0110
0000
0001
,
0100
0000
0010
0000
0100
0000
0010
0000
0100
0000
0010
0000
0000
0000
0100
1000
,
0000
1100
0000
1100
0000
1001
0000
0010
,
0001
0100
0001
0100
0001
0100
1000
0001
,
1000
0000
0100
0000
1000
0010
1000
0001
,
1000
0000
0000
0000
,
0001
0000
0100
0000
0001
0010
0001
1000
,
0001
0000
0000
0000
,
1000
0000
0010
0000
1000
0001
1000
0100
,
1000
0000
0000
0000
,
0001
0000
0010
0000
0001
1000
0001
0100
,
0001
0000
0000
0000
,
0010
0100
0010
1000
0010
0001
0100
0100
,
0100
0100
0000
0001
0000
0010
0000
1000
,
0100
0001
0100
1000
0100
0010
0001
0001
,
0001
0001
0000
1000
0000
0010
0000
0100
,
0001
1000
0001
0100
0001
0010
1000
1000
,
1000
1000
0000
0001
0000
0010
0000
0100
,
1000
0010
1000
0001
1000
0100
0010
0010
,
0010
0010
0000
0100
0000
0001
0000
1000
,
0010
0001
0100
0000
0100
1000
0010
0000
,
0010
0100
0001
0000
0001
0000
0001
0000
,
0001
0010
1000
0000
1000
0100
0010
0000
,
0010
0100
1000
0000
1000
0000
1000
0000
,
1000
0010
0100
0000
0100
0001
0010
0000
,
0010
1000
0100
0000
0100
0000
0100
0000
,
0100
0010
1000
0000
1000
0001
0010
0000
,
0010
0001
0100
0000
0100
0000
0100
0000
,
1000
0000
1000
0000
1100
0000
0100
0010
,
0001
0000
0001
0000
0011
0000
0010
0100
,
1000
0000
1000
0000
1010
0000
0010
0100
,
0001
0000
0001
0000
0101
0000
0100
0010
,
0100
0000
0100
0000
1100
0000
0100
0001
,
0010
0000
0010
0000
0011
0000
0010
1000
,
0100
0000
0100
0000
0110
0000
1000
0001
,
0010
0000
0010
0000
0110
0000
0001
1000
,
0100
0000
0100
0000
0100
0100
0100
0000
,
0100
0000
0100
0000
0100
0100
0100
0000
,
0100
0100
0100
0100
,
0100
0010
1000
0001
1000
0001
1000
0000
,
1000
0100
0010
0000
0010
0100
0010
0000
,
1100
1010
1100
1001
,
1000
0100
0010
0000
0010
0100
0001
0000
,
1001
1010
1010
1010
,
0001
0100
0010
0000
0010
0100
0010
0000
,
0101
0011
0101
1001
,
0001
0100
0010
0000
0010
0100
1000
0000
,
1001
0101
0101
0101
,
0001
1000
0000
0001
1000
0001
1000
0000
;

//--------------- dance-single - B. M'Rey ----------------
#NOTEDATA:;
#STEPSTYPE:dance-single;
#DESCRIPTION:B. M'Rey;
#DIFFICULTY:Hard;
#METER:13;
#RADARVALUES:0.632,0.586,0.38,0,0.2;
#NOTES:
0000
0000
0000
0000
,
0000
0000
0000
0000
,
0000
0000
0000
0000
,
0000
0000
0000
0000
,
1000
0100
0110
0000
0101
0100
0010
0000
,
1000
0000
0001
0000
0100
0000
0010
0000
1000
0100
0000
0010
0001
0000
0100
0000
,
0010
1000
1100
0000
0011
0001
0100
0000
,
0010
0000
1000
0000
0001
0000
0100
0000
0001
0010
0000
0100
1000
0000
0001
0000
,
0100
0010
0100
0001
0000
1000
0100
0010
,
0001
0100
0010
1000
1100
0000
1001
0000
,
0100
0010
1000
0100
0000
0010
0001
1000
,
0100
0010
0001
0100
0110
0000
1100
0000
,
0010
0001
1000
0010
0000
0100
0001
1000
,
0010
0100
0001
0010
1100
0000
0011
0000
,
1000
0100
0010
0001
0000
0100
0010
1000
,
0100
0010
0001
1000
0001
1000
0001
1000
,
0100
0010
0000
0100
0010
0000
0100
0010
0000
0100
0010
0000
0100
0000
0010
0000
,
0001
0100
0001
0010
0001
1000
0100
0010
,
0001
0100
0000
0001
0100
0000
0001
0100
0000
0001
0100
0000
0001
0000
0100
0000
,
0010
1000
0010
0100
0010
1000
0100
0010
,
0100
1000
0000
0100
1000
0000
0100
1000
0000
0100
1000
0000
0100
0000
1000
0000
,
0010
0100
0001
1000
0100
0010
0001
0100
,
0001
1000
0000
0001
1000
0000
0001
1000
0000
0001
1000
0000
0001
0000
1000
0000
,
0100
0010
0001
0100
0010
1000
0100
0010
,
0001
0000
0100
0000
0010
0000
1000
0000
0010
0000
0100
0000
0001
0100
0000
0000
,
0010
0000
1000
0000
0100
0000
0010
0000
0001
0000
0010
0000
0100
1000
0000
0000
,
0001
0000
0100
0000
0010
0000
1000
0000
0100
0000
0010
0000
0001
0100
0000
0000
,
0010
0000
1000
0000
0010
0000
0100
0000
0001
0000
1000
0000
0100
0010
0000
0000
,
0001
0010
0100
1000
0010
0100
0001
0001
,
1000
0100
0010
0001
0100
0010
1000
1000
,
0100
0010
0001
0100
0010
1000
0100
0100
,
0010
0001
0100
0010
1000
0001
1000
0001
,
0100
0010
1000
1100
0000
1100
0010
0001
,
0100
0010
1000
0001
0100
0000
0100
0000
,
0010
1000
0100
0110
0000
0110
0001
0100
,
0010
1000
0010
0100
0001
0000
0001
0000
,
1000
0100
0010
0011
0000
0011
1000
0100
,
0010
0001
0010
0100
1000
0000
1000
0000
,
0001
0100
0010
1010
0000
1010
0100
0010
,
0001
0100
0010
1000
0110
0000
1001
0000
,
1000
0100
1000
0001
1001
0000
0000
0000
,
0101
0100
0000
0100
0000
0100
0000
0100
,
0001
0100
0001
1000
1001
0000
0000
0000
,
1100
0100
0000
0100
0000
0100
0000
0100
,
1000
1000
0100
0100
1000
0010
1000
0001
,
1010
0000
0110
0100
0000
0100
0000
0100
,
0001
0001
0100
0100
0001
0010
0001
1000
,
0011
0000
1001
0000
1000
0100
0001
0100
,
1100
0000
0000
0101
0000
0000
1010
0000
,
0000
0011
0000
0000
0110
0000
1001
0000
,
0101
0000
0000
0011
0000
0000
1100
0000
,
0000
1010
0000
0000
1000
0000
0001
0000
,
1000
0100
0000
1000
0100
0000
0100
0010
0000
0010
0001
0000
0100
0000
0010
0000
,
1000
0100
0010
0000
0010
0001
0100
0100
,
0010
1000
0000
0010
1000
0000
1000
0100
0000
0100
0010
0000
0001
0000
0100
0000
,
0010
1000
0100
0000
0100
0010
0001
0001
,
0100
0010
0000
0100
0010
0000
0010
1000
0000
1000
0100
0000
0010
0000
0001
0000
,
0100
0001
0010
0000
0010
0100
1000
1000
,
0001
0010
0000
0001
0010
0000
0010
0100
0000
0100
1000
0000
0010
0000
0100
0000
,
0010
1000
0100
0000
0100
0010
0001
0001
,
0100
1000
0000
0100
0010
0001
0100
0000
;
