#VERSION:0.83;
#TITLE:Be Rock U (1998 Burst Style);
#ARTIST:NAOKI;
#GENRE:ULTRA ROCK BEAT;
#CREDIT:B. M'Rey;
#MUSIC:Be Rock U (1998 Burst Style).ogg;
#BANNER:Be Rock U (1998 Burst Style)-bn.png;
#BACKGROUND:Be Rock U (1998 Burst Style)-bg.png;
#CDTITLE:./cdtitles/beatmania IIDX 9th style.png;
#SAMPLESTART:39.800;
#SAMPLELENGTH:15;
#OFFSET:-0.130;
#BPMS:0=149.974;
#BGCHANGES:0.000=Be Rock U 1998 burst style.avi=1.000=1=0=0=StretchNoLoop==CrossFade==,;

//--------------- dance-single - B. M'Rey ----------------
#NOTEDATA:;
#STEPSTYPE:dance-single;
#DESCRIPTION:B. M'Rey;
#DIFFICULTY:Beginner;
#METER:2;
#RADARVALUES:0.1,0.18,0.018,0.018,0;
#NOTES:
0000
0000
0000
0000
,
0000
0000
0000
0000
,
0000
0000
0000
0000
,
0000
0000
0000
0000
,
0000
0000
0000
0100
,
0000
0000
0000
0001
,
0000
0000
0000
0010
,
0000
0000
0000
1000
,
0000
0000
0000
0001
,
0000
0000
0000
0010
,
0000
0000
0000
0100
,
0000
0000
0000
1000
,
0000
0000
0000
0001
,
0000
0000
0000
0100
,
0000
0000
0000
0010
,
0000
0000
0000
1000
,
0000
0000
0000
0001
,
0000
0001
0000
1000
,
0000
1000
0000
0010
,
0000
0010
0000
0100
,
0000
0100
0000
0001
,
0000
0001
0000
0010
,
0000
0010
0000
1000
,
0000
1000
0000
0100
,
0000
0100
0000
0000
,
0000
0000
0000
0001
,
0000
0000
0000
0100
,
0000
0000
0000
0010
,
0000
0010
0000
0010
,
0000
0010
0000
1001
,
0000
0000
0000
0100
,
0000
0000
0000
0001
,
0000
0001
0000
0001
,
0000
0000
0000
1000
,
0000
0000
0000
0010
,
0000
0000
0000
0100
,
0000
0000
0000
0001
,
0000
0000
0000
0010
,
0000
0000
0000
0100
,
0000
0000
0000
0010
,
0000
0000
0000
0001
,
0000
0000
0000
1000
,
0000
0000
0000
0010
,
0000
0000
0000
0100
,
0000
0000
0000
0001
,
0000
0000
0000
1000
,
0000
0001
0000
1000
,
0000
0001
0000
1000
,
0000
0001
0000
1000
,
0000
0001
0000
0000
,
0000
0000
0000
1000
,
0000
0000
0000
0000
,
0000
0020
0000
0000
,
0000
0000
0000
0000
0000
0000
0000
0000
0000
0000
0000
0000
0000
0000
0000
0000
0000
0000
0000
0000
0000
0000
0000
0000
0000
0000
0000
0000
0000
0000
0000
0000
0000
0000
0000
0000
0000
0030
0000
0000
0000
0000
0000
0000
0000
0000
0000
0000
,
0000
0000
0000
0001
,
0000
0000
0000
0000
,
0000
0200
0000
0000
,
0000
0000
0000
0000
0000
0000
0000
0000
0000
0000
0000
0000
0000
0000
0000
0000
0000
0000
0000
0000
0000
0000
0000
0000
0000
0000
0000
0000
0000
0000
0000
0000
0000
0000
0000
0000
0000
0000
0000
0000
0000
0000
0000
0000
0000
0000
0000
0000
0000
0000
0000
0000
0000
0000
0000
0000
0000
0000
0000
0000
0000
0000
0000
0000
0000
0000
0000
0000
0000
0000
0000
0000
0000
0000
0000
0000
0000
0000
0000
0000
0000
0000
0000
0000
0000
0000
0000
0000
0000
0000
0000
0000
0000
0000
0000
0000
0000
0000
0000
0000
0000
0000
0000
0000
0000
0000
0000
0300
0000
0000
0000
0000
0000
0000
0000
0000
0000
0000
0000
0000
0000
0000
0000
0000
0000
0000
0000
0000
0000
0000
0000
0000
0000
0000
0000
0000
0000
0000
0000
0000
0000
0000
0000
0000
0000
0000
0000
0000
0000
0000
0000
0000
0000
0000
0000
0000
0000
0000
0000
0000
0000
0000
0000
0000
0000
0000
0000
0000
0000
0000
0000
0000
0000
0000
0000
0000
0000
0000
0000
0000
0000
0000
0000
0000
0000
0000
0000
0000
0000
0000
0000
0000
,
0000
0000
0000
0001
,
0000
0000
0000
1000
,
0000
0000
0000
0010
,
0000
0010
0000
0010
,
0000
0010
0000
0001
,
0000
0000
0000
1000
,
0000
0000
0000
0100
,
0000
0100
0000
0100
,
0000
0000
0000
0010
,
0000
0000
0000
0000
,
0000
1001
0000
0000
0000
0000
0000
0000
;

//--------------- dance-single - B. M'Rey ----------------
#NOTEDATA:;
#STEPSTYPE:dance-single;
#DESCRIPTION:B. M'Rey;
#DIFFICULTY:Easy;
#METER:4;
#RADARVALUES:0.199,0.244,0.035,0.044,0;
#NOTES:
0000
0000
0000
0000
,
0000
0000
0000
0000
,
0000
0000
0000
0000
,
0000
0000
0000
0000
,
0000
0000
0000
0001
,
0000
1000
0000
0100
,
0000
0010
0000
0100
,
0000
1000
0000
0001
,
0000
0010
0000
0001
,
0001
0001
0000
1000
,
1000
1000
0000
0100
,
0100
0100
0000
0010
,
0010
0010
0000
0001
,
0001
0001
0000
0010
,
0010
0010
0000
0100
,
0100
0100
0000
1000
,
1000
1000
0000
0001
,
0000
0010
0000
1000
,
0100
0010
0000
0001
,
0000
0010
0000
0001
,
1000
0001
0000
1000
,
0000
0001
0000
0100
,
1000
0001
0000
0010
,
0000
0001
0000
1000
,
0100
0010
0000
1010
,
0000
0000
0000
0001
,
0000
0010
0000
0100
,
0100
0100
0000
0100
,
0000
1000
0000
0001
,
0001
0001
0000
1000
,
0000
0001
0000
0010
,
0000
0100
0000
0010
,
0000
0001
0000
1000
,
0001
1000
0000
1000
,
0000
0100
0000
0010
,
0000
0001
0000
1000
,
0000
0100
0000
0010
,
0000
0001
0000
0001
,
0010
0001
0000
0010
,
0100
0010
0000
0100
,
1000
0100
0000
1000
,
0001
1000
0000
0001
,
0000
0010
0000
0100
,
0000
1000
0000
0100
,
0000
0010
0000
0001
,
0000
1000
0000
0001
,
1000
0100
0000
0001
,
1000
0100
0000
0100
,
1000
0001
0000
0100
,
1000
0001
0000
0202
,
0000
0000
0000
0000
0000
0000
0000
0000
0000
0000
0000
0000
0000
0000
0000
0000
0000
0000
0000
0000
0000
0000
0000
0000
0000
0000
0000
0000
0000
0000
0000
0000
0000
0000
0000
0000
0000
0000
0000
0000
0000
0000
0000
0000
0000
0000
0000
0000
0000
0000
0000
0000
0000
0000
0000
0000
0000
0000
0000
0000
0000
0000
0000
0000
0000
0000
0000
0000
0000
0000
0000
0000
0003
0300
0000
0000
0000
0000
0000
0000
0000
0000
0000
0000
0000
0000
0000
0000
0000
0000
0000
0000
0000
0000
0000
0000
,
0000
1000
0000
0000
,
0000
0100
0000
0010
,
0000
0001
0000
0010
,
0000
0001
0010
0000
,
0100
1000
0000
0001
,
0000
0020
0000
0001
,
0000
0000
0000
0001
0000
0000
0000
0000
0000
0001
0000
0030
,
0000
0001
0000
1000
,
0000
0100
0000
1000
,
0000
0010
0000
0001
,
0000
0100
0000
1000
,
0000
1000
0000
0010
,
0000
0001
0000
1000
,
1000
1000
0000
0010
,
0000
0001
0000
0010
,
0001
0010
0000
0100
,
0000
1000
0000
1001
,
0000
2002
0000
0000
0000
0000
0000
0000
,
0000
0000
0000
0000
0000
0000
0000
0000
0000
0000
0000
0000
0000
0000
0000
0000
0000
0000
0000
0000
0000
0000
0000
0000
0000
0000
0000
0000
0000
0000
0000
0000
0000
0000
0000
0000
0000
0000
0000
0000
0000
0003
0000
0000
0000
0000
0000
0000
3000
0000
0000
0000
0000
0000
0000
0000
0000
0000
0000
0000
0000
0000
0000
0000
0000
0000
0000
0000
0000
0000
0000
0000
0000
0000
0000
0000
0000
0000
0000
0000
0000
0000
0000
0000
0000
0000
0000
0000
0000
0000
0000
0000
0000
0000
0000
0000
0000
0000
0000
0000
0000
0000
0000
0000
0000
0000
0000
0000
0000
0000
0000
0000
0000
0000
0000
0000
0000
0000
0000
0000
0000
0000
0000
0000
0000
0000
0000
0000
0000
0000
0000
0000
0000
0000
0000
0000
0000
0000
0000
0000
0000
0000
0000
0000
0000
0000
0000
0000
0000
0000
0000
0000
0000
0000
0000
0000
0000
0000
0000
0000
0000
0000
0000
0000
0000
0000
0000
0000
0000
0000
0000
0000
0000
0000
0000
0000
0000
0000
0000
0000
0000
0000
0000
0000
0000
0000
0000
0000
0000
0000
0000
0000
;

//--------------- dance-single - B. M'Rey ----------------
#NOTEDATA:;
#STEPSTYPE:dance-single;
#DESCRIPTION:B. M'Rey;
#DIFFICULTY:Medium;
#METER:7;
#RADARVALUES:0.28,0.329,0.035,0.044,0;
#NOTES:
0000
0000
0000
0000
,
0000
0000
0000
0000
,
0000
0000
0000
0000
,
0000
0000
0000
0000
,
0000
0000
0000
0001
,
1000
0010
0000
0100
,
1000
0100
0000
0010
,
0000
0001
0000
1000
,
0001
0100
0000
0010
,
0100
0000
1000
0000
0001
1000
0100
0000
,
0010
0000
0001
0000
0001
0010
0100
0000
,
1000
0000
0001
0000
1000
0001
0010
0000
,
0100
0000
0010
0000
0001
0010
1000
0000
,
0010
0000
1000
0000
0100
1000
0010
0000
,
0001
0000
0010
0000
0001
0010
0100
0000
,
1000
0000
0100
0000
0001
1000
0010
0000
,
0110
1100
0010
0010
,
0100
0010
0001
1000
,
0001
0100
1000
0001
,
0010
0001
1000
0100
,
0010
0100
1000
1010
,
0100
0001
1000
0010
,
0100
1000
0100
0010
,
0000
0001
0000
1000
,
0001
1000
0001
2002
,
0000
0000
0000
0000
0000
0000
0000
0000
0000
0000
0000
0000
0000
0000
0000
0000
0000
0000
0000
0000
0000
0000
0000
0000
0000
0000
0000
0000
0000
0000
0000
0000
0000
0000
0000
0000
0000
0000
0000
0000
0000
0000
0000
0000
0000
0000
0000
0000
0000
0000
0000
0000
0000
0000
0000
0000
0000
0000
0000
0000
0000
0000
0000
0000
0000
0000
0000
0000
0000
0000
0000
0000
0000
0000
0000
0000
0000
0000
0000
0000
0000
0000
0000
0000
0000
0000
0000
0000
0000
0000
0000
0000
0000
0000
0000
0000
0000
0000
0000
0000
0000
0000
0000
0000
0000
0000
0000
0000
0000
0000
3000
0000
0000
0003
0000
0000
0000
0000
0000
0000
0000
0000
0000
0000
0000
0000
0000
0000
0000
0000
0000
0000
0000
0000
0000
0000
0000
0000
0000
0000
0000
0000
0000
0000
0100
0000
0000
0000
0000
0000
0000
0000
0000
0000
0000
0000
0000
0000
0000
0000
0000
0000
0000
0000
0000
0000
0000
0000
0000
0000
0000
0000
0000
0000
0000
0000
0000
0000
0000
0000
0000
0000
0000
0000
0000
0000
0000
0000
0000
0000
0000
0000
,
1000
0010
0000
0001
,
0010
0100
0000
0100
,
0000
1000
0000
1000
,
0001
0010
0000
0100
,
0000
1000
0000
0100
,
0010
0001
0000
1000
,
0000
0001
0000
0100
,
1000
0010
0000
0001
,
0010
0001
0010
0100
,
0010
0100
0010
0100
,
1000
0100
1000
0100
,
1000
0001
1000
0001
,
0001
0010
0001
0010
,
0010
0100
0010
0100
,
0100
1000
0100
1000
,
0100
0000
0001
0010
0001
0000
1000
0000
,
0000
0100
0000
1000
,
0000
0001
0000
0010
,
0000
0001
0000
1000
,
0100
1000
0000
0010
,
0100
1000
0100
0001
,
1000
0100
0010
0001
,
0010
0100
1000
0010
,
0100
1000
0001
0002
,
0000
0000
0000
0000
0000
0000
0000
0000
0000
0000
0000
0000
0000
0000
0000
0000
0000
0000
0000
0000
0000
0000
0000
0000
0000
0000
0000
0000
0000
0000
0000
0000
0000
0000
0000
0000
0000
0000
0000
0000
0000
0000
0000
0000
0000
0000
0000
0000
0000
0000
0000
0000
0000
0000
0000
0000
0000
0000
0000
0000
0000
0000
0000
0000
0000
0000
0000
0000
0000
0000
0000
0000
1000
0003
0000
0000
0000
0000
0000
0000
0000
0000
0000
0000
0000
0000
0000
0000
0000
0000
0000
0000
0000
0000
0000
0000
,
0000
0010
0000
0001
,
0000
0200
0000
1000
,
0000
1000
0000
1000
,
1000
0000
0000
0000
0000
0000
0000
0000
0000
0000
0000
0000
0000
0000
0000
0000
0000
0000
0000
0000
0000
0000
0000
0000
1000
0000
0000
0000
0000
0000
0000
0000
0000
0000
0000
0000
0000
0000
0000
0000
0000
0000
0000
0000
0000
0000
0000
0000
1000
0000
0000
0000
0000
0000
0000
0300
0000
0000
0000
0000
0000
0000
0000
0000
0000
0000
0000
0000
0000
0000
0000
0000
1000
0000
0000
0000
0000
0000
0000
0000
0000
0000
0000
0000
0000
0000
0000
0000
0000
0000
0000
0000
0000
0000
0000
0000
,
0001
0010
0000
0100
,
1000
2000
0000
0001
,
0000
0001
0000
0001
,
0001
0001
0001
3010
,
0001
0100
0000
0010
,
0100
0010
0000
0001
,
0010
0001
0010
0010
,
0001
0010
0000
0100
,
1000
0100
0000
0010
,
0001
0010
0000
0010
,
0001
0100
0010
0010
,
0100
0010
0001
0001
,
0000
0000
0010
0000
0000
0000
0100
0010
,
0000
0100
0000
0000
0000
0000
0000
0000
;

//--------------- dance-single - B. M'Rey ----------------
#NOTEDATA:;
#STEPSTYPE:dance-single;
#DESCRIPTION:B. M'Rey;
#DIFFICULTY:Hard;
#METER:11;
#RADARVALUES:0.451,0.458,0.044,0.053,0.285;
#NOTES:
0000
0000
0000
0000
,
0000
0000
0000
0000
,
0000
0000
0000
0000
,
0000
0000
0000
0000
,
0000
0000
0000
0000
0000
0000
0000
0000
0000
0000
0000
0000
0001
0000
0000
0010
,
0000
0000
1000
0000
0001
0000
0000
0000
0000
0000
1000
0000
0001
0000
0000
1000
,
0000
0100
1000
0000
0000
0100
1000
0000
,
0010
0100
0000
0010
0000
0100
0000
0001
,
0010
0000
0000
0000
0001
0000
0000
0000
0101
0000
0000
0000
0001
0000
0000
0010
,
0000
0000
0001
0000
0000
0010
0000
0000
0010
0000
0100
0000
1000
0000
0000
0001
,
0000
0000
1000
0000
0000
0001
0000
0000
0100
0000
0001
0000
1000
0000
0000
0001
,
0000
0000
0010
0000
0000
0100
0000
0000
0100
0000
0010
0000
0100
0000
0000
1000
,
0000
0000
0100
0000
0000
1000
0000
0000
0100
0000
0010
0000
0001
0000
0000
0010
,
0000
0000
0100
0000
0000
0001
0000
0000
1000
0000
0010
0000
0001
0000
0000
0100
,
0000
0000
1000
0000
0000
0001
0000
0000
0100
0000
0001
0000
0010
0000
0000
0001
,
0000
0000
0100
0000
0000
1000
0000
0000
0010
0000
0001
0000
0100
0000
0000
0001
,
0000
1000
0010
0100
1000
0100
0001
1000
,
0010
0001
0100
0010
1000
0000
1000
0001
,
0010
0100
0010
0001
1000
0001
0100
0000
,
0100
0000
0000
0000
0010
0000
0000
0000
0010
0000
0000
0000
0001
0000
1000
0100
,
0000
0000
0000
0000
0001
0000
1000
0010
0000
0000
0001
0000
0000
0000
1000
0002
,
0000
0003
0000
0000
0000
0000
0000
0000
0000
0000
0000
0000
0000
0000
0000
0000
0000
0000
0000
0000
0000
0000
0000
0000
0000
0000
0000
0000
0000
0000
0000
0000
0000
0000
0000
0000
0000
0000
0000
0000
0000
0000
0000
0000
0000
0000
0000
0000
0100
0000
0000
0000
0000
0000
0000
0000
0000
0000
0000
0000
0000
0000
0000
0000
0000
0000
0000
0000
0000
0000
0000
0000
1000
0000
0000
0000
0000
0000
0000
0000
0000
0000
0000
0000
0000
0000
0000
0000
0000
0000
0000
0000
0000
0000
0000
0000
0010
0000
0000
0000
0000
0000
0000
0000
0000
0000
0000
0000
0000
0000
0000
0000
0000
0000
0000
0000
0000
0000
0000
0000
0000
0000
0000
0000
0000
0000
0000
0000
0000
0000
0000
0000
0000
0000
0000
0000
0000
0000
0000
0000
0000
0000
0000
0000
0100
0000
0000
0000
0000
0000
0000
0000
0000
0000
0000
0000
0000
0000
0000
0000
0000
0000
0000
0000
0000
0000
0000
0000
0010
0000
0000
0000
0000
0000
0000
0000
0000
0000
0000
0000
0000
0000
0000
0000
0000
0000
0000
0000
0000
0000
0000
0000
,
1000
0001
0010
0100
0001
0000
0001
0000
,
0000
0000
0010
0000
0001
0000
0100
0000
0000
1000
0000
0000
0001
0000
0000
0001
,
0000
0010
0100
0000
1001
0000
0000
0000
,
0000
0000
1000
0000
0000
0000
0100
0000
0001
0000
0010
0000
1000
0000
0000
0001
,
0000
0000
1000
0000
0001
0000
0000
0000
0000
0000
0100
0000
1000
0000
0000
0010
,
0000
0000
0000
0000
0000
0000
0000
0000
0000
0000
0000
0000
0000
0000
0000
0000
0000
0000
0000
0000
0000
0000
0000
0000
0100
0000
0000
0000
0000
0000
0000
0000
0000
0000
0000
0000
0000
0000
0000
0000
0000
0000
0000
0000
0000
0000
0000
0000
0002
0000
0000
0000
0000
0000
0000
0000
0000
0000
0000
0000
0000
0003
0000
0000
0000
0000
0000
0000
0000
0000
0000
0000
0000
0000
0000
0000
0000
0000
0000
0000
0000
0000
0000
0000
0000
0000
0000
0000
0000
0000
0000
0000
0000
0000
0000
0000
0000
0000
0000
0000
0000
0000
0000
0000
0000
0000
0000
0000
0000
0000
0000
0000
0000
0000
0000
0000
0000
0000
0000
0000
1000
0000
0000
0000
0000
0000
0000
0000
0000
0000
0000
0000
0010
0000
0000
0000
0000
0000
0000
0000
0000
0000
0000
0000
1000
0000
0000
0000
0000
0000
0000
0000
0000
0000
0000
0000
0000
0000
0000
0000
0000
0000
0000
0000
0000
0000
0000
0000
0000
0000
0000
0000
0000
0000
0000
0000
0000
0000
0000
0000
0001
0000
0000
0000
0000
0000
0000
0000
0000
0000
0000
0000
,
0000
0000
0100
0000
1000
0000
0000
0100
0000
0000
0010
0000
0100
0000
0000
0010
,
0000
0000
1000
0010
1000
0000
0000
0000
0000
0000
0001
0100
0001
0000
0000
0010
,
0000
0000
0001
0000
0100
0000
0000
0000
0000
0000
1000
0010
1000
0000
0000
0100
,
0000
0000
0001
0000
1000
0000
0000
0000
0000
0000
0001
0010
0001
0000
0000
0000
,
0100
0010
0000
1000
0000
0100
0000
0010
,
0001
0000
0000
0000
1000
0000
0000
0000
0001
0000
0000
0000
0100
0000
0000
0001
,
0000
0000
1000
0000
0000
0010
0000
0000
0100
0000
0001
0000
1000
0000
0000
0100
,
0000
0000
1000
0000
0000
0010
0000
0000
0100
0000
0010
0000
1000
0000
0000
0010
,
0000
0000
0100
0000
0000
0001
0000
0000
0010
0000
0001
0000
0100
0000
0000
0010
,
0000
0000
1000
0000
0000
0100
0000
0000
0001
0000
0100
0000
1000
0000
0000
1000
,
0000
0000
0010
0000
0000
1000
0000
0000
0001
0000
0010
0000
1000
0000
0000
0100
,
0000
0000
0001
0000
0000
0010
0000
0000
1000
0000
0001
0000
1000
0000
0000
0010
,
0000
0000
0100
0000
0000
0001
0000
0000
0010
0000
0001
0000
0010
0000
0000
1000
,
0000
0000
0001
0000
0000
0001
0000
0000
0100
0000
1000
0000
0100
0000
0000
0000
,
0010
0001
1000
0100
,
0010
1000
0100
0001
,
0010
0001
0100
1000
,
0010
0000
0001
0000
0100
0000
0010
1000
,
0100
0000
0010
1000
0100
0000
0001
0100
,
0010
0001
1000
0100
0010
0000
0100
1000
,
0001
0000
1000
0001
0010
0000
1000
0001
,
1000
0010
0001
0100
0010
1000
2000
0000
,
0000
0000
0000
0000
0100
0000
0000
0000
0010
0000
0000
0000
3001
0000
0000
0010
,
0000
0000
1000
0000
0001
0000
0000
0000
0000
0000
0100
0000
1000
0000
0000
0010
,
0000
0100
2000
0000
0000
0000
0010
0000
,
0000
0100
0000
0010
,
0100
0000
0000
0000
0000
0000
0000
0000
0000
0000
0000
0000
0000
0000
0000
0000
0000
0000
0000
0000
0000
0000
0000
0000
0000
0000
0000
0000
0000
0000
0000
0000
0000
0000
0000
0000
0000
0000
0000
0000
0000
0000
0000
0000
0000
0000
0000
0000
0010
0000
0000
0000
0000
0000
0000
0000
0000
0000
0000
0000
0000
0000
0000
0000
0000
0000
0000
0000
0000
0000
0000
0000
0000
0000
0000
0000
0000
0000
0000
0000
0000
0000
0000
0000
0000
0000
0000
0000
0000
0000
0000
0000
0000
0000
0000
0000
0100
0000
0000
0000
0000
0000
0000
0000
0000
0000
0000
3000
0000
0000
0000
0000
0000
0000
0000
0000
0000
0000
0000
0000
0000
0000
0000
0000
0000
0000
0000
0000
0000
0000
0000
0000
0000
0000
0000
0000
0000
0000
0000
0000
0000
0000
0000
0000
0010
0000
0000
0000
0000
0000
0000
0000
0000
0000
0000
0000
0000
0000
0000
0000
0000
0000
0000
0000
0000
0000
0000
0000
0100
0000
0000
0000
0000
0000
0000
0000
0000
0000
0000
0000
0000
0000
0000
0000
0000
0000
0000
0000
0000
0000
0000
0000
,
0001
0000
0100
0000
0001
0000
0000
0000
0000
0000
1000
0000
0010
0000
0000
0001
,
0000
0100
2000
0000
0000
0000
0010
0000
,
0100
0010
3001
0001
,
0010
0000
0000
0000
0100
0000
1000
0000
0010
0000
0001
0000
1000
0000
0000
0100
,
0000
0000
0001
0000
0100
0000
0000
0000
0000
0000
1000
0100
1000
0000
0000
0010
,
0000
0000
0100
0000
0010
0000
0000
0000
0000
0000
1000
0100
1000
0000
0010
0000
,
0000
0000
0100
0000
1000
0000
0000
0010
0000
0000
0100
0000
0001
0000
0000
1000
,
0000
0000
0010
1000
0010
0000
0000
0000
0000
0000
0001
0100
0001
0000
0000
1000
,
0000
0000
0010
0000
0100
0000
0000
0000
0000
0000
0001
0010
0001
0000
0000
1000
,
0000
0001
0100
0000
0000
1000
0001
0000
,
0100
0010
0000
0010
0000
0100
0000
1000
,
0001
0000
0010
0000
0100
0000
0001
0100
,
0010
0000
1000
0000
0001
0000
0100
0000
0010
0000
0000
0000
1001
0000
0000
1100
,
0000
1002
0000
0000
0000
0000
0000
0000
,
0000
0000
0000
0000
0000
0000
0000
0000
0000
0000
0000
0000
0000
0000
0000
0000
0000
0000
0000
0000
0000
0000
0000
0000
0000
0000
0000
0000
0000
0000
0000
0000
0000
0000
0000
0000
0000
0000
0000
0000
0000
0000
0000
0000
0000
0000
0000
0000
0000
0000
0000
0000
0000
0000
0000
0000
0000
0000
0000
0000
0000
0000
0000
0000
0000
0000
0000
0000
0000
0000
0000
0000
0000
0000
0000
0000
0000
0000
0000
0000
0000
0000
0000
0000
0000
0000
0000
0000
0000
0000
0000
0003
0000
0000
0000
0000
0000
0000
0000
0000
0000
0000
0000
0000
0000
0000
0000
0000
0000
0000
0000
0000
0000
0000
0000
0000
0000
0000
0000
0000
0000
0000
0000
0000
0000
0000
0000
0000
0000
0000
0000
0000
0000
0000
0000
0000
0000
0000
0000
0000
0000
0000
0000
0000
0000
0000
0000
0000
0000
0000
0000
0000
0000
0000
0000
0000
0000
0000
0000
0000
0000
0000
0000
0000
0000
0000
0000
0000
0000
0000
0000
0000
0000
0000
0000
0000
0000
0000
0000
0000
0000
0000
0000
0000
0000
0000
0000
0000
0000
0000
0000
0000
;
