#TITLE:BEYOND THE EARTH;
#SUBTITLE:;
#ARTIST:猫叉Master;
#TITLETRANSLIT:;
#SUBTITLETRANSLIT:;
#ARTISTTRANSLIT:Nekomata Master;
#GENRE:WORLD\/ELECTRONICA;
#CREDIT:;
#MUSIC:Beyond The Earth.ogg;
#BANNER:Beyond The Earth-bn.png;
#BACKGROUND:Beyond The Earth-bg.png;
#CDTITLE:./CDTITLES/Pop'n Music.PNG;
#SAMPLESTART:30.377;
#SAMPLELENGTH:12.000;
#SELECTABLE:YES;
#OFFSET:-0.416;
#BPMS:0.000=140.000;
#STOPS:;
#BGCHANGES:0.000=Beyond the Earth.avi=1.000=1=0=1===CrossFade==,
99999.000=-nosongbg-=1.000=0=0=0=StretchNoLoop====
;
#FGCHANGES:;

//--------------- dance-single - B. M'Rey ----------------
#NOTES:
     dance-single:
     B. M'Rey:
     Beginner:
     2:
     0,0,0,0,0:
0000
0000
0000
0000
,
0000
0000
0000
0000
,
0000
0000
0000
0000
,
0000
0000
0000
0000
,
0000
0000
0000
0000
,
0000
0000
1000
0000
,
0000
0000
0010
0000
,
0000
0000
0100
0000
,
0000
0000
0001
0001
,
0001
0000
0100
0000
,
0000
0000
0010
0000
,
0000
0000
1000
0000
,
0000
0000
0001
0000
,
1000
0000
0010
0000
,
0000
0000
0100
0000
,
0000
0000
0001
0000
,
0000
0000
1000
1000
,
1000
0000
0001
0000
,
0100
0000
0010
0000
,
1000
0000
0100
0000
,
1000
0000
0001
0000
,
0000
0000
0100
0000
,
0010
0000
1000
0000
,
0001
0000
0100
0000
,
0010
0000
1001
0000
,
0000
0000
0001
0000
,
0010
0000
0100
0000
,
1000
0100
0010
0000
,
0001
0000
0001
0000
,
0000
0000
0001
0000
,
0010
0000
0100
0000
,
1000
0100
0010
0000
,
0000
0000
0001
0000
,
0000
0000
1000
0000
,
0000
0000
0010
0000
,
0100
0000
0001
0000
,
0000
0000
1000
0010
,
0100
0000
0010
0000
,
1000
0000
0000
0001
,
0010
0000
0100
0000
,
0010
0000
0001
0000
,
0000
0000
1000
0000
,
0010
0000
0100
0000
,
0010
0000
0001
0000
,
1000
0000
0010
0000
,
0100
0000
0001
0000
,
0000
0000
1000
0000
,
0000
0000
0110
0000
,
0000
0000
1001
0000
,
0000
0000
0001
0000
,
0000
0000
0100
0000
,
0000
0000
0010
0000
,
0000
0000
1000
0000
,
0000
0000
0001
0000
,
0000
0000
0010
0000
,
0000
0000
0001
0000
,
0000
0000
1001
0000
,
0000
0000
1000
0000
,
0010
0000
0100
0000
,
0001
0010
0100
0000
,
1000
0000
0001
0000
,
0000
0000
1000
0000
,
0100
0000
0010
0000
,
0001
0010
0100
0000
,
0000
0000
1000
0000
,
0000
0000
0001
0000
,
1000
0000
0010
0000
,
1000
0100
0010
0000
,
0001
0000
0100
0000
,
0000
0000
0001
0000
,
0010
0000
1000
0000
,
1000
0100
0010
0000
,
0000
0000
0001
0000
,
0000
0000
1000
0000
,
0001
0000
1000
0000
,
0001
0000
1001
0000
,
1001
0000
1001
0000
,
1001
0000
0000
0000
;

//--------------- dance-single - B. M'Rey ----------------
#NOTES:
     dance-single:
     B. M'Rey:
     Easy:
     2:
     0,0,0,0,0:
0000
0000
0000
0000
,
0000
0000
0000
0000
,
0000
0000
0000
0000
,
0000
0000
0000
0000
,
0000
0000
0000
0000
,
0000
0000
1000
0000
,
0010
0000
0100
0000
,
0001
0000
1000
0000
,
0010
0000
0100
0100
,
0100
0000
0001
0000
,
0010
0000
1000
0000
,
0100
0000
1000
0000
,
0001
0000
0010
0000
,
0100
0000
0001
0000
,
1000
0000
0010
0000
,
0100
0000
0001
0000
,
1000
0000
0001
0001
,
0001
0000
1000
0001
,
1000
0000
0010
0000
,
0100
0000
0001
0010
,
0001
0000
1000
0100
,
1000
0000
0010
0100
,
0010
0000
0001
0000
,
1000
0000
0010
0100
,
0010
0000
0001
1000
,
0100
0000
1001
0000
,
0101
0000
0110
0000
,
0001
1000
1010
0000
,
0110
0000
0101
0000
,
0000
0000
1001
0000
,
0110
0000
1100
0000
,
0001
0010
0100
0000
,
0000
0000
0001
0000
,
1000
0000
0001
0000
,
1000
0000
0010
0000
,
0100
0000
0001
0000
,
1000
0000
0001
0000
,
1000
0000
0010
0000
,
0100
0000
1000
0000
,
0001
0000
0100
0000
,
0010
0000
1000
0000
,
0000
0000
1001
0000
,
0001
0000
1001
0000
,
1000
0000
0110
0000
,
0010
0000
0110
0000
,
0100
0000
0101
0000
,
1010
0000
0101
0000
,
1010
0000
1001
0000
,
1001
0000
0110
0110
,
0110
0000
0001
0000
,
0000
0000
0100
0000
,
0000
0000
0010
0000
,
0000
0000
1000
0000
,
0000
0000
1001
0000
,
0000
0000
0010
0000
,
0000
0000
0001
0000
,
0000
0000
1001
0000
,
0000
0000
1000
0000
,
0001
0000
0100
0000
,
0010
0010
1000
0000
,
0001
0000
0100
0000
,
0010
0000
1000
0000
,
0001
0000
0100
0000
,
0010
0010
1000
0000
,
0001
0000
0100
0000
,
0010
0000
1000
0001
,
1000
0000
0010
0000
,
0100
0000
0001
0010
,
0001
0000
1000
0100
,
1000
0000
0010
0000
,
0100
0000
0001
0000
,
1000
0000
0010
0100
,
0010
0000
0001
1000
,
0001
0000
0101
0000
,
1010
0000
0110
0000
,
0101
0000
1001
0000
,
1001
0000
1001
0000
,
1001
1001
0000
0000
;

//--------------- dance-single - B. M'Rey ----------------
#NOTES:
     dance-single:
     B. M'Rey:
     Medium:
     5:
     0,0,0,0,0:
0000
0000
0000
0000
,
0000
0000
0000
0000
,
0000
0000
0000
0000
,
0000
0000
0000
0000
,
0000
0000
0000
0000
,
0000
0000
0001
1000
,
0010
1000
0100
1000
,
0010
0100
0020
0000
,
0130
0000
0000
0000
1000
0000
0000
0000
0100
0000
0000
1000
0000
0000
0100
0000
,
0000
0000
0010
0100
,
0010
0100
0010
1000
,
0001
0010
0100
0010
,
0001
0000
0000
0000
0010
0000
0000
0000
0001
0000
0000
1000
0000
0000
0010
0000
,
1000
0000
0010
1000
,
0001
0010
0001
1000
,
0001
1000
0020
0000
,
1030
0000
0000
0000
0100
0000
0000
0000
0010
0000
0000
0100
0000
0000
0001
0000
,
0000
0000
0000
0000
0100
0001
1000
0000
,
0010
0100
1000
0000
0100
0000
0010
0000
,
0100
0000
0010
0000
0100
0001
1000
0000
,
0001
1000
0010
0000
0001
0000
0010
0000
,
0001
0000
0000
0000
0010
1000
0100
0000
,
0010
0001
0100
0000
0001
0000
1000
0000
,
0001
0000
1000
0000
0001
0010
0100
0000
,
0010
1000
0100
0000
0010
0000
0100
0000
,
1001
0000
0000
0100
0001
0000
1000
0010
,
0001
0000
0100
1000
0010
0000
0100
0000
,
0010
0000
0100
0000
0001
0000
1000
0010
,
0100
0000
1000
0010
0100
0000
1000
0000
,
0001
0000
0100
0000
0001
0010
0100
0000
,
0001
0100
1000
0000
0100
0010
1000
0000
,
0010
1000
0100
0010
,
0100
0000
0010
1000
0001
0000
0010
0000
,
0100
1000
0100
1000
,
0100
0010
0001
1000
,
0100
1000
0100
1000
,
0001
0000
0000
0000
0010
0000
0000
0000
0001
0000
0000
0010
0000
0000
0001
0000
,
1000
0000
0100
0010
,
0100
0010
0100
1000
,
0010
1000
0010
0000
,
0100
0000
0000
0000
0010
0000
0000
0000
0100
0000
0000
0010
0000
0000
0100
0000
,
0000
0000
1000
0000
0010
0001
1000
0000
,
0010
0001
1000
0000
0100
1000
0010
0000
,
0100
0001
0010
0000
0100
0010
1000
0000
,
0001
0100
1000
0000
0010
0100
1000
0000
,
0010
0000
0001
0000
0100
0000
0000
0000
0010
0000
0000
0100
0000
0000
0000
0000
,
0001
0000
0000
0010
0000
0000
0000
0000
0001
0000
0000
0100
0000
0000
0000
0000
,
0001
0000
0000
0000
0100
0000
0000
0000
0010
0000
0000
1000
0000
0000
0000
0000
,
0010
0000
0000
1000
0000
0000
0000
0000
0010
0000
0000
0000
0100
0000
0000
0000
,
0001
0000
0001
0000
,
0010
0000
1000
0000
,
0010
0000
0001
0000
,
1000
0000
0001
0010
,
0100
0000
0001
0000
,
0010
0000
0100
0000
,
0010
0000
1000
0000
,
0001
0000
1001
0000
,
0001
0000
0000
0010
0000
0000
0100
0000
0010
0000
0000
0000
0010
0000
1000
0000
,
0100
0000
1000
0001
0100
0000
1000
0000
,
0010
0000
1000
0000
0001
0000
0010
1000
,
0001
0000
0010
1000
0001
0000
0100
0000
,
0010
0000
1000
0000
0001
0000
0100
0010
,
0001
0000
1000
0100
0001
0000
0100
0000
,
0010
0100
0010
0100
,
0001
0000
0010
1000
0001
0000
0100
0000
,
0001
0000
0100
0000
0010
0100
1000
0000
,
0010
0001
1000
0000
0010
1000
0100
0000
,
0001
0000
1000
0000
0001
0000
1000
0010
,
0001
0000
0100
1000
0010
0000
0100
0000
,
0010
0000
0100
0000
0001
0000
1000
0100
,
0010
0000
0100
0001
0010
0000
1000
0000
,
0010
0100
1000
0000
0100
0000
0010
0000
,
0001
0000
1000
0010
0001
0000
1000
0000
,
0001
0010
0100
0010
,
0001
0010
0001
1000
,
0001
0000
0000
0000
1000
0000
0000
0000
0100
0000
0000
1000
0000
0000
0000
0000
,
0100
0000
0000
0010
0000
0000
0000
0000
0100
0000
0000
0010
0000
0000
0000
0000
,
0001
0010
0000
0000
;

//--------------- dance-single - B. M'Rey ----------------
#NOTES:
     dance-single:
     B. M'Rey:
     Hard:
     8:
     0,0,0,0,0:
0000
0000
0000
0000
,
0000
0000
0000
0000
,
0000
0000
0000
0000
,
0000
0000
0000
0000
,
0000
0000
0000
0000
,
0000
0000
0000
0000
0010
1000
0010
1000
,
0100
1000
0100
0010
0100
0000
0001
0010
,
0001
0000
0001
1000
0010
0000
0001
0000
,
0001
0000
0010
0000
0001
0000
0000
0000
0110
0000
0000
1100
0000
0000
1010
0000
,
0000
1000
0010
0000
0010
0100
0010
0100
,
0001
0100
0001
1000
0001
1000
0100
1000
,
0100
0000
0100
0010
0001
0000
0100
1000
,
0100
0000
0000
0000
0100
0000
0010
0000
0001
0000
0000
0001
0000
0000
0010
0000
,
0200
0000
0000
0310
0001
1000
0001
0100
,
0010
0100
0010
0100
0001
1000
0001
1000
,
0001
0000
0100
0010
0200
0000
0001
0000
,
0301
0000
1000
0000
0001
0000
0010
0000
1100
0000
0000
1100
0000
0000
0110
0000
,
0000
0010
0001
0000
0001
0010
0100
1000
,
0100
1000
0100
0010
0001
1000
0001
1000
,
0001
0010
0100
1000
0010
1000
0010
1000
,
0100
0000
0010
0000
0001
0000
0100
0000
0001
0000
0000
0100
0000
0000
0100
0000
,
0010
0000
1000
0000
0100
1000
0001
0100
,
0001
1000
0001
0100
0010
0100
0010
0100
,
0001
1000
0001
0100
0001
0100
0010
0100
,
0010
0000
1000
0000
0010
0000
1000
0000
0100
0000
0000
0100
0000
0000
0010
0000
,
0001
0000
0000
0000
0001
0000
0010
1000
0100
0000
0000
0000
0100
0000
1000
0010
,
0100
0000
0000
0000
0001
0000
1000
0100
0010
0000
0000
0000
0010
0000
1000
0000
,
0001
0000
0010
0000
0001
0000
0000
0010
0001
0000
0000
0000
0100
0000
1000
0010
,
0001
0000
0000
0000
0001
0000
0010
0100
0020
0000
0000
0000
1000
0000
0000
0000
,
0100
0000
0000
0000
1030
0000
0010
0001
0100
0000
0000
0000
0001
0000
1000
0010
,
0100
0000
0000
0000
0100
0000
1000
0100
1000
0000
0000
0000
0001
0000
0000
0000
,
0001
0000
0100
0000
0001
0000
0000
0010
0002
0000
0000
0000
1000
0000
0000
0000
,
0010
0000
0000
0000
1003
0000
0001
1000
0020
0000
0000
0000
1000
0000
0000
0000
,
0100
0000
1030
0000
0010
1000
0010
1000
,
0100
1000
0100
0010
0100
0010
0001
0010
,
0001
0000
0010
0100
0010
0000
0001
1000
,
0010
0000
0000
0000
0010
0000
0100
0000
0010
0000
0000
0100
0000
0000
1000
0000
,
0200
0000
0000
0310
0001
0100
0010
0100
,
0010
1000
0001
1000
0100
1000
0100
0010
,
0100
0000
0001
0010
0002
0000
1000
0000
,
0013
0000
0000
0000
0010
0000
0100
0000
1010
0000
0000
1100
0000
0000
1100
0000
,
0000
0100
0010
0100
0001
1000
0010
1000
,
0010
1000
0001
0010
0001
1000
0001
1000
,
0100
1000
0100
0010
0100
0010
0001
0010
,
0001
1000
0001
1000
0010
1000
0010
0100
,
0010
0000
0100
0000
0001
0000
0100
0000
1001
0000
0000
1001
0000
0000
1000
0000
,
1100
0000
0000
1100
0000
0000
0010
0000
0110
0000
0000
0011
0000
0000
0010
0000
,
0100
0000
0001
0000
0010
0000
1000
0000
0110
0000
0000
0110
0000
0000
1000
0000
,
1010
0000
0000
0000
0000
0000
0000
0000
0000
1100
0000
0000
0000
0000
0000
0000
0000
0000
1000
0000
0000
0000
0000
0000
0001
0000
0000
0000
1000
0000
0000
0000
0001
0000
0000
0000
0100
0000
0000
0000
0000
0000
0001
0000
0000
0000
0000
0000
,
0010
1001
0001
1000
,
0001
1000
0001
0010
,
0100
0010
0100
1000
,
0010
1000
0010
1000
,
0100
0010
1100
1000
,
0001
0010
0001
0100
,
0001
0100
0010
0100
,
0010
0000
0000
0000
1000
0000
0000
0000
1001
0000
0000
0010
0000
0000
0100
0000
,
0001
0000
0000
0010
0000
0000
1000
0100
1000
0000
0001
0000
0100
0000
0010
1000
,
0001
0000
0010
0000
0001
0000
0010
0001
0100
0000
1000
0000
0100
0000
1000
0100
,
0010
0000
1000
0000
0010
0000
0000
0001
0010
0000
0100
0000
0001
0000
0100
0010
,
0001
0000
1000
0000
0001
0000
1000
0100
0020
0000
0000
0000
0100
0000
0000
0000
,
0100
0000
0000
0000
0130
0000
0010
0001
0010
0000
0010
0000
0001
0000
0010
1000
,
0100
0000
0010
0000
0100
0000
1000
0001
0100
0000
1000
0000
0010
0000
1000
0100
,
0010
0000
0100
0000
0010
0000
0000
0100
0002
0000
0000
0000
0010
0000
0000
0000
,
0010
0000
0000
0000
0013
0000
0100
0010
0001
0000
0010
0000
0001
0000
1000
0000
,
0001
0100
0010
0100
0010
0100
0001
1000
,
0001
1000
0001
0100
0010
0100
0010
0100
,
0001
0010
0001
0100
0001
1000
0100
1000
,
0100
1000
0001
0010
0001
0010
0001
1000
,
0010
1000
0010
1000
0100
0010
0100
0010
,
0100
1000
0001
1000
0001
1000
0010
0100
,
0010
0100
0010
1000
0100
0010
0001
0010
,
0001
1000
0001
1000
0100
1000
0100
0010
,
0100
0000
0010
0000
0001
0000
0010
0000
0001
0000
0000
1000
0000
0000
1000
0000
,
0010
0000
0000
1000
0000
0000
0100
0000
0010
0000
0000
0100
0000
0000
0010
0000
,
0001
0000
0000
0010
0000
0000
0010
0000
1100
0000
0000
1100
0000
0000
1000
0000
,
1001
0000
0000
1001
0000
0000
0100
0000
0101
0000
0000
0101
0000
0000
0100
0000
,
0010
1000
0000
0000
2020
0000
0000
0000
3030
0000
0000
0000
0000
0000
0000
0000
;
