#VERSION:0.83;
#TITLE:BAMBOO DREAM;
#ARTIST:M4STER;
#GENRE:JONGARA SPIRITUAL;
#CREDIT:B. M'Rey;
#MUSIC:BAMBOO DREAM.ogg;
#BANNER:BAMBOO DREAM.png;
#BACKGROUND:BAMBOO DREAM-bg.png;
#CDTITLE:./CDTITLES/DDR LEGACY.PNG;
#SAMPLESTART:10.702;
#SAMPLELENGTH:15;
#OFFSET:-0.035;
#BPMS:0=180;

//--------------- dance-single - B. M'Rey ----------------
#NOTEDATA:;
#STEPSTYPE:dance-single;
#DESCRIPTION:B. M'Rey;
#DIFFICULTY:Beginner;
#METER:4;
#RADARVALUES:0,0,0,0,0;
#NOTES:
0000
0000
0000
0000
,
0000
0000
0000
0000
,
0000
0000
0000
0000
,
0000
0000
0000
0000
,
1000
0000
0000
0000
,
0001
0000
0000
0000
,
0100
0000
0100
0000
,
0010
0000
0000
0000
,
1000
0000
0001
0000
,
0010
0000
0001
0000
,
0100
0000
0010
0000
,
1000
0000
0000
0000
,
0010
0000
0100
0000
,
0001
0000
0010
0000
,
1000
0000
0010
0000
,
0100
0000
0000
0000
,
0001
0000
0010
0000
,
0001
0000
1000
0000
,
0010
0000
0100
0000
,
0001
0000
0000
0000
,
1001
0000
0100
0000
,
0010
0000
1000
0000
,
0010
0000
0100
0000
,
0001
0000
0000
0000
,
1000
0000
0010
0000
,
0100
0000
0010
0000
,
0001
0000
1000
0000
,
0010
0000
0000
0000
,
0100
0000
0010
0000
,
1000
0000
0100
0000
,
1000
0000
0001
0000
,
0010
0000
0000
0000
,
0100
0100
0100
0000
,
0001
0001
0001
0000
,
1000
1000
1000
0000
,
0010
0000
0010
0000
,
0100
0000
0010
0000
,
0001
0001
0000
0000
,
1000
0000
0010
0000
,
0100
0000
0001
0000
,
1000
0100
0010
0000
,
0001
0000
0010
0000
,
0100
0010
1000
0000
,
0001
0000
0010
0000
,
0100
0000
0000
0000
,
1000
0000
0000
0000
,
0001
0000
0000
0000
,
0010
0000
0000
0000
,
0100
0000
0000
0000
,
0010
0000
0000
0000
,
1000
0000
0000
0000
,
0001
0000
0000
0000
,
1000
0000
0000
0000
;

//--------------- dance-single - B. M'Rey ----------------
#NOTEDATA:;
#STEPSTYPE:dance-single;
#DESCRIPTION:B. M'Rey;
#DIFFICULTY:Easy;
#METER:6;
#RADARVALUES:0,0,0,0,0;
#NOTES:
0000
0000
0000
0000
,
0000
0000
0000
0000
,
0000
0000
0000
0000
,
0000
0000
0000
0000
,
0001
0010
0100
0010
,
1000
0010
0100
0001
,
0010
0000
1000
0000
,
0020
0000
0000
0000
,
0130
0010
0100
0001
,
0010
0100
1000
0001
,
0010
0001
0100
0010
,
1000
0000
1000
0000
,
0010
0001
0100
0010
,
0100
0010
1000
0100
,
1000
0010
0100
0001
,
0010
0000
1000
0000
,
1000
0001
0010
0100
,
0010
0100
1000
0001
,
0010
0001
1000
0100
,
0010
0001
1000
0100
,
0011
0001
0010
0100
,
1000
0001
0010
0100
,
1000
0001
0100
0001
,
0010
0000
0001
0000
,
1000
0100
1000
0010
,
0100
0001
0010
0001
,
1000
0001
0010
0100
,
0010
0001
0100
0010
,
1000
0010
0100
0001
,
1000
0010
1000
0100
,
1000
0001
0100
0010
,
0100
0001
0010
0100
,
1000
0000
0010
0000
,
0100
0001
0010
0000
,
1000
0100
1000
0000
,
0010
0100
0001
0000
,
0010
1000
0010
0000
,
0100
0010
0000
0001
,
0100
0000
0010
1000
,
0100
0000
0001
0100
,
0010
0100
1000
0000
,
0001
0010
0100
0000
,
1000
0010
0100
0000
,
0001
0010
1000
0000
,
0010
0000
0100
0000
,
0001
0000
1000
0000
,
0010
0000
0100
0000
,
0001
0000
0010
0000
,
0001
0000
0100
0000
,
0010
0000
1000
0000
,
0010
0000
0100
0000
,
0001
0000
0010
0000
,
2000
0000
0000
0000
,
0000
0000
0000
0000
,
3001
0000
0000
0000
;

//--------------- dance-single - B. M'Rey ----------------
#NOTEDATA:;
#STEPSTYPE:dance-single;
#DESCRIPTION:B. M'Rey;
#DIFFICULTY:Medium;
#METER:9;
#RADARVALUES:0,0,0,0,0;
#NOTES:
0000
0000
0000
0000
,
0000
0000
0000
0000
,
0000
0000
0000
0000
,
0000
0000
0000
0000
,
0001
0010
0100
0010
,
1000
0010
0100
0010
,
0001
1000
0010
0100
,
0020
0000
0000
0000
,
1030
0001
0000
0010
0000
0000
0100
0000
,
0000
0010
0000
0000
1000
0000
0010
0000
,
0100
0000
0001
0010
0000
1000
0010
0000
,
0100
0000
0000
0010
0000
0001
0000
0010
,
1000
0010
0000
0100
0000
0000
0010
0000
,
0000
0001
0000
0000
1000
0000
0010
0000
,
0100
0000
0001
0010
0000
0000
1000
0000
,
0010
0000
0001
0100
0000
1000
0010
0000
,
1000
0010
0000
0001
0000
0000
0100
0000
,
0000
0010
0000
0000
1000
0000
0001
0000
,
0100
0000
0001
0100
0000
0010
1000
0000
,
0100
0000
0001
0000
0010
1000
0100
0010
,
0001
1000
0000
0010
0000
0001
0100
0000
,
0010
1000
0000
0001
0100
0000
0010
0000
,
1000
0000
0010
0001
0000
0100
0010
0000
,
1000
0010
0000
0100
0000
0001
0000
0010
,
1000
0010
0000
0100
0000
0010
0100
0000
,
0001
0010
0000
1000
0010
0000
0100
0000
,
0010
0000
0001
0010
0000
1000
0010
0000
,
0100
0010
0000
0100
0001
0010
1000
0010
,
0100
0001
0000
0010
0000
1000
0010
0000
,
0100
0001
0000
0010
1000
0000
0010
0000
,
0100
0000
0001
0010
0000
1000
0010
0000
,
0100
0010
0000
1000
0001
0100
0010
0100
,
0001
1000
0010
0100
,
0010
0100
1000
0000
0001
0000
0100
0010
,
0100
0000
0001
0000
0010
0000
1000
0010
,
1000
0000
0001
0000
0100
0000
0010
0100
,
0001
0000
0010
0000
1000
0000
0010
0100
,
0001
0000
0010
0000
1000
0000
0010
1000
,
0010
0000
0001
0000
0100
0000
0010
0100
,
0001
0000
0010
0000
1000
0000
0010
1000
,
0010
0000
0100
0010
0001
0000
0100
0000
,
0010
0000
1000
0010
0000
0001
0010
0000
,
0100
0000
0010
1000
0010
0000
0100
0001
,
0100
0000
0010
1000
0000
0010
0100
0000
,
1000
0100
1000
0001
,
0100
0001
0100
0010
,
1000
0010
1000
0100
,
0010
0100
1000
0010
,
1000
0010
1000
0100
,
0010
0100
0010
0100
,
1000
0010
0100
0001
,
0100
0010
0100
0010
,
0002
0000
0000
2003
0000
0000
3020
0000
,
0000
0000
0000
0000
,
0030
0000
0000
0000
;

//--------------- dance-single - B. M'Rey ----------------
#NOTEDATA:;
#STEPSTYPE:dance-single;
#DESCRIPTION:B. M'Rey;
#DIFFICULTY:Hard;
#METER:13;
#RADARVALUES:0,0,0,0,0;
#NOTES:
0000
0000
0000
0000
,
0000
0000
0000
0000
,
0000
0000
0000
0000
,
0000
0000
0000
0000
,
0010
0100
0010
0100
,
0001
0100
0001
1000
,
1000
0001
1000
0001
1000
0001
1000
0001
,
0010
0100
0010
0100
0001
0100
0010
0000
,
0001
1000
0000
0010
0000
0100
0010
0000
,
1000
0001
0000
0010
1000
0000
0010
0000
,
0100
0000
0010
1000
0000
0001
0100
0000
,
0010
0100
0000
0001
0000
1000
0000
0010
,
0100
0010
0000
0001
0000
0010
1000
0000
,
0010
0100
0000
0001
0010
0000
1000
0000
,
0010
0000
0100
0001
0000
0010
1000
0000
,
0010
0100
0000
0001
1000
0001
1000
0100
,
1000
0010
0000
0100
0000
0010
0100
0000
,
0001
1000
0000
0010
0100
0000
0001
0000
,
1000
0000
0010
0100
0000
0010
0100
0000
,
0001
0010
1000
0000
0010
0100
0001
1000
,
0110
0100
0000
0010
0000
0001
1000
0000
,
0010
0100
0000
0001
0010
0000
1000
0000
,
0010
0000
0100
0010
0000
0001
0010
0000
,
1000
0010
0000
0100
0000
0001
0000
0010
,
1000
0010
0000
0100
0000
0010
1000
0000
,
0001
0100
0000
0010
1000
0000
0010
0000
,
0100
0000
0001
0010
0000
1000
0100
0000
,
0010
0100
0000
0001
1000
0010
0100
0001
,
1000
0010
0000
0100
0000
0001
0010
0000
,
1000
0100
0000
0010
0100
0000
0001
0000
,
1000
0000
0010
0100
0000
0001
1000
0000
,
0001
0000
0100
0010
0100
0010
0001
1000
,
0001
1000
0001
0000
0010
0100
0000
0100
,
0001
1000
0001
0100
0001
0100
0010
0100
,
0010
1000
0010
0000
0001
0010
0000
0010
,
0001
0100
0010
1000
0001
1000
0001
1000
,
0100
0000
0100
0010
0100
1000
0001
1000
,
0001
0000
1000
0000
0100
0000
0010
0000
0100
0000
0010
0000
0001
0010
0001
0010
,
0001
1000
0100
1000
0100
1000
0001
0100
,
0001
0100
0001
0010
0100
0010
0100
0010
,
0001
0000
1000
0000
0001
1000
0001
1000
0001
0000
0100
0000
0010
0000
0100
0000
,
0010
0100
0001
1000
0001
1000
0001
0010
,
0100
1000
0010
0100
0001
0010
0001
0010
,
0001
1000
0100
1000
0100
1000
0010
0100
,
0010
0001
0000
0000
1000
0001
0000
0000
0100
0010
0000
0000
0100
0001
0000
0000
,
1000
0100
1000
0100
1000
0001
0100
0010
,
1000
0100
0000
0000
0010
0100
0000
0000
0010
0100
0000
0000
1000
0001
0000
0000
,
0100
0001
0100
0010
1000
0010
0100
0001
,
1000
0010
0000
0000
0100
0001
0000
0000
0010
0001
0000
0000
1000
0010
0000
0000
,
0100
0001
0100
0001
1000
0100
0010
0001
,
1000
0010
0000
0000
0100
0001
0000
0000
0010
0100
0000
0000
0010
0100
0000
0000
,
1000
0100
0010
0001
0010
0100
1000
0001
,
0220
0000
0000
0000
0000
0330
0022
0000
0000
0000
0000
0000
0000
0033
0220
0000
,
0000
0000
0000
0000
,
0330
0000
0000
0000
;
