#VERSION:0.83;
#TITLE:BAD BOY BASS!! (dj Remo-con MIX);
#ARTIST:Y&Co.;
#GENRE:NRG;
#CREDIT:B. M'Rey;
#MUSIC:BAD BOY BASS!! (dj Remo-con MIX).ogg;
#BANNER:BAD BOY BASS!! (dj Remo-con MIX)-bn.png;
#BACKGROUND:BAD BOY BASS!! (dj Remo-con MIX)-bg.png;
#CDTITLE:./CDTITLES/beatmania IIDX 9th style.png;
#SAMPLESTART:79.939;
#SAMPLELENGTH:15;
#OFFSET:-0.074;
#BPMS:0=148;

//--------------- dance-single - B. M'Rey ----------------
#NOTEDATA:;
#STEPSTYPE:dance-single;
#DESCRIPTION:B. M'Rey;
#DIFFICULTY:Beginner;
#METER:5;
#RADARVALUES:0,0,0,0,0;
#NOTES:
0000
0000
0000
0000
,
0000
0000
0000
0000
,
0000
0000
0000
0000
,
0000
0000
0000
0000
,
0000
0000
0000
0000
,
0000
0100
0010
0100
,
1000
0000
0000
0000
,
0000
0010
1000
0100
,
0010
0000
0000
0000
,
0000
0001
0000
0100
,
0010
0001
0000
0010
,
0100
0001
0000
0100
,
1000
0100
0000
0100
,
0010
0001
0000
0100
,
0010
0100
0000
0001
,
0100
0010
0000
0001
,
0010
0100
0000
0001
,
0010
0002
0000
0000
,
0000
0000
0000
0000
,
0000
0000
0000
0000
,
0000
0000
0000
0013
,
1000
0010
0000
0100
,
0000
0100
0000
0001
,
0000
0100
0000
0010
,
0000
0001
0000
0100
,
0010
0001
0000
0010
,
0000
0001
0000
0010
,
1000
0001
0000
0010
,
0000
0001
0000
0100
,
1000
0010
0000
0001
,
0000
0001
0000
0010
,
1000
0010
0000
0001
,
0000
0001
0000
0001
,
1000
0100
0000
0001
,
0000
0010
0000
1000
,
0000
0001
0000
0100
,
0000
0010
0000
0001
,
0000
0100
0000
0001
,
0000
1000
0000
0001
,
0000
0100
0000
0010
,
0000
1000
0000
0001
,
0000
0010
0100
0001
,
1000
0010
0100
0001
,
1000
0010
0100
0001
,
1000
0010
0100
0001
,
1000
0200
0000
0302
,
0000
0203
0000
0320
,
0000
0032
0000
0000
,
0000
0103
0000
0000
,
0000
0001
0000
1000
,
0000
0100
0000
0010
,
0000
0001
0000
1000
,
0000
0010
0000
0100
,
0000
1000
0000
0001
,
0000
0010
0000
0001
,
0000
0100
0000
0010
,
0000
1000
0000
0001
,
0000
0010
0100
0001
,
0000
0100
0010
0100
,
0000
0010
0100
0001
,
0000
0100
1000
0001
,
0000
0010
0100
0001
,
0000
0001
0100
0001
,
0000
0010
0000
0100
,
0000
1000
0000
0001
,
0100
0001
0000
0100
,
1000
0010
0000
0010
,
0100
0010
0000
0001
,
0010
0001
0000
0010
,
1000
0001
0000
0100
,
0000
0010
0000
0001
,
0000
1000
0000
0010
,
0000
0001
0000
0000
;

//--------------- dance-single - B. M'Rey ----------------
#NOTEDATA:;
#STEPSTYPE:dance-single;
#DESCRIPTION:B. M'Rey;
#DIFFICULTY:Easy;
#METER:7;
#RADARVALUES:0,0,0,0,0;
#NOTES:
0000
0000
0000
0000
,
0000
0000
0000
0000
,
0000
0000
0000
0000
,
0000
0000
0000
0000
,
0000
0000
0000
0000
,
0000
0100
1000
0010
,
0100
0001
0000
0010
,
0000
0001
0010
0001
,
0100
0010
0000
0001
,
0000
0010
0100
0001
,
0010
0001
0100
0010
,
1000
0001
0010
0100
,
1000
0010
0100
0001
,
1000
0001
0100
0010
,
1000
0010
0100
0001
,
0100
0010
0100
0001
,
1000
0010
0100
0001
,
1000
0200
0000
0000
,
0000
0000
0000
0000
,
0000
0320
0000
0000
0000
0000
0000
0000
,
0000
0000
0000
0130
,
1000
0010
1000
0001
,
0010
0100
1000
0010
,
0100
0001
0100
0001
,
0100
0000
0010
0000
1000
0000
0001
1000
,
0010
0100
1000
0100
,
0010
0000
0100
0000
0000
0000
0001
0010
,
0001
0001
0100
0001
,
0010
0000
0100
0000
0000
0000
0001
1000
,
0010
0001
0100
0001
,
0100
0000
0010
0000
0000
0000
0001
0100
,
0010
0100
0010
0001
,
0100
0000
0010
0000
1000
0000
0001
0100
,
0010
0100
1000
0010
,
1000
0100
0010
0001
,
0100
0001
0010
0001
,
0100
0010
0100
0001
,
0100
0010
1000
0100
,
0010
0100
1000
0010
,
0100
0001
0010
0100
,
1000
0100
1000
0010
,
1000
0000
0001
0001
0001
0000
0010
0010
,
0010
0000
0100
0100
0100
0000
0001
0001
,
0001
0000
1000
1000
1000
0000
0001
0001
,
0001
0000
0010
0010
0010
0000
0001
0001
,
0001
0100
1000
0001
,
0100
0010
1000
0100
,
1000
0020
0000
0000
,
0000
0031
1000
0001
,
1000
0010
0100
0001
,
1000
0001
1000
0100
,
0010
0001
0010
0100
,
1000
0100
0010
0100
,
1000
0001
1000
0010
,
1000
0100
0010
0001
,
0100
0001
0010
0100
,
1000
0010
1000
0001
,
0100
0000
0010
0000
0100
0000
0001
1000
,
0100
0000
0001
0000
1000
0000
0010
0100
,
1000
0000
0100
0000
0010
0000
0001
0010
,
1000
0000
0010
0000
0100
0000
0001
0100
,
1000
0000
0100
0000
1000
0000
0010
0001
,
0100
0000
0001
0000
1000
0000
0100
0001
,
0010
0001
0100
0010
,
1000
0000
0100
0000
0010
0000
0001
0010
,
0100
0000
0010
0000
1000
0000
0100
0001
,
1000
0000
0010
0000
0100
0000
0010
1000
,
0100
0000
0010
0000
1000
0000
0100
0001
,
0010
0000
0001
0000
0010
0000
0100
0001
,
1000
0010
0100
0010
,
0100
0001
0010
0100
,
1000
0010
1000
0001
,
0100
0000
0010
0000
1000
0000
0001
0010
,
0100
0000
0000
0000
;

//--------------- dance-single - B. M'Rey ----------------
#NOTEDATA:;
#STEPSTYPE:dance-single;
#DESCRIPTION:B. M'Rey;
#DIFFICULTY:Medium;
#METER:9;
#RADARVALUES:0,0,0,0,0;
#NOTES:
0000
0000
0000
0000
,
0000
0000
0000
0000
,
0000
0000
0000
0000
,
0000
0000
0000
0000
,
0000
0000
0000
0000
,
0000
0000
0100
0000
0100
0000
0100
1000
,
0010
1000
0100
0010
,
0100
0000
0100
0000
0001
0000
0001
0010
,
0010
0100
0010
1000
,
0100
0000
0100
0000
0001
0000
0001
1000
,
0010
0000
0010
0000
0100
0000
0001
0010
,
0100
0000
0001
0000
0100
0000
0001
0100
,
0010
0000
0100
0000
0100
0000
0010
0100
,
0010
0000
0001
0000
0001
0000
0010
0100
,
0010
0000
0001
0000
0010
0000
0001
1000
,
0010
0000
0010
0000
0001
0000
0010
1000
,
0100
0000
0001
0000
0010
0000
0001
0010
,
0100
0002
0000
0000
,
0000
0000
0000
0000
,
0000
2003
0000
0000
0000
0000
0000
0000
,
0000
0000
0000
0000
0000
0000
3010
1000
,
0001
0001
1000
0010
,
1000
0010
1000
0001
,
0100
0001
0100
0010
,
0100
0000
0010
0000
1000
0000
0001
1000
,
0010
0000
0100
1000
0010
0000
0001
0000
,
0100
0000
0020
0000
0000
0000
1030
0100
,
0001
0000
0100
0010
0100
0000
0001
0000
,
0100
0000
0200
0000
0000
0000
0301
0010
,
0100
0000
0001
1000
0001
0000
0010
0000
,
0001
0000
0002
0000
0000
0000
0013
1000
,
0010
0000
0001
1000
0100
0000
0100
0000
,
0010
0100
0010
0001
,
0001
0000
0001
0100
0010
0000
0100
0000
,
0100
0000
0010
0100
0001
0000
0001
0000
,
0001
0000
0010
1000
0100
0000
0100
0000
,
0001
0000
0001
0100
0001
0000
0100
0000
,
0100
0000
0001
0100
0010
0000
0100
0000
,
0100
0000
0100
1000
0001
0000
0001
0000
,
0010
0000
0001
0100
0010
0000
0100
0000
,
0100
0000
0010
1000
0010
0000
0100
0000
,
0001
0000
0010
1000
0100
0000
0010
0100
,
0001
0000
0001
0010
0100
0000
0010
1000
,
0100
0000
0001
0100
0010
0000
0001
0100
,
0010
0000
0010
1000
0100
0000
0010
0100
,
0010
1010
1001
0110
,
0011
0101
1010
0110
,
0110
0000
0001
0100
0010
0100
0001
0100
,
0010
1000
0100
0000
0000
0000
0000
0000
,
0000
0000
0100
0000
1000
0000
0100
0010
,
1000
0000
0100
0001
0010
0000
0001
0000
,
0010
0000
0001
0000
0010
0000
0100
0001
,
1000
0000
0100
0010
1000
0000
0100
0000
,
0010
0000
0001
0000
0010
0000
0001
1000
,
0010
0000
0100
0001
1000
0000
0100
0000
,
1000
0000
0100
0000
0010
0000
0001
1000
,
0010
0000
0001
1000
0010
0000
0100
0000
,
1000
0000
0100
0000
0010
0000
0001
0010
,
0001
0000
0001
0000
0010
0000
0001
0100
,
0001
0000
0001
0000
0100
0000
0100
1000
,
0001
0000
0010
0000
0100
0000
0001
1000
,
0010
0000
0010
0000
0100
0000
0001
0100
,
0001
0000
0001
0000
0010
0000
0100
1000
,
0100
0001
1000
0001
,
1000
0000
0001
0000
0100
0000
0001
0100
,
0010
0000
0100
0000
0100
0000
0001
0010
,
0001
0000
0010
0000
0010
0000
0001
0010
,
0100
0000
0001
0000
0100
0000
0001
1000
,
0100
0000
0100
0000
0001
0000
0001
0010
,
0001
0000
0100
1000
0001
0000
0001
0100
,
0001
0000
0100
1000
0010
0000
0001
0010
,
0100
0101
0110
1001
,
0110
0000
0001
0000
0010
0000
0100
1000
,
0001
0000
0000
0000
;

//--------------- dance-single - B. M'Rey ----------------
#NOTEDATA:;
#STEPSTYPE:dance-single;
#DESCRIPTION:B. M'Rey;
#DIFFICULTY:Hard;
#METER:15;
#RADARVALUES:0,0,0,0,0;
#NOTES:
0000
0000
0000
0000
,
0000
0000
0000
0000
,
0000
0000
0000
0000
,
0000
0000
0000
0000
,
0000
0000
0000
0000
,
0000
0000
0001
0010
0001
0100
0010
1000
,
0100
0000
0010
0100
0001
0000
0100
1000
,
0100
0000
0001
0100
0010
1000
0001
0100
,
0001
0000
0001
0100
0010
0000
0010
0100
,
0001
0000
0100
1000
0100
0010
0001
0100
,
0010
0000
0010
1000
0010
1000
0100
0010
,
0100
0000
0010
0100
0001
0100
0010
1000
,
0100
0000
0010
1000
0100
0010
0001
0100
,
0001
0000
0010
1000
0010
0100
0001
0010
,
0001
0000
0001
0100
0010
0100
0010
1000
,
0100
0000
0001
0100
0010
0100
0001
1000
,
0001
0000
0001
0010
0100
0010
0001
0100
,
0010
2002
0000
0000
,
0000
0000
0000
0000
,
0000
0203
0000
0000
0000
0000
0000
0000
,
0000
0000
0000
0000
0000
0300
0100
0100
,
3100
0010
0001
0100
0001
0000
0001
1000
,
0010
0000
0010
1000
0100
0000
0100
1000
,
0010
1010
1000
0000
0100
0010
0100
0000
,
0001
0010
0100
0000
0100
1000
0010
1000
,
0001
0000
0110
0000
0010
0000
0100
0000
0001
0000
0000
0001
0000
0000
0100
0000
,
0001
0000
0100
0010
0100
0000
0001
1000
,
0001
0000
0010
0000
0100
0000
1000
0000
0010
0000
0000
0100
0000
0000
0010
0000
,
0001
0000
0010
0100
0001
0000
0100
1000
,
0001
0000
0100
0000
0010
0000
0100
0000
0001
0000
0000
0010
0000
0000
1000
0000
,
0010
0000
0001
0100
0010
0000
0100
0010
,
0100
0000
1000
0000
0010
0000
0100
0000
0001
0000
0000
1000
0000
0000
0100
0000
,
0001
0000
0010
1000
0100
0010
0001
0100
,
0010
0000
0000
0000
0001
0000
1000
0000
0100
0000
0000
0001
0000
0000
1000
0000
,
0001
0000
0100
0000
0001
0000
0100
0000
0010
0000
0000
0100
0000
0000
1000
0000
,
0100
0000
0010
0000
0001
0000
1000
0000
0001
0000
0000
0010
0000
0000
0100
0000
,
0010
0000
1000
0000
0100
0000
1000
0000
0010
0000
0000
0100
0000
0000
0100
0000
,
0001
0000
0010
0000
0001
0000
0100
0000
0010
0000
0000
1000
0000
0000
1000
0000
,
0010
0000
0100
0000
0001
0000
0010
0000
0001
0000
0000
0010
0000
0000
1000
0000
,
0010
0000
0100
0000
0001
0000
0010
0000
0100
0000
0000
1000
0000
0000
0010
0000
,
0001
0000
0100
0000
0010
0000
1000
0000
0100
0000
0000
1000
0000
0000
0100
0000
,
0001
0010
0001
0100
0010
0100
0010
1000
,
0100
0010
0100
1000
0010
1000
0100
0010
,
0001
0100
0010
0100
0001
1000
0100
1000
,
0010
0100
0010
1000
0010
0100
0001
1000
,
0100
1000
0101
1000
0011
0010
0011
0010
,
0110
1000
0110
0100
1010
1000
1010
1000
,
0110
0000
0010
0001
0010
0001
0010
0001
1000
0010
1000
0010
1000
0100
0010
0001
,
0010
0001
0010
0100
1000
0000
1000
0000
0001
0000
0010
0000
0100
0000
1000
0000
,
0010
0000
0000
0000
0001
0000
0100
0000
0001
0000
1000
0100
0001
0000
0010
0000
,
0100
0000
0010
0001
0100
0000
0010
0000
0001
0000
1000
0010
0100
0000
1000
0000
,
0001
0000
1000
0000
0001
0000
0010
0000
0001
0000
0010
1000
0100
0000
0010
0000
,
0100
0000
1000
0001
0010
0000
1000
0000
0100
0000
1000
0010
0100
0000
0010
0000
,
0100
0000
0010
0000
0001
0000
0010
0000
0001
0000
1000
0010
0001
0000
1000
0000
,
0010
0000
1000
0100
0010
0000
0100
0000
0010
0000
0100
0000
0001
0000
0010
0000
,
0001
0000
0010
0000
0001
0000
1000
0000
0010
0000
1000
0100
0010
0000
1000
0000
,
0100
0000
0010
1000
0001
0000
0010
0000
0001
0000
0010
0001
0100
0000
1000
0000
,
0100
0010
0001
0010
0001
0010
0100
1000
,
0100
1000
0100
0010
0001
0010
0001
0010
,
0100
1000
0100
1000
0100
0010
0001
0010
,
0001
0010
0100
1000
0010
1000
0001
1000
,
0100
0010
0100
1000
0100
1000
0010
1000
,
0010
0100
0010
0100
0001
0010
0100
0010
,
0100
0010
0001
0100
0001
1000
0001
1000
,
0100
1000
0100
0010
0100
0010
0001
0010
,
0001
0100
0001
0100
0010
0100
0010
1000
,
0010
1000
0001
1000
0001
0100
0001
0100
,
0010
1000
0010
1000
0010
0100
0001
0100
,
0001
0100
0010
1000
0010
1000
0001
1000
,
0010
0100
0001
0100
0001
0100
0010
1000
,
0010
1000
0010
0100
0001
0100
0001
0100
,
0010
1000
1010
1000
0110
0100
0011
0010
,
0110
0010
0100
0010
0001
1000
0001
1000
,
0001
0010
0110
0000
0000
0000
0000
0000
;
