#VERSION:0.83;
#TITLE:BABY, I'M IN LOVE (BORIS & BECK CLUB MIX);
#ARTIST:THALIA;
#GENRE:SYNTH-POP;
#CREDIT:B. M'Rey;
#MUSIC:BABY, I'M IN LOVE (BORIS & BECK CLUB MIX).ogg;
#BANNER:BABY, I'M IN LOVE (BORIS & BECK CLUB MIX).png;
#BACKGROUND:BABY, I'M IN LOVE (BORIS & BECK CLUB MIX)-bg.png;
#CDTITLE:./CDTITLES/DANCEMANIA EX0.png;
#SAMPLESTART:59.600;
#SAMPLELENGTH:15.000;
#OFFSET:-0.134;
#BPMS:0.000=134.015;

//--------------- dance-single - B. M'Rey ----------------
#NOTEDATA:;
#STEPSTYPE:dance-single;
#DESCRIPTION:B. M'Rey;
#DIFFICULTY:Beginner;
#METER:1;
#RADARVALUES:0,0,0,0,0;
#NOTES:
0000
0000
0000
0000
,
0000
0000
0000
0000
,
0000
0000
0000
0000
,
0000
0000
0000
0000
,
0000
0000
0000
1001
,
0000
0000
0000
0000
,
0000
0000
0000
0000
,
0000
0000
0000
0000
,
0000
0000
0000
0100
,
0000
0000
0000
0000
,
0001
0000
0000
0000
,
1000
0000
0000
0000
,
0000
0010
0000
0000
,
0000
0000
0000
0100
,
0000
0000
0000
1000
,
0000
0000
0000
0010
,
0000
0000
0000
0001
,
0000
0000
0000
0000
,
1000
0000
0000
0000
,
0100
0000
0000
0000
,
0000
0010
0000
0000
,
0000
0000
0000
0110
,
0000
0000
0000
0000
,
0000
0000
0000
1001
,
0000
0000
0000
1000
,
0000
0000
0000
0001
,
0001
0000
0000
0100
,
0000
0000
0000
0010
,
0010
0000
0000
0100
,
0000
0000
0000
1000
,
1000
0000
0000
0000
,
0000
0000
1001
0000
,
0000
0000
0000
0000
,
0000
0010
0000
0100
,
0000
1000
0000
0100
,
0000
0000
0000
0010
,
0000
0001
0000
0100
,
0000
0000
0000
0010
,
0000
0001
0000
1000
,
0000
0000
0100
0010
,
0000
0000
0001
1000
,
0000
0010
0000
0001
,
0000
1000
0000
0100
,
0000
0010
0000
0001
,
0000
0100
0000
1001
,
0000
0100
0000
0020
,
0000
0000
0000
0000
,
0030
0010
0000
0100
,
0000
0000
0000
1000
,
0000
0000
0000
0001
,
0000
0000
0000
0100
,
0000
0100
0000
0010
,
0000
0010
0000
1001
,
0000
0000
0000
0001
,
0000
0000
0000
0010
,
0000
0010
0000
0110
;

//--------------- dance-single - B. M'Rey ----------------
#NOTEDATA:;
#STEPSTYPE:dance-single;
#DESCRIPTION:B. M'Rey;
#DIFFICULTY:Easy;
#METER:3;
#RADARVALUES:0,0,0,0,0;
#NOTES:
0000
0000
0000
0000
,
0000
0000
0000
0000
,
0000
0000
0000
0000
,
0000
0000
0000
0000
,
0000
0000
0000
2002
,
0000
0000
0000
0000
,
0000
0000
0000
3003
,
0000
0000
0000
0000
,
0000
0000
0000
0100
,
0000
0000
0000
0000
,
0010
0000
0000
0000
,
0001
0000
0000
0000
,
0000
1000
0000
0010
,
0000
0010
0000
0110
,
0000
0000
0000
0100
,
0000
0100
0000
1001
,
0000
0000
0000
0001
,
0000
0001
0000
1000
,
0000
1000
0000
0100
,
0000
0010
0000
0001
,
0000
0010
0000
0100
,
0000
1000
0000
1001
,
0000
0100
0000
1000
,
0000
0001
0000
0010
,
0000
0000
0000
1000
,
0000
0001
0000
0100
,
0100
0000
0000
0001
,
0000
1000
0000
0010
,
0010
0000
0000
0001
,
0000
1000
0000
0100
,
0100
0000
0000
0001
,
0000
1000
1001
0000
,
0000
0000
0000
0100
,
0000
0010
0000
0010
,
0000
0001
0001
0001
,
0000
0000
0000
1000
,
0000
0100
0100
0100
,
0000
0010
0000
0100
,
0000
1000
1000
1000
,
0000
0000
0100
0100
,
0000
0010
0000
0001
,
0000
1000
1000
1000
,
0000
0001
0001
0001
,
0000
0100
0100
0100
,
0000
0010
0010
0010
,
0000
0001
0000
2000
,
0000
0000
0000
0000
,
3000
0010
0010
0010
,
0000
0000
0000
0001
,
0000
1000
0000
0001
,
0000
1000
0000
0100
,
0100
0100
0000
0010
,
0010
0010
0000
0100
,
0000
0100
0000
0001
,
0000
0001
0000
1000
,
1000
1000
0000
1001
;

//--------------- dance-single - B. M'Rey ----------------
#NOTEDATA:;
#STEPSTYPE:dance-single;
#DESCRIPTION:B. M'Rey;
#DIFFICULTY:Medium;
#METER:5;
#RADARVALUES:0,0,0,0,0;
#NOTES:
0000
0000
0000
0000
,
0000
0000
0000
0000
,
0000
0000
0000
0000
,
0000
0000
0000
0000
,
0000
0000
0000
1001
,
0000
0100
0000
0010
,
0000
0000
0000
0001
,
0000
1000
0000
0010
,
0000
0100
0000
1000
,
0000
0100
0000
1000
,
0000
0010
0000
1000
,
0000
0001
0000
0100
,
0000
0001
0000
0100
,
0000
0010
0000
0110
,
0000
0001
0001
0001
,
0000
1000
0000
0200
,
0000
0300
0000
0001
,
1000
0001
1000
0010
,
0100
0010
0100
0001
,
0100
0001
0100
0001
,
1000
0001
1000
0010
,
1000
0010
1000
1001
,
0000
0010
0010
0100
,
0010
1000
0100
1001
,
0000
0000
0001
0010
,
0100
0010
1000
1001
,
1001
0000
0010
0100
,
0010
1000
0100
1001
,
1001
0000
0010
0100
,
0010
0001
0010
1001
,
1001
0000
0010
0100
,
0001
0010
1001
0000
,
0000
0000
0000
0100
,
0100
0010
0001
1000
,
0010
0100
0010
1000
,
0000
0001
0000
0100
,
1000
0010
0001
0010
,
0000
0100
0010
1000
,
0100
1000
0010
0100
,
0000
0001
0010
0001
,
0100
0010
1000
0100
,
0000
1000
0010
0100
,
0010
1000
0001
0010
,
0000
0001
0010
0100
,
0010
1000
1001
1001
,
0000
0010
0100
0020
,
0000
0000
0000
0031
,
0000
0010
0001
0010
,
0000
0100
0000
1000
,
0001
1000
0001
1000
,
0001
0000
1000
0000
0001
0000
1000
1000
,
1000
0000
0010
0010
0010
0000
0100
0100
,
0100
0000
0010
0010
0010
0000
0001
0000
,
1000
0001
1000
0001
,
1000
0000
0001
0000
1000
0000
0010
0010
,
0010
0000
0100
0100
0100
0000
0110
0000
;

//--------------- dance-single - B. M'Rey ----------------
#NOTEDATA:;
#STEPSTYPE:dance-single;
#DESCRIPTION:B. M'Rey;
#DIFFICULTY:Hard;
#METER:8;
#RADARVALUES:0,0,0,0,0;
#NOTES:
0000
0000
0000
0000
,
0000
0000
0000
0000
,
0000
0000
0000
0000
,
0000
0000
0000
0000
,
0000
0000
0000
1000
,
0001
1000
0000
0010
,
0000
0100
0000
0210
,
0010
0010
0310
0120
,
0100
0000
0100
0000
0130
0000
0001
0100
,
0010
1000
0001
0000
0100
0001
0000
0100
,
0000
0001
0010
0000
0100
0010
0000
0100
,
0000
0001
1000
0000
0001
0100
0000
0010
,
0100
0000
0000
0001
0000
0000
0000
0100
0000
0000
0000
0000
0000
0000
0000
0000
0000
0000
0100
0000
0000
0000
0000
0000
,
0001
0100
0001
0100
,
0000
0000
0010
1000
0001
0100
0010
0000
,
0001
0100
0010
0000
0001
0000
0020
0000
,
0000
0000
0030
0000
0100
0010
1000
0001
,
0100
0010
1000
0000
0010
0001
0000
0100
,
0000
0010
0001
0000
0010
0001
0000
0010
,
0100
0010
0100
0000
0010
0100
0000
1000
,
0000
0100
1000
0000
0000
0000
1000
0000
,
0001
1000
0001
0200
,
0300
0000
0010
0001
0100
1000
0010
0000
,
0001
0010
0000
1000
0001
0000
0002
0000
,
0000
0003
0000
0000
0100
0000
0010
0000
,
1000
0100
0010
1001
,
1001
0000
0010
0100
,
0010
0001
0010
0101
,
0101
0000
0010
1000
,
0100
0001
1000
1010
,
1010
0000
0001
0100
,
0000
0010
1000
0100
,
0010
0000
0001
0000
0100
0000
1000
0001
,
1000
0000
0010
0100
0010
0100
0010
0000
,
0001
0010
0001
0000
1000
0100
1000
0000
,
0020
0000
2030
0000
3020
0000
0031
0100
,
0000
0001
1000
0000
0001
1000
0010
0000
,
0100
0000
0010
0100
0000
0000
0001
0000
,
0010
0001
0010
0000
0001
1000
0200
0000
,
2300
0000
3010
0001
1000
0001
1000
0000
,
0010
0100
0010
0000
0001
0010
0001
0000
,
0100
0000
0001
0010
0001
1000
0100
0000
,
0010
2000
0000
3000
0010
2000
0000
3000
,
0010
0000
0001
0010
1000
0001
1000
0000
,
0010
0100
0000
0000
0110
0000
0110
0000
,
0000
0000
0001
0010
0001
0000
2002
0000
,
0000
0000
0000
3003
,
0000
0000
0010
0100
0010
0100
0010
0000
,
0001
1000
0001
0000
1000
0000
0001
0010
,
0001
0000
0100
0010
0100
0000
1000
0100
,
1000
0000
0100
1000
0100
0000
1001
0000
,
0110
0101
0101
1010
,
0110
0000
0110
0000
0110
0000
0001
0010
,
0001
0000
1000
0100
1000
0000
0010
1000
,
0010
0000
0100
0001
0100
0000
1001
0000
,
1001
0110
0110
1001
;

//--------------- dance-single - B. M'Rey ----------------
#NOTEDATA:;
#STEPSTYPE:dance-single;
#DESCRIPTION:B. M'Rey;
#DIFFICULTY:Challenge;
#METER:13;
#RADARVALUES:0,0,0,0,0;
#NOTES:
0000
0000
0000
0000
,
0000
0000
0000
0000
,
0000
0000
0000
0000
,
0000
0000
0000
0000
,
0000
0000
0000
1000
,
0001
1000
0001
0010
,
0100
1000
0100
2000
,
3200
0320
0032
2003
,
3200
0000
0320
0000
0032
0000
0013
0100
,
0000
1000
0100
0000
0010
0001
0000
0100
,
0000
0010
1000
0000
0001
0010
0000
0100
,
0000
1000
0001
0000
0100
0010
0000
0001
,
0000
1000
0001
0000
0000
0010
0100
0000
,
0010
0100
0000
0010
0100
0000
0001
0000
,
0000
0000
1000
0100
1000
0100
0010
0000
,
0001
0010
0000
1000
0100
0000
0020
0000
,
0000
0000
0000
0000
0000
0000
0000
0000
0000
0000
0000
0000
0000
0000
0000
0000
0000
0000
0000
0000
0000
0000
0000
0000
0000
0000
0000
0000
0000
0000
0000
0000
0000
0000
0000
0000
0000
0000
0000
0000
0000
0000
0000
0000
0000
0000
0000
0000
0000
0030
0000
0000
0000
0000
0000
0000
0000
0000
0000
0000
0000
0000
0000
0000
0000
0000
0000
0000
0000
0000
0000
0000
0001
0000
0000
0000
0000
0000
0000
0000
0000
0000
0000
0000
0000
0000
0000
0000
0000
0000
0000
0000
0000
0000
0000
0000
0000
0000
0000
0000
0000
0000
0000
0000
0000
0000
0000
0000
0000
0000
0000
0000
0000
0000
0000
0000
0000
0000
0000
0000
0100
0000
0000
0000
0000
0000
0000
0000
0000
0000
0000
0000
0000
0000
0000
0000
0000
0000
0000
0000
0000
0000
0000
0000
0001
0000
0000
0000
0000
0000
0000
0000
0000
0000
0000
0000
0000
0000
0000
0000
0000
0000
0000
0000
0000
0000
0000
0000
0010
0000
0000
0000
0000
0000
0000
0000
0000
0000
0000
0000
0000
0000
0000
0000
0000
0000
0000
0000
0000
0000
0000
0000
,
0100
0010
0001
0000
0010
0100
1000
0100
,
0010
0001
0010
0000
0100
0010
1000
0100
,
0010
1000
0001
0000
0010
0100
0010
0001
,
0000
1000
0010
0000
0000
0000
0100
0001
,
0010
0000
1000
0100
1000
0010
0001
0000
,
0000
0000
0010
0100
0010
0001
1000
0000
,
0010
0100
0000
0100
0010
0000
1001
0000
,
0010
0000
0100
0000
1000
0001
1000
0000
,
0010
0000
0100
0010
1000
0000
0001
0100
,
1000
0000
0010
0000
0100
0010
0100
0000
,
0001
1000
0100
0000
0010
0001
1000
0000
,
0010
0000
0100
0000
0001
1000
0100
0000
,
0010
0001
0100
0000
0010
0000
1000
0010
,
0100
0000
0001
0000
0010
0100
0010
0000
,
0001
1000
0020
0230
,
0302
0000
2003
0000
3020
0000
0031
1000
,
0001
1000
0001
0010
0100
1000
0100
1000
,
0100
0010
0001
0010
0001
1000
0100
0010
,
0001
1000
0010
0100
0010
0001
0010
0100
,
1000
0010
0100
0010
0001
0010
0100
0000
,
1000
0100
1000
0010
0001
1000
0010
1000
,
0100
1000
0100
0001
0100
1000
0200
0000
,
0302
0000
0013
0100
1000
0001
0010
0000
,
0100
1000
0100
0001
0100
1000
0001
0000
,
0010
0000
0100
0010
1000
0100
0001
0000
,
0010
0100
1000
0000
0100
0001
0010
0000
,
0100
0000
1000
0001
1000
0010
0001
0010
,
0100
1000
0000
0000
1001
0000
1001
0000
,
0010
0000
1000
0100
1000
0100
0020
0000
,
0001
0001
0001
0001
,
0031
0000
0001
0100
0001
0100
1000
0010
,
1000
0000
0010
0000
1000
0000
0000
0000
0001
0000
0100
0000
0010
0001
0010
0001
,
0010
0000
0100
0000
1000
0100
1000
0100
1000
0000
0010
0000
0001
1000
0001
1000
,
0001
0000
0100
0000
0001
0010
0001
0010
0001
0000
1000
0000
0100
1000
0100
0000
,
0100
0010
0100
0000
0001
0010
0001
0000
0001
0010
0001
0000
0010
0100
0010
0000
,
0100
1000
0100
0000
0100
1000
0100
0000
0010
0100
0010
0000
0001
0010
0001
0010
,
0001
0000
1000
0000
0010
0100
0010
0100
0010
0000
0001
0000
0001
0100
0001
0100
,
0001
0000
0010
0000
0010
1000
0010
1000
0010
0000
0100
0000
0001
0010
0001
0000
,
0010
0100
0010
0000
0100
1000
0100
0000
0010
0100
0010
0000
1001
0000
0000
0000
;
