#VERSION:0.83;
#TITLE:BABY BOY;
#ARTIST:ME & MY;
#GENRE:EURODANCE;
#CREDIT:B. M'Rey;
#MUSIC:BABY BOY.ogg;
#BANNER:BABY BOY-bn.png;
#BACKGROUND:BABY BOY-bg.png;
#CDTITLE:./CDTITLES/DANCEMANIA EXTRA.PNG;
#SAMPLESTART:46.020;
#SAMPLELENGTH:15;
#OFFSET:-0.160;
#BPMS:0=136.010;

//--------------- dance-single - B. M'Rey ----------------
#NOTEDATA:;
#STEPSTYPE:dance-single;
#DESCRIPTION:B. M'Rey;
#DIFFICULTY:Beginner;
#METER:1;
#RADARVALUES:0.096,0.141,0.042,0.042,0;
#NOTES:
0000
0000
0000
0000
,
0000
0000
0000
0000
,
0000
0000
0000
0000
,
0000
0000
0000
0000
,
1000
0000
0000
0000
,
0001
0000
0000
0000
,
0010
0000
0000
0000
,
0100
0000
0000
0000
,
0110
0000
0000
0000
,
0000
0000
0000
1001
,
0100
0000
0001
0000
,
1000
0000
0000
0000
,
0010
0010
0000
0000
,
0100
0100
0000
0000
,
0001
0000
1000
0000
,
0010
0000
0000
0000
,
1000
1000
0000
0000
,
0001
0001
0000
0000
,
0100
0000
0001
0000
,
1000
0000
0000
0000
,
0010
0000
0100
0000
,
0001
0000
0000
0000
,
0010
0000
1000
0000
,
0100
0000
0000
0000
,
0001
0000
0010
0000
,
1000
0000
0000
0000
,
1000
0000
0000
0000
,
0001
0000
0000
0000
,
0010
0000
0000
0000
,
0100
0000
0000
0000
,
0001
0000
0000
0000
,
1000
0000
0000
0000
,
0010
0000
0000
0000
,
0100
0000
0000
0000
,
0002
0000
0000
0000
,
0003
0000
0000
0000
,
2000
0000
0000
0000
,
3000
0000
0000
1001
,
0001
0000
0000
0000
,
0100
0000
0000
0000
,
0010
0000
0000
0000
,
1000
0000
0000
0000
,
0010
0000
0000
0000
,
0100
0000
0000
0000
,
0001
0000
0000
0000
,
0010
0000
0000
0000
,
0001
0000
0000
0000
,
0000
0000
0000
0000
,
0010
0000
0000
0000
,
0000
0000
0000
0000
,
0200
0000
0000
0000
,
0300
0000
0000
0000
,
0020
0000
0000
0000
,
0030
0000
0000
1001
;

//--------------- dance-single - B. M'Rey ----------------
#NOTEDATA:;
#STEPSTYPE:dance-single;
#DESCRIPTION:B. M'Rey;
#DIFFICULTY:Easy;
#METER:5;
#RADARVALUES:0.222,0.254,0.042,0.042,0;
#NOTES:
0000
0000
0000
0000
,
0000
0000
0000
0000
,
0000
0000
0000
0000
,
0000
0000
0000
0000
,
1000
0001
1000
0001
,
1000
0010
0010
0010
,
0001
1000
0001
1000
,
0001
0100
0100
0100
,
0010
0000
0000
0000
,
0000
0000
0000
1001
,
0100
0000
0001
0000
,
0010
0000
1000
0100
,
0100
0100
0000
0001
,
0010
0010
0010
0000
,
0100
0000
1000
0000
,
0001
0000
0010
0100
,
1000
1000
1000
0010
,
0001
0001
0001
0000
,
0100
0000
0010
0000
,
1000
0000
0001
0000
,
0100
0000
0010
0000
,
1000
0000
0100
0000
,
0001
0000
0010
0000
,
0100
0000
0001
0000
,
1000
0000
0010
0000
,
1001
0000
0000
0000
,
1000
0001
1000
0001
,
1000
0010
0010
0010
,
0001
1000
0001
1000
,
0001
0100
0100
0100
,
0100
0010
0100
0010
,
0100
1000
1000
1000
,
0010
0100
0010
0100
,
0010
0001
0001
0001
,
2000
0000
3002
0000
,
0013
0000
0000
0000
,
0200
0000
0320
0000
,
1030
0000
0000
1001
,
1000
0001
1000
0001
,
1000
0010
0010
0010
,
0001
1000
0001
1000
,
0001
0100
0100
0100
,
0010
0100
0010
0100
,
0010
0001
0001
0001
,
0100
0010
0100
0010
,
0100
1000
1000
1000
,
0001
0000
0000
0000
,
0000
0000
0010
0100
,
0010
0000
0000
0000
,
0000
0000
0000
0000
,
0001
0010
0100
1000
,
0000
0000
0000
0000
,
1000
0100
0010
0001
,
0000
0000
0000
1001
;

//--------------- dance-single - B. M'Rey ----------------
#NOTEDATA:;
#STEPSTYPE:dance-single;
#DESCRIPTION:B. M'Rey;
#DIFFICULTY:Medium;
#METER:9;
#RADARVALUES:0.416,0.48,0.336,0.137,0.021;
#NOTES:
0000
0000
0000
0000
,
0000
0000
0000
0000
,
0000
0000
0000
0000
,
0000
0000
0000
0000
,
1000
0000
0010
0000
0100
0001
0100
0001
,
0100
0000
0010
0000
1000
0010
0100
0001
,
1000
0000
0010
0000
0001
0100
0001
0100
,
0001
0010
1000
0100
,
0002
0000
0000
0000
,
0000
0000
0000
1003
,
0010
1000
0100
0000
0001
0010
0100
0000
,
0010
0000
1000
0000
0001
0010
0100
0000
,
1000
0000
0000
0001
0000
0000
1000
0000
0000
0000
0100
0000
0010
0000
0100
0000
,
0001
0000
0000
0100
0000
0000
0001
0000
0000
0000
0000
0000
0010
0000
0000
0000
,
1000
0001
0100
0000
0010
0100
0001
0000
,
0010
1000
0100
0000
0001
0010
0100
0000
,
1000
0000
0000
0010
0000
0000
1000
0000
0000
0000
0100
0000
0001
0000
0010
0000
,
0100
0000
0000
0010
0000
0000
0100
0000
0001
0000
0000
0000
1000
0000
0000
0000
,
0101
1010
0101
1010
,
0101
0000
0000
0010
0100
0010
0100
0000
,
1010
0101
1010
0101
,
1000
0100
0010
0001
0010
0100
1000
0000
,
0101
1010
0101
1010
,
0101
0000
0010
1000
0010
1000
0010
0000
,
1010
0101
1010
0101
,
1000
0100
0010
0001
0010
0100
1000
0000
,
0001
0000
1000
0000
0010
0100
0010
0100
,
0010
0001
1001
0101
,
0110
0000
1000
0000
0001
1000
0001
1000
,
0010
0100
0010
0001
0000
1000
0010
0001
,
0100
0000
0001
0000
0010
0100
0010
0100
,
0010
1000
1001
0101
,
0110
0000
0001
0000
1000
0001
1000
0001
,
1000
0010
0100
0010
0000
1000
0010
0001
,
0200
0302
2003
3020
,
0130
1000
0000
0010
,
0002
2003
3020
0230
,
0300
0010
0000
1001
,
0001
0000
1000
0000
0010
0100
0010
0100
,
0010
0001
1001
0101
,
0110
0000
1000
0000
0001
1000
0001
1000
,
0010
0100
0010
0001
0000
1000
0010
0001
,
0100
0000
0001
0000
0010
0100
0010
0100
,
0010
1000
1001
0101
,
0110
0000
0001
0000
1000
0001
1000
0001
,
1000
0010
0100
0010
0000
1000
0010
0001
,
0200
0000
0000
0000
,
0302
0000
0000
0000
,
2003
0000
0000
0000
,
3020
0000
0000
0000
,
1030
0001
0010
0100
,
0001
0100
0000
0001
,
0010
1000
0100
0001
,
0010
0100
0000
1001
;

//--------------- dance-single - B. M'Rey ----------------
#NOTEDATA:;
#STEPSTYPE:dance-single;
#DESCRIPTION:B. M'Rey;
#DIFFICULTY:Hard;
#METER:11;
#RADARVALUES:0.498,0.508,0,0.21,0.147;
#NOTES:
0000
0000
0000
0000
,
0000
0000
0000
0000
,
0000
0000
0000
0000
,
0000
0000
0000
0000
,
1000
0000
0001
0000
0010
0000
0100
0000
0010
0000
1000
0100
0000
0010
0001
0000
,
0100
0010
1000
0001
0020
0000
2030
0000
,
3001
0000
0010
0000
0100
0000
0001
0000
1000
0000
0100
0010
0000
0001
1000
0000
,
0010
0100
0001
1000
0000
0010
0001
0100
,
0020
1000
1000
1000
,
0000
0000
0000
0130
,
0001
1000
0010
0100
0001
0010
1000
0100
,
0001
1000
0010
0100
0001
0010
1000
0100
,
0001
0000
1000
0010
0000
0100
0001
0000
0010
0000
1000
0000
0001
0000
0010
0000
,
0001
0000
0010
1000
0000
0100
0001
0000
0010
0000
0000
0000
0100
0000
0000
0000
,
1000
0001
0010
0001
0100
0010
1000
0100
,
0001
0010
0100
1000
0001
0010
0001
0100
,
0010
0000
1000
0000
0100
0000
0001
0010
,
0001
0100
1000
0001
,
0010
1000
0100
0001
0010
0100
0010
0001
,
1000
0000
0001
0100
0010
0000
0100
1000
,
0001
0010
0100
0001
1000
0010
0100
0010
,
0001
1000
0010
0100
,
0001
0010
1000
0100
0001
0010
0100
1000
,
0010
0000
0100
0001
1000
0000
0010
0100
,
0001
1000
0010
0100
0001
0010
0100
1000
,
0010
0000
0000
0000
,
1000
0000
0001
0000
0010
0000
0100
0000
0010
0000
1000
0100
0000
0010
0001
0000
,
0100
0010
1000
0001
0020
0000
2030
0000
,
3001
0000
0010
0000
0100
0000
0001
0000
1000
0000
0100
0010
0000
0001
1000
0000
,
0010
0100
0001
1000
0000
0010
0001
0100
,
0001
0000
1000
0000
0100
0000
0010
0000
0100
0000
0001
0010
0000
0100
1000
0000
,
0010
0100
0001
1000
0200
0000
0302
0000
,
1003
0000
0100
0000
0010
0000
1000
0000
0001
0000
0010
0100
0000
1000
0001
0000
,
0100
0010
1000
0001
0000
0100
1000
0010
,
0200
0001
0001
0001
,
0300
0000
0000
0000
0001
1000
0010
0100
,
0020
1000
1000
1030
,
0000
0000
0100
0000
1000
0100
0001
0000
,
1000
0000
0001
0000
0010
0000
0100
0000
0010
0000
1000
0100
0000
0010
0001
0000
,
0100
0010
1000
0001
0020
0000
2030
0000
,
3001
0000
0010
0000
0100
0000
0001
0000
1000
0000
0100
0010
0000
0001
1000
0000
,
0010
0100
0001
1000
0000
0010
0001
0100
,
0001
0000
1000
0000
0100
0000
0010
0000
0100
0000
0001
0010
0000
0100
1000
0000
,
0010
0100
0001
1000
0200
0000
0302
0000
,
1003
0000
0100
0000
0010
0000
1000
0000
0001
0000
0010
0100
0000
1000
0001
0000
,
0100
0010
1000
0001
0000
0100
1000
0010
,
0200
0000
0000
0000
,
0000
0000
0300
0001
0010
0001
0010
0001
,
0020
0000
0000
0000
,
0000
0000
0000
0000
,
1030
0000
0001
0000
0010
0000
0100
0000
0010
0000
1000
0100
0000
0010
0001
0000
,
0200
2300
3020
0032
,
1003
0000
0001
0000
0010
0000
0100
0000
0010
0000
1000
0100
0000
0010
0001
0000
,
0200
0000
0000
0300
;
