#VERSION:0.83;
#TITLE:All Night (Original Mix);
#ARTIST:平田智樹 featuring Angel;
#ARTISTTRANSLIT:平田智樹 featuring Angel Tomoki Hirata featuring Angel;
#GENRE:HOUSE;
#CREDIT:B. M'Rey;
#MUSIC:All Night (Original Mix).ogg;
#BANNER:All Night (Original Mix)-bn.png;
#BACKGROUND:All Night (Original Mix)-bg.png;
#CDTITLE:./CDTITLES/Dance ManiaX.PNG;
#SAMPLESTART:51.070;
#SAMPLELENGTH:15;
#OFFSET:-0.043;
#BPMS:0=132.871;

//--------------- dance-single - B. M'Rey ----------------
#NOTEDATA:;
#STEPSTYPE:dance-single;
#DESCRIPTION:B. M'Rey;
#DIFFICULTY:Beginner;
#METER:3;
#RADARVALUES:0,0,0,0,0;
#NOTES:
0000
0000
0000
0000
,
0000
0000
0000
0000
,
0000
0000
0000
0000
,
0000
0000
0000
0000
,
0000
1000
0000
0010
,
0000
1001
0000
0000
,
0000
0010
0000
0100
,
0000
0001
0010
0000
,
0000
1000
0000
0010
,
0000
0110
0000
0000
,
0000
0001
0000
1000
,
0000
0010
0000
0000
,
0000
1000
0001
1000
,
0001
1000
0000
0010
,
0000
0001
1000
0001
,
1000
0010
0000
0100
,
0000
0001
1000
0001
,
1000
0010
0000
0100
,
0000
0001
1000
0001
,
1000
0000
0010
0000
,
0000
0001
0000
1000
,
0000
0010
0010
0000
,
0000
0100
0000
0001
,
0000
1000
0000
0000
,
0000
0001
0000
0100
,
0000
1000
1000
0000
,
0000
0010
0000
0100
,
0000
0001
0000
1000
,
0000
1001
0000
1001
,
0000
0000
0000
0000
,
0000
0110
0000
0110
,
0000
0000
0000
0000
,
0000
0011
0000
0011
,
0000
0000
0000
0000
,
0000
1010
0000
1010
,
0000
0000
0000
0000
,
0000
1000
0000
0001
,
0000
0100
0000
0010
,
0000
1000
0000
0001
,
0000
0010
0000
0001
,
0000
1001
0000
0010
,
0000
0100
0000
1000
,
0000
0001
0000
0010
,
0000
0100
0000
0001
,
0000
1001
0000
0000
,
0000
1001
0000
0000
,
0000
0110
0000
0000
,
0000
0110
0000
0000
,
0000
0011
0000
1001
,
0000
1010
0000
0110
,
0000
0001
0000
1000
,
0000
0001
0000
1000
,
0000
1001
0000
0000
;

//--------------- dance-single - B. M'Rey ----------------
#NOTEDATA:;
#STEPSTYPE:dance-single;
#DESCRIPTION:B. M'Rey;
#DIFFICULTY:Easy;
#METER:7;
#RADARVALUES:0,0,0,0,0;
#NOTES:
0000
0000
0000
0000
,
0000
0000
0000
0000
,
0000
0000
0000
0000
,
0000
0000
0000
0000
,
0000
0001
0100
0010
,
0000
0001
0000
0100
,
0000
0100
0010
0001
,
0000
0100
1000
0000
,
0000
0100
0010
0001
,
0000
0010
0000
0000
,
0000
0001
0100
0000
,
0100
0010
0000
0001
,
0000
1100
0000
0110
,
0000
0001
0010
0100
,
1000
0110
0000
0110
,
0000
0002
0000
0003
,
0000
1010
0000
1001
,
0000
0001
0010
0001
,
0100
1010
0000
0110
,
0000
0200
0000
0302
,
0000
0013
0000
0001
,
1000
0010
0000
0010
,
0000
0000
0010
0001
,
2000
0000
0000
0000
,
3000
0001
0010
0100
,
0000
0100
1000
0000
,
0100
0000
0100
0001
,
1000
0000
1000
0001
,
0000
0001
0100
0001
,
0100
0000
1000
0000
,
1000
0010
0100
0010
,
0200
0000
0300
0000
,
0000
0010
0100
0010
,
1000
0000
0100
0000
,
1000
0100
0010
0001
,
0020
0000
0030
0000
,
1000
0010
0000
0001
,
0000
0010
0000
0100
,
0000
1000
0000
0100
,
0000
0001
0000
0010
,
0000
0100
0000
0001
,
0000
0010
0000
0100
,
0000
0010
0000
1000
,
0000
0010
0000
0001
,
0000
0011
0011
0001
,
0000
0110
0110
0010
,
0000
0011
0011
0100
,
0000
0101
0101
0001
,
0000
0110
0110
0010
,
0110
1100
0100
0110
,
0011
0001
1010
0110
,
0110
1010
1010
0110
,
0110
0101
0000
0000
;

//--------------- dance-single - B. M'Rey ----------------
#NOTEDATA:;
#STEPSTYPE:dance-single;
#DESCRIPTION:B. M'Rey;
#DIFFICULTY:Medium;
#METER:10;
#RADARVALUES:0,0,0,0,0;
#NOTES:
0000
0000
0000
0000
,
0000
0000
0000
0000
,
0000
0000
0000
0000
,
0000
0000
0000
0000
,
0000
0001
0100
0001
,
0100
0010
0001
0000
1000
0000
0100
0000
,
0010
0001
0100
0010
,
0100
1000
0010
0000
1000
0100
0001
0000
,
0100
0001
1000
0100
,
0010
0001
0100
0000
0010
0000
0001
0000
,
0010
0000
0100
0000
1000
0000
0001
0010
,
1000
0000
0001
1000
0010
0000
0200
0000
,
0000
0311
0110
1100
,
1100
0000
0100
0001
1000
0100
0010
0001
,
1000
0100
0011
0000
0110
0000
0110
0000
,
0011
0001
0100
0001
,
0000
0101
0110
1010
,
1001
0000
0001
0010
1000
0100
0010
0001
,
1000
0100
0101
0000
0101
0000
1001
0000
,
1010
0010
0100
0001
,
0000
0100
1000
0001
,
1000
0010
0100
0001
0020
0000
0000
0000
,
1030
0000
0000
0100
1000
0100
0001
0100
,
0000
0002
0000
0000
0100
0000
0000
0000
,
1000
0000
0013
1000
0100
0000
0001
0000
,
1000
0000
0100
0001
1000
0010
0000
0100
,
0000
0010
0100
0010
,
0100
0000
0001
0000
0010
1000
0001
0010
,
1000
0001
0110
0000
0110
0000
0110
0000
,
0110
0000
0001
0010
0100
0000
0001
1000
,
0010
0001
1100
0000
1100
0000
0110
0000
,
1100
0000
0100
0001
0010
0000
0001
1000
,
0010
1001
1001
0110
,
1001
0000
0001
0010
0100
0000
0010
1000
,
0100
0001
0110
0000
0110
0000
0110
0000
,
0110
0000
0001
1000
0010
0000
0100
0000
,
0010
0000
0100
0010
1000
0000
0001
0000
,
0100
0000
0001
0010
0100
0000
0001
0000
,
1000
0000
0010
1000
0100
0000
0001
0000
,
0100
0000
0010
0001
1000
0000
0100
0000
,
0010
0000
0100
0001
0010
0000
0100
0000
,
1000
0000
0001
0100
1000
0000
0010
0000
,
1000
0000
0100
1000
0010
0000
0100
0000
,
1000
0000
0010
0001
1000
0000
0100
0000
,
1000
0000
0110
0000
0110
0000
0010
0100
,
0100
0010
1001
0000
1001
0000
0001
1000
,
1000
0001
0101
0000
0110
0000
0010
0100
,
0100
0010
0101
0000
0110
0000
0010
1000
,
1000
0010
0110
0000
1010
0000
1100
0000
,
1001
0101
0101
0011
,
0011
0000
0001
1000
0010
0000
0100
1000
,
0010
0000
0001
0010
1000
0000
0010
0100
,
1000
0110
0000
0000
;

//--------------- dance-single - B. M'Rey ----------------
#NOTEDATA:;
#STEPSTYPE:dance-single;
#DESCRIPTION:B. M'Rey;
#DIFFICULTY:Hard;
#METER:14;
#RADARVALUES:0,0,0,0,0;
#NOTES:
0000
0000
0000
0000
,
0000
0000
0000
0000
,
0000
0000
0000
0000
,
0000
0000
0000
0000
,
0000
1001
0110
0011
,
0100
0010
0001
0000
0001
0010
0001
1000
,
0010
1000
1100
0000
0011
0000
0011
0000
,
0001
0100
0010
0100
0010
0100
0001
0000
,
0010
1000
1001
0000
0110
0000
0110
0000
,
0010
1000
0100
0010
0001
0000
0001
0010
,
0100
1000
0100
1000
0100
0000
0001
1000
,
0010
0100
0001
0000
0001
1000
0100
0000
,
0010
1000
0011
0000
1100
0000
0101
0000
,
0101
0000
0000
0000
0010
0000
0001
1000
0001
1000
0100
1000
0010
0100
0001
0010
,
0001
1000
0001
0000
1100
0000
0000
0000
1100
0000
0000
0000
0110
0000
0000
0000
,
1100
0000
0001
1000
0100
1000
0010
0100
,
0001
0100
0101
0000
1010
0000
1100
0000
,
1010
0000
0000
0000
0010
0000
0100
0010
0001
0010
0100
0010
0001
0100
0010
0100
,
0001
0100
0010
0000
0110
0000
0000
0000
0011
0000
0000
0000
0110
0000
0000
0000
,
0101
0000
0001
1000
0001
0010
0100
1000
,
0010
0000
1000
0000
0010
0000
0100
0000
0001
0000
0100
0001
0000
0000
1000
0000
,
0001
1000
0010
0100
0010
2000
0100
0000
,
0100
3000
0100
1000
0001
0100
0010
0100
,
0010
2000
0010
0000
0001
0000
0001
0000
,
0010
0000
3000
0000
0001
0000
0010
0000
0001
0000
0100
1000
0010
0000
0100
0000
,
0010
0000
0100
0010
0001
0020
0100
0000
,
0100
0030
0010
1000
0100
1000
0100
0000
,
0001
1000
0010
0000
0010
0000
0001
0100
,
0010
0100
1001
0000
1100
0000
0110
0000
,
0110
0000
0001
1000
0001
0100
0010
0100
,
0010
1000
0110
0000
0011
0000
0011
0000
,
1001
0000
0100
1000
0010
1000
0100
0010
,
0100
1000
1100
0000
0110
0000
1001
0000
,
1010
0000
0010
0100
0001
0010
0100
0010
,
0001
1000
1100
0000
1010
0000
0011
0000
,
0110
0000
0100
0010
0001
0100
0010
1000
,
0100
0000
0010
0000
0100
0000
1000
0001
0010
0000
1000
0000
0001
0000
1000
0000
,
0001
0100
0010
0000
0001
0000
0100
1000
0010
0000
1000
0000
0100
0000
0010
0000
,
0001
0010
0100
0000
0001
0000
1000
0010
0100
0000
0010
0000
0100
0000
0010
0000
,
0001
1000
0100
0000
0010
0000
0100
0001
0010
0000
0100
0000
0001
0000
0010
0000
,
0100
1000
0010
0000
0100
0000
1000
0001
0010
0000
0100
0000
0010
0000
0100
0000
,
0010
0100
1000
0000
0001
0000
0100
0001
0010
0000
1000
0000
0001
0000
0010
0000
,
0001
1000
0100
0000
0010
0000
0100
0001
0010
0000
1000
0000
0010
0000
0100
0000
,
0001
0010
0100
0000
0001
0000
0100
1000
0010
0000
1000
0000
0001
0000
1000
0000
,
0010
0000
0100
0000
0010
0000
1000
0010
0000
0001
0100
0000
0001
0000
0010
0000
,
0100
0000
0010
0000
0100
0000
0010
0001
0000
0010
0100
0000
0001
0000
0010
0000
,
0100
0000
1000
0000
0100
0000
1000
0010
0000
0001
1000
0000
0001
0000
0010
0000
,
0100
0000
0010
0000
0001
0000
1000
0100
0000
0100
1000
0000
0100
0000
1000
0000
,
0010
0000
0100
0000
0001
0000
0100
0010
0000
0100
1000
0000
0100
0000
1000
0010
,
0000
0010
0100
0000
0010
0000
0100
0001
0000
0001
0010
0000
0001
0000
0010
0001
,
0000
0001
0100
0000
0010
0000
0100
0000
0010
0000
1000
0000
0001
0000
0100
0000
,
0010
0000
0100
0000
0001
1000
0001
1000
0001
0010
0100
0010
0100
0010
0001
1000
,
0001
1000
0001
0100
0010
0000
0000
0000
0000
0000
0000
0000
0000
0000
0000
0000
;
