#VERSION:0.83;
#TITLE:Abyss (Sanxion7 Remix);
#ARTIST:dj TAKA Remixed by Sanxion7;
#GENRE:AMBIENT;
#CREDIT:B. M'Rey;
#MUSIC:Abyss (Sanxion7 Remix).ogg;
#BANNER:Abyss (Sanxion7 Remix)-bn.png;
#BACKGROUND:Abyss (Sanxion7 Remix)-bg.png;
#CDTITLE:./CDTITLES/DDR Legacy.PNG;
#SAMPLESTART:16.130;
#SAMPLELENGTH:15;
#OFFSET:-0.126;
#BPMS:0=90,157=89.001,158=83.502,158.5=78.003,159=58.001,159.5=47.501,160=47.5;
#DISPLAYBPM:95;
#BGCHANGES:0.000=Abyss (Sanxion7 Remix).avi=1.000=1=0=1===CrossFade==,;

//--------------- dance-single - B. M'Rey ----------------
#NOTEDATA:;
#STEPSTYPE:dance-single;
#DESCRIPTION:B. M'Rey;
#DIFFICULTY:Beginner;
#METER:1;
#RADARVALUES:0.051714,0.0905,0.00905,0.00905,0,40,39,1,1,0,0,0.051714,0.0905,0.00905,0.00905,0,40,39,1,1,0,0;
#NOTES:
0000
0000
0000
0000
,
0000
0000
0000
0000
,
0000
0000
0000
0000
,
0000
0000
0000
0000
,
0100
0000
0000
0000
,
0001
0000
0000
0000
,
0010
0000
0000
0000
,
1000
0000
0000
0000
,
0010
0000
0000
0000
,
0001
0000
0000
0000
,
0100
0000
0000
0000
,
0010
0000
0000
0000
,
1000
0000
0000
0000
,
0001
0000
0000
0000
,
0110
0000
0000
0000
,
0001
0000
0000
0000
,
1000
0000
0000
0000
,
0010
0000
0000
0000
,
0100
0000
0000
0000
,
0001
0000
0000
0000
,
0100
0000
0000
0000
,
0010
0000
0000
0000
,
1000
0000
0000
0000
,
0001
0000
0000
0010
,
0000
0000
0000
1000
,
0000
0000
0000
0001
,
0000
0000
0000
0100
,
0000
0000
0000
0001
,
0000
0000
0000
1000
,
0000
0000
0000
0100
,
0000
0000
0001
1000
,
0001
0000
0000
0100
,
0000
0000
0000
0001
,
0000
0000
0000
1000
,
0000
0000
0000
0100
,
0000
0000
0000
0010
,
0000
0000
0000
0100
,
0000
0000
0000
1000
,
0000
0000
0000
0001
,
2000
0000
0000
0000
,
3000
0000
0000
0000
;

//--------------- dance-single - B. M'Rey ----------------
#NOTEDATA:;
#STEPSTYPE:dance-single;
#DESCRIPTION:B. M'Rey;
#DIFFICULTY:Easy;
#METER:2;
#RADARVALUES:0.100843,0.126816,0.0181,0.0181,0.00905,78,76,2,2,0,0,0.100843,0.126816,0.0181,0.0181,0.00905,78,76,2,2,0,0;
#NOTES:
0000
0000
0000
0000
,
0000
0000
0000
0000
,
0000
0000
0000
0000
,
0000
0000
0000
0000
,
0100
0000
0000
0000
,
0001
0000
0000
0000
,
1000
0000
0010
0000
,
0100
0000
0001
0001
,
0010
0000
0100
0000
,
1000
1000
1000
0000
,
0010
0000
0100
0000
,
0001
0001
0001
0000
,
0010
0000
0100
0000
,
0010
0000
0100
0000
,
1001
0000
0010
0000
,
0100
0100
0100
0000
,
0010
0000
1000
0000
,
0010
0010
0100
0000
,
0001
0000
0010
0000
,
0100
0010
0100
0000
,
0001
0000
1000
0000
,
0010
0000
0100
0000
,
0002
0000
0000
0000
,
0000
0003
0000
0000
0000
0000
0000
0000
0000
0000
0000
0000
0000
0000
0000
0000
0000
0000
0000
0000
0000
0000
0000
0000
0000
0000
0000
0000
0000
0000
0000
0000
0000
0000
0000
0000
0000
0000
0000
0000
0000
0000
0000
0000
0000
0000
0000
0000
0010
0000
0000
0000
0000
0000
0000
0000
0000
0000
0000
0000
0000
0000
0000
0000
0000
0000
0000
0000
0000
0000
0000
0000
0000
0000
0000
0000
0000
0000
0000
0000
0000
0000
0000
0000
0000
0000
0000
0000
0000
0000
0000
0000
0000
0000
0000
0000
0000
0000
0000
0000
0000
0000
0000
0000
0000
0000
0000
0000
0000
0000
0000
0000
0000
0000
0000
0000
0000
0000
0000
0000
0000
0000
0000
0000
0000
0000
0000
0000
0000
0000
0000
0000
0000
0000
0000
0000
0000
0000
0000
0000
0000
0000
0000
0000
0100
0000
0000
0000
0000
0000
0000
0000
0000
0000
0000
0000
0000
0000
0000
0000
0000
0000
0000
0000
0000
0000
0000
0000
0000
0000
0000
0000
0000
0000
0000
0000
0000
0000
0000
0000
0000
0000
0000
0000
0000
0000
0000
0000
0000
0000
0000
0000
,
0000
1000
0000
0001
,
0000
0010
0000
0100
,
0000
0010
0000
1000
,
0000
0001
0000
0010
,
0000
0100
0000
0010
,
0000
0001
0000
1000
,
0000
0010
0100
0010
,
1001
0000
0010
0000
,
0100
0000
0001
0000
,
1000
0000
0010
0000
,
0100
0000
0001
0000
,
0010
0000
0100
0000
,
0010
0000
1000
0000
,
0001
0000
0010
0000
,
0100
0000
0001
0000
,
2000
0000
0000
0000
,
0001
0000
0000
0000
0000
0000
0000
3000
0000
0000
0000
0000
0000
0000
0000
0000
0000
0000
0000
0000
0000
0000
0000
0000
0000
0000
0000
0000
0000
0000
0000
0000
0000
0000
0000
0000
0000
0000
0000
0000
0000
0000
0000
0000
0000
0000
0000
0000
0000
0000
0000
0000
0000
0000
0000
0000
0000
0000
0000
0000
0000
0000
0000
0000
0000
0000
0000
0000
0000
0000
0000
0000
0000
0000
0000
0000
0000
0000
0000
0000
0000
0000
0000
0000
0000
0000
0000
0000
0000
0000
0000
0000
0000
0000
0000
0000
0000
0000
0000
0000
0000
0000
0000
0000
0000
0000
0000
0000
0000
0000
0000
0000
0000
0000
0000
0000
0000
0000
0000
0000
0000
0000
0000
0000
0000
0000
0000
0000
0000
0000
0000
0000
0000
0000
0000
0000
0000
0000
0000
0000
0000
0000
0000
0000
0000
0000
0000
0000
0000
0000
0000
0000
0000
0000
0000
0000
0000
0000
0000
0000
0000
0000
0000
0000
0000
0000
0000
0000
0000
0000
0000
0000
0000
0000
0000
0000
0000
0000
0000
0000
0000
0000
0000
0000
0000
0000
0000
0000
0000
0000
0000
0000
;

//--------------- dance-single - B. M'Rey ----------------
#NOTEDATA:;
#STEPSTYPE:dance-single;
#DESCRIPTION:B. M'Rey;
#DIFFICULTY:Medium;
#METER:4;
#RADARVALUES:0.174536,0.181,0.02715,0.181,0.0724,135,132,3,20,0,0,0.174536,0.181,0.02715,0.181,0.0724,135,132,3,20,0,0;
#NOTES:
0000
0000
0000
0000
,
0000
0000
0000
0000
,
0000
0000
0000
0000
,
0000
0000
0000
0000
,
2000
0000
0000
0000
,
3002
0000
0000
0000
,
1003
0010
0100
0001
,
0010
1000
0100
1000
,
0010
0100
0001
0010
,
1000
0100
0010
1000
,
0100
0010
0001
0010
,
1000
0100
1000
0010
,
0100
0001
0010
0001
,
1000
0100
1000
0010
,
1001
0010
0100
0001
,
0010
1000
0100
1000
,
0010
0001
0010
0100
,
0010
1000
0100
1000
,
0010
0100
0001
0010
,
0001
0010
0100
1000
,
0010
0100
0001
0010
,
1000
0100
1000
0010
,
1001
0000
0000
0000
,
0100
0010
1000
0100
,
0010
0001
0010
0100
,
0010
1000
0010
0100
,
0001
0010
0001
0010
,
0100
0010
1000
0100
,
1000
0001
0010
0100
,
0010
0001
1000
0010
,
0100
0000
0000
0010
0000
0000
0002
0000
0000
0000
0000
0003
,
2000
0000
0000
0000
0000
0000
0000
0000
0000
0000
0000
0000
0000
0000
0000
0000
0000
0000
0000
0000
0000
0000
0000
0000
0000
0000
0000
0000
0000
0000
0000
0000
0000
0000
0000
3000
0000
0000
0000
0000
0000
0000
0000
0000
0000
0000
0000
0000
0010
0000
0000
0000
0000
0000
0000
0000
0000
0000
0000
0000
0000
0000
0000
0000
0000
0000
0000
0000
0000
0000
0000
0000
0000
0000
0000
0000
0000
0000
0000
0000
0000
0000
0000
0000
0000
0000
0000
0000
0000
0000
0000
0000
0000
0000
0000
0000
0200
0000
0000
0000
0000
0000
0000
0000
0000
0000
0000
0000
0000
0000
0000
0000
0000
0000
0000
0000
0000
0000
0000
0000
0000
0000
0000
0000
0000
0000
0000
0000
0000
0000
0000
0000
0000
0000
0000
0000
0000
0000
0000
0300
0000
0000
0000
0000
0010
0000
0000
0000
0000
0000
0000
0000
0000
0000
0000
0000
0000
0000
0000
0000
0000
0000
0000
0000
0000
0000
0000
0000
0000
0000
0000
0000
0000
0000
0000
0000
0000
0000
0000
0000
0000
0000
0000
0000
0000
0000
0000
0000
0000
0000
0000
0000
,
0002
0000
0000
0000
0000
0000
0000
0000
0000
0000
0000
0000
0000
0000
0000
0000
0000
0000
0000
0000
0000
0000
0000
0003
0011
0000
0000
0000
0000
0000
0000
0000
0000
0000
0000
0000
0000
0000
0000
0000
0000
0000
0000
0000
0000
0000
0000
0000
2000
0000
0000
0000
0000
0000
0000
0000
0000
0000
0000
0000
0000
0000
0000
0000
0000
0000
0000
0000
0000
0000
3000
0000
0100
0000
0000
0000
0000
0000
0000
0000
0000
0000
0000
0000
0000
0000
0000
0000
0000
0000
0000
0000
0000
0000
0000
0000
,
0020
0000
0000
0000
0000
0000
0000
0000
0000
0000
0000
0000
0000
0000
0000
0000
0000
0000
0000
0000
0000
0000
0000
0030
0100
0000
0000
0000
0000
0000
0000
0000
0000
0000
0000
0000
0000
0000
0000
0000
0000
0000
0000
0000
0000
0000
0000
0000
0002
0000
0000
0000
0000
0000
0000
0000
0000
0000
0000
0000
0000
0000
0000
0000
0000
0000
0000
0000
0000
0000
0000
0003
0010
0000
0000
0000
0000
0000
0000
0000
0000
0000
0000
0000
0000
0000
0000
0000
0000
0000
0000
0000
0000
0000
0000
0000
,
2000
0000
0000
0000
0000
0000
0000
0000
0000
0000
0000
0000
0000
0000
0000
0000
0000
0000
0000
0000
0000
0000
0000
0000
0000
0000
0000
0000
0000
0000
0000
0000
0000
0000
0000
0000
0000
0000
0000
0000
0000
0000
0000
3000
0000
0000
0000
0000
0100
0000
0000
0000
0000
0000
0000
0000
0000
0000
0000
0000
0000
0000
0000
0000
0000
0000
0000
0000
0000
0000
0000
0000
0000
0000
0000
0000
0000
0000
0000
0000
0000
0000
0000
0000
0000
0000
0000
0000
0000
0000
0000
0000
0000
0000
0000
0000
0020
0000
0000
0000
0000
0000
0000
0000
0000
0000
0000
0000
0000
0000
0000
0000
0000
0000
0000
0000
0000
0000
0000
0000
0000
0000
0000
0000
0000
0000
0000
0000
0000
0000
0000
0000
0000
0000
0000
0000
0000
0000
0000
0000
0000
0000
0000
0000
0100
0000
0000
0030
0000
0000
0000
0000
0000
0000
0000
0000
0000
0000
0000
0000
0000
0000
0000
0000
0000
0000
0000
0000
0000
0000
0000
0000
0000
0000
0000
0000
0000
0000
0000
0000
0000
0000
0000
0000
0000
0000
0000
0000
0000
0000
0000
0000
,
0002
0000
0000
0000
0000
0000
0000
0000
0000
0000
0000
0000
0000
0000
0000
0000
0000
0000
0000
0000
0000
0000
0000
0000
1000
0003
0000
0000
0000
0000
0000
0000
0000
0000
0000
0000
0000
0000
0000
0000
0000
0000
0000
0000
0000
0000
0000
0000
2000
0000
0000
0000
0000
0000
0000
0000
0000
0000
0000
0000
0000
0000
0000
0000
0000
0000
0000
0000
0000
0000
0000
0000
0001
0000
3000
0000
0000
0000
0000
0000
0000
0000
0000
0000
0000
0000
0000
0000
0000
0000
0000
0000
0000
0000
0000
0000
,
0200
0000
0000
0000
0000
0000
0000
0000
0000
0000
0000
0000
0000
0000
0000
0000
0000
0000
0000
0000
0000
0000
0000
0300
0010
0000
0000
0000
0000
0000
0000
0000
0000
0000
0000
0000
0000
0000
0000
0000
0000
0000
0000
0000
0000
0000
0000
0000
0020
0000
0000
0000
0000
0000
0000
0000
0000
0000
0000
0000
0000
0000
0000
0000
0000
0000
0000
0000
0000
0000
0000
0000
0130
0000
0000
0000
0000
0000
0000
0000
0000
0000
0000
0000
0000
0000
0000
0000
0000
0000
0000
0000
0000
0000
0000
0000
,
0200
0000
0000
0000
0000
0000
0000
0000
0000
0000
0000
0000
0000
0000
0000
0000
0301
0000
0000
0000
0000
0000
0000
0000
0000
0000
0000
0000
0000
0000
0000
0000
0002
0000
0000
0000
0000
0000
0000
0000
0000
0000
0000
0000
0000
0000
0000
0000
0100
0003
0000
0000
0000
0000
0000
0000
0000
0000
0000
0000
0000
0000
0000
0000
,
0020
0000
0000
0000
0000
0000
0000
0000
0000
0000
0000
0000
0000
0000
0000
0000
0000
0000
0000
0000
0000
0000
0000
0000
0000
0000
0000
0000
0000
0000
0000
0000
0000
0000
0000
0000
0000
0000
0000
0000
0000
0000
0000
0000
0000
0030
0000
0000
1000
0000
0000
0000
0000
0000
0000
0000
0000
0000
0000
0000
0000
0000
0000
0000
0000
0000
0000
0000
0000
0000
0000
0000
0000
0000
0000
0000
0000
0000
0000
0000
0000
0000
0000
0000
0000
0000
0000
0000
0000
0000
0000
0000
0000
0000
0000
0000
2000
0000
0000
0000
0000
0000
0000
0000
0000
0000
0000
0000
0000
0000
0000
0000
0000
0000
0000
0000
0000
0000
0000
0000
0000
0000
0000
0000
0000
0000
0000
0000
0000
0000
0000
0000
0000
0000
0000
0000
0000
0000
0000
0000
0000
0000
0000
0000
0010
0000
0000
0000
0000
3000
0000
0000
0000
0000
0000
0000
0000
0000
0000
0000
0000
0000
0000
0000
0000
0000
0000
0000
0000
0000
0000
0000
0000
0000
0000
0000
0000
0000
0000
0000
0000
0000
0000
0000
0000
0000
0000
0000
0000
0000
0000
0000
,
0200
0000
0000
0000
0000
0000
0000
0000
0000
0000
0000
0000
0000
0000
0000
0000
0000
0000
0000
0000
0000
0000
0000
0000
0000
0000
0000
0000
0000
0000
0000
0000
0000
0000
0000
0000
0000
0000
0000
0000
0000
0000
0000
0000
0000
0000
0000
0000
0000
0000
0000
0000
0000
0000
0000
0000
0000
0000
0000
0000
0000
0000
0000
0000
0000
0000
0000
0000
0000
0000
0000
0000
0000
0000
0000
0000
0000
0000
0000
0000
0000
0000
0000
0000
0000
0000
0000
0000
0000
0000
0000
0000
0000
0000
0000
0000
0000
0000
0000
0000
0000
0000
0000
0000
0000
0000
0000
0000
0000
0000
0000
0000
0000
0000
0000
0000
0000
0000
0000
0000
0000
0000
0000
0000
0000
0000
0000
0000
0000
0000
0000
0000
0000
0000
0000
0000
0000
0000
0000
0000
0000
0000
0000
0000
0000
0000
0000
0000
0000
0000
0000
0000
0000
0000
0000
0000
0000
0000
0000
0000
0000
0000
0000
0000
0000
0000
0000
0000
0000
0000
0000
0000
0000
0000
0000
0000
0000
0000
0000
0000
0000
0000
0000
0000
0000
0000
0000
0000
0000
0000
0000
0300
,
0001
0000
0000
0000
;

//--------------- dance-single - B. M'Rey ----------------
#NOTEDATA:;
#STEPSTYPE:dance-single;
#DESCRIPTION:B. M'Rey;
#DIFFICULTY:Hard;
#METER:8;
#RADARVALUES:0.378808,0.434401,0.0543,0.00905,0.0905,293,287,6,1,0,0,0.378808,0.434401,0.0543,0.00905,0.0905,293,287,6,1,0,0;
#NOTES:
0000
0000
0000
0000
,
0000
0000
0000
0000
,
0000
0000
0000
0000
,
0000
0000
0000
0000
,
0001
0010
0001
0000
0010
0100
0010
0000
,
1000
0100
1000
0000
0010
0100
0010
0000
,
1001
0010
0100
0001
1000
0010
1000
0010
,
1000
0001
0100
0001
1000
0001
0010
0100
,
1000
0100
1000
0100
0010
0001
0100
0010
,
1000
0100
1000
0100
0010
0100
1000
0010
,
0100
0001
0010
0001
0010
0001
0100
0010
,
1000
0010
0100
0001
0100
0010
1000
0100
,
0010
0001
1000
0001
0100
0001
0010
0100
,
1000
0000
0010
0000
1000
0000
0001
0000
1000
0000
0010
0000
0100
0010
0001
0000
,
0011
0001
0010
0100
1000
0001
0100
0001
,
1000
0000
0001
0000
1000
0000
0100
0000
0010
0000
0000
1000
0000
0000
0001
0000
,
1000
0100
0010
0001
1000
0010
0100
0001
,
1000
0100
1000
0100
1000
0001
0010
0100
,
1000
0001
0010
0001
1000
0100
1000
0100
,
1000
0010
0100
0010
0100
0001
0100
0001
,
1000
0100
0010
0100
1000
0001
0100
0001
,
1000
0000
0100
0000
1000
0000
0000
0010
0100
0000
0010
0000
0100
0000
0010
0000
,
1000
0100
0000
0010
0000
0001
0010
0000
0200
0000
0000
0000
0000
0000
0000
0000
,
0301
0100
0001
0010
0001
1000
0010
1000
,
0001
0010
0001
0010
0001
0100
0010
0100
,
0010
0000
1000
0000
0001
0000
0010
0000
0110
0000
0000
0110
0000
0000
0011
0000
,
1000
0000
0100
0010
0001
1000
0001
0100
,
0010
0000
0001
1000
0001
0100
0010
0100
,
0010
0000
0100
0010
0001
0100
0010
1000
,
0010
0000
0001
0010
0001
0000
0001
0100
,
0010
0000
0000
0000
0000
0000
0010
0000
0000
1000
0000
0000
0100
0000
0010
0000
0100
0000
1000
0000
0100
0000
0010
0000
,
0100
1000
0100
1000
0010
0100
0010
0100
,
0010
0000
1000
0000
0001
0000
1000
0010
0001
0000
0010
0000
0001
0000
0010
0100
,
0010
0000
1000
0000
0010
0000
0100
0001
0100
0000
0100
0000
0001
0000
1000
0010
,
1000
0000
0000
0000
0000
0000
1000
0000
0000
0100
0000
0000
1000
0000
0000
0000
0000
0000
1000
0000
0000
0100
0000
0000
1000
0000
0000
0000
0000
0000
0010
0000
0000
0100
0000
0000
0001
0000
0000
0000
0000
0000
0010
0000
0001
0000
0010
0000
,
0100
1000
0010
0100
0001
0100
0001
1000
,
0010
0100
0010
1000
0100
0010
0100
1000
,
0001
0010
0001
1000
0100
1000
0001
0100
,
0001
0010
0100
1000
0010
1000
0100
0010
,
0001
1000
0001
1000
0010
1000
0010
0100
,
0110
0000
0000
0000
;

//--------------- dance-double - B. M'Rey ----------------
#NOTEDATA:;
#STEPSTYPE:dance-double;
#DESCRIPTION:B. M'Rey;
#DIFFICULTY:Easy;
#METER:4;
#RADARVALUES:0.170658,0.325801,0.2172,0.0181,0,132,108,24,2,0,0,0.170658,0.325801,0.2172,0.0181,0,132,108,24,2,0,0;
#NOTES:
00000000
00000000
00000000
00000000
,
00000000
00000000
00000000
00000000
,
00000000
00000000
00000000
00000000
,
00000000
00000000
00000000
00000000
,
10000000
00000000
00000000
00000000
,
00010000
00000000
00000000
00000000
,
01000000
01000000
00000000
00100000
,
00010000
00010000
00000000
10010000
,
00100000
00100000
00000000
00010000
,
01000000
01000000
00000000
00110000
,
00001000
00001000
00000000
01000000
,
00010000
00010000
00000000
00110000
,
00100000
00000100
00000000
00001000
,
00010000
00001000
00000000
00100000
,
00011000
00000000
00000100
00100000
,
00001000
00010000
00001000
00100000
,
00000000
00000100
00001000
00000010
,
00000000
00000100
00010000
00001000
,
00000000
00000100
00001000
00000010
,
00000000
00000100
00001000
00010000
,
00000000
00000010
00000000
00000100
,
00000000
00000001
00000000
00000010
,
00001001
00000000
00000000
00000000
,
00000100
00001000
00000000
00000010
,
00001000
00000100
00000000
00000010
,
00000100
00000010
00000000
00001000
,
00000100
00010000
00000000
00001000
,
00010000
00000100
00000000
00001000
,
00001000
00100000
00000000
00000100
,
00001000
00000100
00000000
00010000
,
00001000
00100000
00000100
00000100
,
00100000
00100000
00100000
00000100
,
01001000
01000000
01001000
00001000
,
00100000
00101000
00001000
00101000
,
00010000
01010000
00100000
00110000
,
00001000
00101000
00010000
01010000
,
01000000
10100000
01000000
01010000
,
10100000
01010000
10100000
01010000
,
10100000
01010000
10100000
01010000
,
20020000
00000000
00000000
00000000
,
30030000
00000000
00000000
00000000
;

//--------------- dance-double - B. M'Rey ----------------
#NOTEDATA:;
#STEPSTYPE:dance-double;
#DESCRIPTION:B. M'Rey;
#DIFFICULTY:Medium;
#METER:7;
#RADARVALUES:0.241765,0.307701,0.17195,0.0543,0,187,168,19,6,0,0,0.241765,0.307701,0.17195,0.0543,0,187,168,19,6,0,0;
#NOTES:
00000000
00000000
00000000
00000000
,
00000000
00000000
00000000
00000000
,
00000000
00000000
00000000
00000000
,
00000000
00000000
00000000
00000000
,
00200000
00000000
00302000
00000000
,
00003200
00000000
00010300
00000000
,
01000000
00010000
00100000
00001000
,
00010000
00100000
01000000
00000000
00100000
00001000
01000000
00000000
,
00100000
01000000
00010000
00100000
,
10000000
00100000
01000000
00000000
00100000
00010000
10000000
00000000
,
00100000
00010000
00001000
00010000
,
01000000
00010000
00100000
00000000
01000000
01000000
00010000
00000000
,
00100000
00100000
00001000
00001000
00010000
00010000
00001000
00001000
,
01000000
01000000
00100000
00100000
01000000
01000000
00010000
00000000
,
01001000
00000000
00010000
00000000
00100000
00010000
00001000
00000000
,
00010000
00000000
01000000
00000000
00100000
00001000
01000000
00000000
,
00010000
00000000
00001000
00000000
00010000
01000000
00100000
00000000
,
00010000
00000000
01000000
00000000
00100000
00010000
01000000
00000000
,
00010000
00000000
00100000
00000000
00001000
01000000
00010000
00000000
,
00001000
00000000
00010000
00000000
00100000
00001000
01000000
00000000
,
00010000
00100000
00001000
00010000
,
01000000
00100000
01000000
00010000
,
20020000
00000000
00000000
00000000
00000000
00000000
00000000
30030000
,
01000000
00100000
10000000
00000000
01000000
00010000
10000000
00000000
,
00100000
01000000
00010000
00000000
00001000
00100000
00010000
00000000
,
00001000
00001000
00010000
00000000
00100000
00010000
01000000
00000000
,
00000100
00010000
00100000
00000000
00000100
00001000
00100000
00000000
,
00001000
00000100
00010000
00000000
00001000
00100000
00010000
00000000
,
00000100
00001000
00010000
00000000
00000010
00000100
00010000
00000000
,
00000100
00010000
00001000
00000100
,
00000100
00000000
00000010
00000000
00000001
00001000
00000010
00000100
,
00001001
00000101
00000010
00000100
,
00010100
00001010
00000100
00001000
,
00010100
00001100
00000010
00000100
,
00010100
00000000
00011000
00000000
00101000
00000000
00011000
00000100
,
00001000
00010000
00001000
00010100
,
01010000
00100000
00010000
01010000
,
01001000
00010000
00100000
00101000
,
10100000
01000000
00010000
01010000
,
00020000
00000000
00000000
00000000
,
10030000
00000000
00000000
00000000
;

//--------------- dance-double - B. M'Rey ----------------
#NOTEDATA:;
#STEPSTYPE:dance-double;
#DESCRIPTION:B. M'Rey;
#DIFFICULTY:Hard;
#METER:8;
#RADARVALUES:0.325801,0.416301,0.00905,0.0362,0.067875,252,251,1,4,0,0,0.325801,0.416301,0.00905,0.0362,0.067875,252,251,1,4,0,0;
#NOTES:
00000000
00000000
00000000
00000000
,
00000000
00000000
00000000
00000000
,
00000000
00000000
00000000
00000000
,
00000000
00000000
00000000
00000000
,
02000000
00000000
03010000
00000000
,
00000200
00000000
00010300
00000000
,
00000010
00000100
00001000
00000010
00000100
00000010
00010000
00001000
,
00001000
00000010
00000100
00000001
00000010
00000001
00001000
00000010
,
00001000
00010000
00001000
00000100
00000010
00000100
00000010
00010000
,
00010000
00100000
00001000
00000100
00010000
00001000
00000100
00100000
,
00100000
00010000
00001000
00010000
01000000
00001000
00010000
00001000
,
01000000
10000000
00100000
00010000
01000000
10000000
00100000
00010000
,
00100000
00010000
01000000
00001000
00100000
00010000
00001000
01000000
,
00010000
00100000
00001000
00000100
00010000
00001000
00000100
00100000
,
00010010
00000100
00001000
00000010
00010000
00000100
00001000
00010000
,
00000010
00000001
00000100
00001000
00000010
00000001
00000010
00000100
,
00000010
00010000
00000100
00001000
00010000
00000100
00000010
00001000
,
00100000
00001000
00000100
00010000
00001000
00000100
00100000
00010000
,
00010000
00001000
01000000
00100000
01000000
00001000
00010000
00100000
,
00010000
00100000
00010000
10000000
01000000
10000000
00100000
00010000
,
00010000
00001000
01000000
00100000
01000000
00010000
00001000
00100000
,
00001000
00000100
00100000
00001000
00010000
00000100
00100000
00001000
,
00002000
00000000
00000000
00000000
00000000
00000000
00000000
00000000
00000000
00000000
00000000
00000000
00000000
00003000
00000000
00000000
00000000
00000000
00000000
00000000
00000000
00000000
00000000
00000000
00000000
00000000
00000000
00000000
00000000
00000000
00000000
00000000
,
00000001
00000010
00000100
00000000
00001000
00000010
00000100
00000000
,
00000010
00000100
00001000
00000000
00000100
00010000
00001000
00000000
,
00000100
00000000
00001000
00000000
00000100
00000000
00000000
00000000
00010000
00000000
00000000
00001000
00000000
00000000
00100000
00000000
,
00100000
00010000
01000000
00001000
00000000
00010000
00100000
01000000
,
00010000
00100000
10000000
00000000
01000000
00100000
00010000
00000000
,
00001000
01000000
00010000
00000000
00100000
01000000
00010000
00001000
,
00010000
00001000
00100000
00001000
00000100
00001000
00010000
00100000
,
00000010
00000000
00000000
00000100
00000000
00000000
00010000
00000000
00000000
00000100
00000000
00000000
00010000
00000000
00000100
00000000
00000010
00000000
00010000
00000000
00000100
00000000
00001000
00000000
,
00000001
00000010
00000100
00000000
00000010
00001000
00000100
00000000
,
00000010
00000000
00000100
00000000
00010000
00000000
00000010
00001000
00000100
00000000
00001000
00000000
00000010
00000000
00000100
00010000
,
00001000
00000000
00000100
00000000
00100000
00000000
00000100
00010000
00001000
00000000
00010000
00000000
00100000
00000000
00001000
00010000
,
00001000
00000000
00010000
00001000
00100000
00000000
01000000
00010000
00001000
00000000
00010000
00100000
01000000
00000000
00001000
01000000
,
00010000
01000000
00100000
00000000
00010000
00100000
10000000
00000000
,
00010000
00100000
01000000
00000000
00010000
00100000
00001000
00000000
,
00001000
00100000
00010000
00000000
00000100
00001000
00000100
00000000
,
00001000
00000100
00010000
00000000
00000010
00001000
00000100
00000000
,
00020000
00000000
00000000
00000000
00000000
00000000
00000000
00000000
00000000
00000000
00000000
00000000
00000000
00000000
00000000
00000000
00000000
00000000
00000000
00000000
00000000
00000000
00000000
00000000
00000000
00000000
00000000
00000000
00000000
00000000
00000000
00000000
00000000
00000000
00000000
00000000
00000000
00000000
00000000
00000000
00000000
00000000
00000000
00000000
00000000
00000000
00000000
00000000
00000000
00000000
00000000
00000000
00000000
00000000
00000000
00000000
00000000
00000000
00000000
00000000
00000000
00000000
00000000
00000000
00000000
00000000
00000000
00000000
00000000
00000000
00000000
00000000
00000000
00000000
00000000
00000000
00000000
00000000
00000000
00000000
00000000
00000000
00000000
00000000
00000000
00000000
00000000
00000000
00000000
00000000
00000000
00000000
00000000
00000000
00000000
00030000
,
00000010
00000000
00000000
00000000
;
