#TITLE:ASTRAL VOYAGE;
#ARTIST:EeL;
#GENRE:DREAM TECHNO;
#CREDIT:B. M'Rey;
#MUSIC:ASTRAL VOYAGE.ogg;
#BANNER:ASTRAL VOYAGE-bn.png;
#BACKGROUND:ASTRAL VOYAGE-bg.png;
#CDTITLE:./CDTITLES/beatmania IIDX.png;
#SAMPLESTART:42.755;
#SAMPLELENGTH:12.000;
#OFFSET:-0.044;
#BPMS:0.000=136.000;

//--------------- dance-single - B. M'Rey ----------------
#NOTES:
     dance-single:
     B. M'Rey:
     Beginner:
     1:
     0,0,0,0,0:
0000
0000
0000
0000
,
0000
0000
0000
0000
,
0000
0000
0000
0000
,
0000
0000
0000
0000
,
0000
1000
0000
0000
,
0000
0001
0000
0000
,
0000
0100
0000
0000
,
0000
0010
0000
0000
,
0000
0001
0000
0000
,
0000
1000
0000
0000
,
0000
0010
0000
0000
,
0000
0100
0000
0000
,
0000
0001
0000
0010
,
0000
0001
0000
0100
,
0000
0010
0000
1000
,
0000
0100
0000
1000
,
0000
0010
0000
0000
,
0000
0100
0000
0000
,
0000
0001
0000
0000
,
0000
1000
0000
0000
,
0000
0010
0000
0001
,
0000
0100
0000
0010
,
0000
1000
0000
0000
,
0000
0100
0000
1000
,
0000
0010
0000
0001
,
0000
0100
0000
0010
,
0000
1000
0000
0001
,
0000
0010
0000
0100
,
0000
0010
0000
0001
,
0000
1000
0000
0100
,
0000
1000
0000
0010
,
0000
0100
0000
0010
,
0000
0001
0000
1000
,
0000
0010
0000
0100
,
0000
0001
0000
0010
,
0000
0001
0000
1000
,
0000
0010
0000
0100
,
0000
0010
0000
1000
,
0000
0001
0000
1000
,
0000
0001
0000
1000
,
0000
0010
0000
0100
,
0000
0010
0000
0001
,
0000
1000
0000
0010
,
0000
0100
0000
0010
,
0000
0001
0000
1000
,
0000
0010
0000
0100
,
0000
0010
0000
0001
,
0000
1000
0000
0010
,
0000
0100
0000
0001
,
0000
0010
0000
0001
,
0000
0100
0000
0010
,
0000
1000
0000
0100
,
0000
1000
0000
0010
,
0000
0100
0000
0001
,
0000
0010
0000
0001
,
0000
0100
0000
0010
,
0000
0002
0000
0000
,
0000
0000
0000
0000
,
0000
0000
0000
0000
,
0000
0000
0000
0000
,
0000
2003
0000
0000
,
0000
0000
0000
0000
,
0000
0000
0000
0000
,
0000
0000
0000
0000
,
0000
3010
0000
0001
,
0000
0100
0000
0010
,
0000
1000
0000
0100
,
0000
1000
0000
0000
;

//--------------- dance-single - B. M'Rey ----------------
#NOTES:
     dance-single:
     B. M'Rey:
     Easy:
     2:
     0,0,0,0,0:
0000
0000
0000
0000
,
0000
0000
0000
0000
,
0000
0000
0000
0000
,
0000
0000
0000
0000
,
0000
0001
0000
0010
,
0000
0001
0000
0100
,
0000
0010
0001
1000
,
0100
0010
0100
0001
,
0010
0001
0000
1000
,
0000
0001
0000
0010
,
0000
0001
0000
0100
,
0000
0010
0000
1000
,
0000
0001
0010
0001
,
0010
0100
0000
0010
,
0000
1000
0100
1000
,
0100
0010
0000
0001
,
0000
0001
0000
1000
,
0000
0010
0000
0100
,
0000
0001
0000
0010
,
0000
0001
0000
1000
,
0000
0010
0100
0010
,
0001
0000
0001
1000
,
0010
0100
0000
0001
,
0000
0010
0001
0100
,
0010
0001
0010
1000
,
0100
1000
0000
0010
,
0000
0100
0010
0100
,
0010
0001
0000
1000
,
0000
0001
0010
0001
,
0010
0100
0000
0010
,
0000
1000
0001
1000
,
0000
0010
0100
0010
,
0000
0001
0010
0001
,
0010
0100
0000
1000
,
0000
0100
0010
0100
,
0010
0001
0000
1000
,
0000
0010
0100
0001
,
0010
1000
0000
0001
,
0000
0100
0010
1000
,
0000
0001
0010
0001
,
0000
0100
0010
1000
,
0000
0001
0010
0001
,
0000
0100
0010
1000
,
0000
0010
0100
0001
,
0000
0010
1000
0100
,
0000
0001
0010
0100
,
0000
1000
0001
0010
,
0000
0100
0010
1000
,
0000
0001
0000
0010
,
0001
0100
0010
1000
,
0100
1000
0000
0010
,
0100
0001
0010
0100
,
0001
0010
0000
1000
,
0100
0001
0100
0010
,
1000
0100
0000
0001
,
0000
0010
0000
0001
,
0000
0200
0000
0000
,
0000
0000
0000
0000
,
0000
0000
0000
0000
,
0000
0000
0000
0000
,
0000
2300
0000
0000
,
0000
0000
0000
0000
,
0000
0000
0000
0000
,
0000
0000
0000
0000
,
0000
3001
0000
0010
,
0000
0001
0000
0100
,
0000
0010
0000
1000
,
0000
0010
0000
0000
;

//--------------- dance-single - B. M'Rey ----------------
#NOTES:
     dance-single:
     B. M'Rey:
     Medium:
     4:
     0,0,0,0,0:
0000
0000
0000
0000
,
0000
0000
0000
0000
,
0000
0000
0000
0000
,
0000
0000
0000
0000
,
0000
1001
0000
0101
,
0000
0110
0000
1010
,
0000
0100
0001
0100
,
0001
0010
1000
0010
,
1000
0010
0100
1000
,
0100
0010
1000
0001
,
0010
0001
0100
0010
,
1000
0100
1000
0010
,
0100
0000
1000
0000
0001
0010
0100
0000
,
0001
0000
0010
0000
1000
0000
0100
0010
,
0001
0000
0010
0000
0100
0000
1000
0100
,
0010
0000
0001
0000
0010
0000
0001
0010
,
0100
0010
1000
0100
,
1000
0010
0100
0001
,
0010
0001
1000
0100
,
1000
0010
0100
1000
,
0001
0000
0001
0000
0010
0000
1000
0100
,
0010
0000
0001
0000
0010
0000
0001
0010
,
0100
1000
0010
0100
,
0010
0000
1000
0001
1000
0001
1000
0001
,
1000
0000
0001
0000
0010
0100
0001
0000
,
0010
0000
1000
0100
0000
0010
0000
0001
,
0010
0000
0001
0000
0100
0010
1000
0000
,
0010
0000
0100
0000
0001
0010
0000
0001
,
1000
0010
0100
0000
1000
0000
0010
0000
,
0100
0000
0001
0000
0010
0001
0000
0010
,
1000
1001
0000
0101
,
0000
0110
0000
1010
,
0000
0001
0010
1000
,
0100
0000
0010
1000
0010
0100
0000
0001
,
0010
0001
0010
1000
,
0100
0000
0010
0000
0100
0010
0100
0000
,
0001
0010
1000
0000
0100
0000
1000
0000
,
0010
0000
0001
0000
0100
0000
0010
1000
,
0100
0000
0001
0000
0010
0001
0010
0000
,
1000
0100
1000
0000
0010
0100
0010
0000
,
0001
0000
0001
0000
0010
1000
0100
0000
,
0010
0000
1000
0100
0000
0010
0000
0001
,
0010
0100
0001
0000
0010
0000
1000
0000
,
0100
0010
1000
0000
0010
0000
0100
0000
,
0001
0010
0100
0010
,
0001
0000
1000
0100
0000
0010
0000
0100
,
0001
1000
0010
0000
0100
0000
1000
0010
,
0100
0001
0010
0001
,
1000
0000
0010
0000
0100
0000
1000
0010
,
1000
0000
0001
0010
0000
0100
0000
0010
,
1000
0000
0010
0000
0100
0010
0000
1000
,
0001
0100
0010
0000
1000
0000
0100
0010
,
1000
0001
0010
0100
,
0001
0000
0010
1000
0000
0100
0000
0010
,
1000
0001
0100
0010
,
1000
0000
0001
1000
0010
0000
0001
1000
,
0010
0002
0000
0010
,
0000
0010
0000
0010
,
0000
0010
0000
0010
,
0000
0010
0000
0010
,
0000
2003
0000
0100
,
0000
0100
0000
0100
,
0000
0100
0000
0100
,
0000
0100
0000
0100
,
0000
3010
0100
0010
,
0001
0010
1000
0100
,
1000
0010
0100
0010
,
0001
1000
0000
0000
;

//--------------- dance-single - B. M'Rey ----------------
#NOTES:
     dance-single:
     B. M'Rey:
     Hard:
     7:
     0,0,0,0,0:
0000
0000
0000
0000
,
0000
0000
0000
0000
,
0000
0000
0000
0000
,
0000
0000
0000
0000
,
0000
1001
0000
0110
,
0000
0101
0000
1010
,
0000
0110
0101
1010
,
0110
0101
1010
0110
,
0101
0000
0001
1000
0001
1000
0010
0000
,
0100
0000
0010
1000
0010
1000
0010
0000
,
0100
0000
0001
0010
0001
0010
0001
0000
,
0010
0000
0100
0010
0100
0010
0100
0000
,
0010
0000
1000
0100
1000
0000
0001
0010
,
0001
0000
0010
0100
0010
0000
1000
0100
,
1000
0000
0001
0010
0001
0000
0010
0100
,
0010
0000
0001
0010
0001
0000
1000
0100
,
1000
0000
0010
0000
0100
0000
0001
0010
,
1000
0000
0010
0100
0010
0000
1000
0000
,
0100
0000
0001
0000
0010
0000
0100
0001
,
0010
0000
1000
0000
0100
0000
0010
1000
,
0100
0000
0001
0010
0001
0000
0010
0100
,
0010
0000
1000
0100
1000
0000
0010
0100
,
0010
0001
0001
1000
,
1000
0000
0001
1000
0001
1000
0001
1000
,
0010
0000
0000
0000
0001
0100
0000
0000
0010
1000
0000
0000
0010
0100
0000
0000
,
0001
0100
0000
0000
0010
0000
1000
0000
0100
0000
0010
0000
0001
0000
0000
0000
,
0100
0000
1000
0000
0010
0100
0000
0000
0001
0100
0000
0000
0010
0100
0000
0000
,
0001
0010
0000
0000
0100
0000
1000
0000
0010
0000
0100
0000
0010
0000
0000
0000
,
0100
0000
1000
0000
0100
0010
0000
0000
0001
1000
0000
0000
0100
0010
0000
0000
,
0001
0100
0000
0000
0010
0000
0100
0000
0010
0000
1000
0000
0001
0000
0010
0000
,
0100
0000
1000
0000
0010
0000
0100
0010
0000
0100
1000
0000
0001
0000
1000
0000
,
0001
0000
0010
0000
0001
0000
1000
0010
0000
0010
0100
0000
0010
0000
0100
0000
,
0001
0000
1000
0000
0100
0010
0000
0000
0100
1000
0000
0000
0010
0100
0000
0000
,
0010
0100
0000
0000
0010
0000
1000
0000
0001
0000
0010
0000
0100
0000
0000
0000
,
0100
0000
1000
0000
0001
1000
0000
0000
0001
0010
0000
0000
0100
1000
0000
0000
,
0001
1000
0000
0000
0010
0000
0100
0000
0001
0000
1000
0000
0001
0000
0100
0000
,
0010
0000
0000
0000
0001
0010
0000
0000
0100
1000
0000
0000
0100
1000
0000
0000
,
0001
1000
0000
0000
0010
0000
0100
0000
0001
0000
1000
0000
0010
0000
0100
0000
,
0001
0000
0010
0000
0100
0000
1000
0001
0000
0001
0010
0000
0100
0000
0010
0000
,
0001
0000
1000
0000
0100
0000
1000
0001
0000
0001
0010
0000
0100
0000
0010
0000
,
0001
0100
0002
0000
0203
0000
0302
0000
,
0013
0000
0001
0100
0000
1000
0010
1000
,
0000
0200
0000
1300
0100
1000
0001
0100
,
0010
0100
0010
0000
0001
0000
0010
1000
,
0001
0020
0230
0320
,
0031
0000
0100
1000
0000
1000
0010
0100
,
0000
0200
0000
1300
0001
0010
0000
0010
,
0001
1000
0000
0100
0001
0010
0100
1000
,
0010
0100
0002
0000
0023
0000
0230
0000
,
1300
0000
0010
0100
0000
1000
0001
0010
,
0000
0020
0000
1030
0001
1000
0000
1000
,
0001
0010
0000
0010
0001
1000
0010
1000
,
0010
0100
2000
0000
3200
0000
0320
0000
,
0031
0000
0010
1000
0000
0010
0100
0010
,
0000
1000
0001
0010
0100
1000
0001
0100
,
0010
1000
0010
1000
0001
0010
0001
0010
,
0001
0100
0002
0000
0100
0000
1000
0000
,
0100
1000
0100
1000
,
0100
1000
0100
1000
,
0100
1000
0100
1000
,
0100
2003
0010
0001
,
0010
0001
0010
0001
,
0010
0001
0010
0001
,
0010
0001
0010
0001
,
0010
0000
3001
0010
0001
0000
0010
0100
,
0010
0000
1000
0100
1000
0000
0010
0100
,
0010
0000
0001
0010
0001
0000
0010
0100
,
0010
0000
0000
0000
;
