#TITLE:ALL MY LOVE;
#ARTIST:TOMOSUKE x SABRINA;
#GENRE:HOUSE;
#CREDIT:B. M'Rey;
#MUSIC:ALL MY LOVE.ogg;
#BANNER:ALL MY LOVE-bn.png;
#BACKGROUND:ALL MY LOVE-bg.png;
#CDTITLE:./CDTITLES/Dance ManiaX.PNG;
#SAMPLESTART:74.987;
#SAMPLELENGTH:12.000;
#OFFSET:-0.419;
#BPMS:0.000=132.000;

//--------------- dance-single - B. M'Rey ----------------
#NOTES:
     dance-single:
     B. M'Rey:
     Beginner:
     1:
     0,0,0,0,0:
0000
0000
0000
0000
,
0000
0000
0000
0000
,
0000
0000
0000
0000
,
0000
0000
0000
0000
,
0000
0000
1000
0000
,
0002
0000
0000
0000
,
0000
0000
0103
0000
,
0100
0000
0100
0000
,
0010
0000
0002
0000
,
0000
0000
0000
0000
,
1003
0100
0010
0000
,
0000
0000
0001
0000
,
1000
0000
0020
0000
,
0000
0000
0000
0000
,
0031
0010
0100
0000
,
0000
0000
1000
0000
,
0001
0000
0100
0000
,
0010
0000
1000
0000
,
0000
0000
0001
0000
,
0000
0000
0100
0000
,
0000
0000
0010
0000
,
0001
0000
1000
0000
,
0000
0000
0010
0000
,
0000
0100
0000
0000
,
0000
0000
0001
1000
,
0001
0000
0100
0000
,
0010
0000
1000
0000
,
0001
0000
0100
0000
,
0010
0000
0001
1000
,
0001
0000
0100
0000
,
0010
0000
1000
0000
,
0100
0000
1000
0000
,
0001
0010
0001
0000
,
0100
0000
0010
0000
,
1000
0000
0001
0000
,
0010
0000
0001
0000
,
0100
0000
0010
0000
,
1000
0000
0100
0000
,
0001
0000
0020
0000
,
0000
0000
0000
0000
,
0000
0000
0030
0000
,
0001
0001
0001
0000
,
1000
0000
0010
0000
,
0100
0000
1000
0000
,
0001
0010
0100
0000
,
1000
0000
0010
0000
,
0100
0000
0001
0000
,
1000
0000
0010
0000
,
0000
0200
0000
0000
,
0000
0000
1300
0000
;

//--------------- dance-single - B. M'Rey ----------------
#NOTES:
     dance-single:
     B. M'Rey:
     Easy:
     2:
     0,0,0,0,0:
0000
0000
0000
0000
,
0000
0000
0000
0000
,
0000
0000
0000
0000
,
0000
0000
0000
0000
,
0000
0000
1100
0000
,
0100
1000
0100
0010
,
0001
0000
1001
0000
,
0011
0000
0110
0000
,
0100
0010
0002
1000
,
0000
1000
0000
1000
,
0013
1000
0200
0000
,
0000
0000
0301
0100
,
0001
0100
0020
1000
,
0000
0100
0000
0100
,
0031
0100
0001
0000
,
1000
0000
0100
1000
,
0010
0100
0010
0000
,
0010
0000
0001
1000
,
0000
1000
0010
0000
,
0010
0000
0100
0000
,
0001
0000
0001
1000
,
0010
0100
0010
0000
,
0010
1000
0100
0000
,
0001
0000
0010
0000
,
0001
0100
0001
1000
,
0001
0010
0000
0100
,
0010
0100
0001
1000
,
0010
0000
0010
0000
,
0001
0000
0100
0010
,
0100
0000
0001
1000
,
0001
0000
0001
0010
,
0100
0000
0100
1000
,
0100
0000
0000
0000
0001
0000
0000
1000
,
0000
0000
0000
0010
0000
0000
0000
0100
,
0000
0010
0000
1000
,
0000
0020
0000
0000
,
0031
0100
0001
1000
,
0001
0000
0000
0100
0000
0000
0000
0000
,
0100
0010
0002
0020
,
0000
0000
0033
0000
,
0110
0000
0101
0000
,
0010
0100
0001
0010
,
0001
0000
0010
0000
0000
1000
0000
0000
,
0010
0000
1000
0000
0010
0000
0000
0010
,
0000
0100
0000
0001
0000
0000
0100
0000
,
0001
0010
0001
0010
,
0100
0000
0000
0100
0000
1000
0000
0000
,
0000
1000
0000
0100
,
0000
0100
0002
0000
,
0000
0000
0003
0000
;

//--------------- dance-single - B. M'Rey ----------------
#NOTES:
     dance-single:
     B. M'Rey:
     Medium:
     4:
     0,0,0,0,0:
0000
0000
0000
0000
,
0000
0000
0000
0000
,
0000
0000
0000
0000
,
0000
0000
0000
0000
,
0000
0000
0010
1000
,
0100
1000
0010
0100
,
0010
0100
0011
0000
,
0110
0000
0110
0000
,
0001
0000
1000
0000
0100
0010
1000
0000
,
0001
1000
0010
0100
,
0001
0010
0100
0000
0001
1000
0010
0000
,
0001
0000
1000
0000
0100
0001
0010
0000
,
0100
0010
1000
0000
0100
0000
1000
0000
,
0001
0100
0001
1000
,
0010
1000
0001
0100
,
0010
0000
1000
0000
0010
0100
1000
0000
,
0100
0001
1000
0000
0100
0000
0010
0000
,
0100
0010
0001
0010
,
0100
0010
1000
0000
0100
0010
1000
0000
,
0001
1000
0100
0010
,
0100
0000
0010
0000
0100
0010
1000
0000
,
0001
0000
1000
0000
0100
0010
1000
0000
,
0001
0010
0100
0000
0001
0000
1000
0000
,
0010
0110
0010
1000
,
0001
0000
0010
0000
0100
0010
1000
0001
,
0100
0000
1000
0000
0001
0000
0100
0010
,
0001
0000
0100
0000
0001
1000
0010
0001
,
0100
0010
0001
1000
,
0100
0000
1000
0000
0001
1000
0010
1000
,
0100
0000
0010
0000
0001
0100
1000
0000
,
0010
0000
0100
0000
0010
0001
0100
1000
,
0010
0000
1000
0100
0001
0000
0010
0000
,
0001
0010
0100
0000
0010
0000
0100
0000
,
0010
0100
0001
0010
,
0001
0000
1000
0100
0010
0000
0100
0001
,
0010
0000
0100
1000
0010
0000
1000
0000
,
0001
1000
0100
0010
,
0001
1000
0010
0100
,
0001
0010
0002
0000
,
0000
0000
1013
0000
,
0011
0000
1100
0000
,
0001
0010
0001
0100
,
0010
0000
1000
0010
0000
0010
0000
0000
,
0100
0010
0100
1000
,
0001
0010
0002
0000
,
0103
0010
0100
1000
,
0001
0000
1000
0010
0001
0000
0100
0000
,
0001
0000
0100
0000
0010
0000
1000
0010
,
0000
0100
1000
0001
0020
0000
0000
0000
,
0000
0000
0130
0000
;

//--------------- dance-single - B. M'Rey ----------------
#NOTES:
     dance-single:
     B. M'Rey:
     Hard:
     6:
     0,0,0,0,0:
0000
0000
0000
0000
,
0000
0000
0000
0000
,
0000
0000
0000
0000
,
0000
0000
0000
0000
,
0000
0000
0001
0010
,
0001
0010
0100
1000
,
0100
0000
0010
0000
0001
0100
1000
0000
,
0001
0010
0100
0000
0001
0010
1000
0000
,
0110
0000
1100
0000
0100
1000
0010
1000
,
0100
1000
0010
0100
0010
0100
0010
1000
,
0011
0000
1100
0000
1001
0000
0001
0010
,
0100
0000
0010
0100
0001
0100
0001
0010
,
0100
1000
0010
0100
0010
1000
0100
0010
,
0100
0010
0001
0100
0010
1000
0100
1000
,
0110
0000
0101
0000
1010
0000
0100
0010
,
0001
0000
0001
0010
0100
1000
0001
1000
,
0010
0100
0010
0000
0001
0100
0001
0000
,
0001
0010
0100
0000
0001
0100
0010
0000
,
0010
0100
0001
0010
0001
0100
0001
0000
,
0010
1000
0010
0000
0001
0000
0100
0000
,
0100
0010
0001
0000
1000
0010
0001
0000
,
0001
0100
0010
0000
0010
1000
0001
0000
,
0001
0100
0001
1000
0100
1000
0001
0000
,
0001
0010
0100
0000
0100
1000
0010
0000
,
0001
0100
0010
0000
0010
0100
0001
1000
,
0001
0000
0001
0100
0000
1000
0001
0100
,
0001
0000
0010
0000
0100
0010
0001
1000
,
0001
0000
0001
0100
0000
1000
0001
0000
,
0010
0100
0000
0000
0001
0100
0010
0100
,
0010
0000
0001
0010
0000
1000
0010
1000
,
0100
0000
0001
0000
0100
0010
0001
1000
,
0010
0000
0001
1000
0000
1000
0001
0000
,
0100
1000
0100
1000
0100
0000
0001
0010
,
0100
0000
0100
1000
0100
0000
0001
0000
,
0001
0000
0010
1000
0001
0100
0001
0100
,
0000
0100
0001
1000
0001
0000
0100
0000
,
0010
0000
0010
1000
0001
0000
0100
1000
,
0010
0100
0000
2000
0000
3000
0000
0100
,
0010
0000
0000
0010
0000
0000
1000
0000
0002
0000
0000
0000
0010
0000
0000
0000
,
0000
0000
0000
0000
0013
1000
0100
0000
,
0010
1000
0010
0000
0001
0000
1000
0000
,
0010
1000
0001
1000
0100
0000
1100
0000
,
0001
0010
0001
0110
0000
1001
0000
0010
,
0001
0100
0010
0100
0010
0000
0001
1000
,
0000
0200
0000
2300
0010
0010
3010
0000
,
0001
0010
0001
0100
1010
0000
0101
0000
,
0110
0000
0001
0110
0000
0110
0000
0000
,
0100
1000
0010
1000
0000
0010
0001
1000
,
0000
0010
0001
1000
0010
0000
0001
0100
,
0001
0100
0010
1000
1001
0000
0000
0000
;
