#TITLE:ZETA ~The World of Prime Numbers and the Transcendental Being~;
#SUBTITLE:Full Song;
#ARTIST:Zektbach;
#TITLETRANSLIT:;
#SUBTITLETRANSLIT:;
#ARTISTTRANSLIT:;
#CREDIT:;
#BANNER:ZETA ~The World of Prime Numbers and the Transcendental Being~ (Full Song).png;
#BACKGROUND:ZETA ~The World of Prime Numbers and the Transcendental Being~ (Full Song)-bg.png;
#LYRICSPATH:;
#CDTITLE:./CDTITLES/DanceDanceRevolution II.png;
#MUSIC:ZETA ~The World of Prime Numbers and the Transcendental Being~ (Full Song).ogg;
#OFFSET:0.000;
#SAMPLESTART:194.620;
#SAMPLELENGTH:15.000;
#SELECTABLE:YES;
#DISPLAYBPM:90.000:180.000;
#BPMS:0.000=180.000,228.000=90.000,280.000=180.000;
#STOPS:;
#BGCHANGES:;

//---------------dance-single - ----------------
#NOTES:
     dance-single:
     :
     Beginner:
     3:
     0.113,0.240,0.042,0.023,0.000:
0000
0000
0000
0000
,
0000
0000
0000
0000
,
0000
0000
0000
0000
,
0000
0000
0000
0000
,
0000
0000
0000
0000
,
0000
0000
0000
0000
,
0000
0000
0000
0000
,
0000
0000
0000
0000
,
0000
0000
0000
0000
,
1001
0000
0000
0000
,
0000
0000
0000
0000
,
0010
0000
0000
0000
,
0010
0000
0000
0000
,
1001
0000
0000
0000
,
0000
0000
0000
0000
,
0100
0000
0000
0000
,
0100
0000
0000
0000
,
1001
0000
0000
0000
,
0000
0000
0000
0000
,
0010
0000
0000
0000
,
0010
0000
0000
0000
,
1001
0000
0000
0000
,
0000
0000
0000
0000
,
0100
0000
0000
0000
,
0100
0000
0000
0000
,
0010
0000
0000
0000
,
1000
0000
0000
0000
,
0001
0000
0000
0000
,
0100
0000
0000
0000
,
0010
0000
0000
0000
,
1000
0000
0000
0000
,
0001
0000
0000
0000
,
0100
0000
0000
0000
,
0010
0000
0010
0000
,
1000
0000
0000
0000
,
0001
0000
0001
0000
,
0100
0000
0000
0000
,
0010
0000
0010
0000
,
1000
0000
0000
0000
,
0001
0000
0001
0000
,
0100
0000
0000
0000
,
0010
0000
0010
0000
,
1000
0000
1000
0000
,
0001
0000
0001
0000
,
0100
0000
0000
0000
,
0010
0000
0010
0000
,
0001
0000
0001
0000
,
1000
0000
1000
0000
,
0010
0000
0000
0000
,
1000
0000
1000
0000
,
0100
0000
0010
0000
,
0001
0000
0001
0000
,
0100
0000
0000
0000
,
0001
0000
0001
0000
,
0100
0000
0010
0000
,
1000
0000
1000
0000
,
0010
0000
0000
0000
,
1000
0000
0000
0000
,
0001
0000
0000
0000
,
0100
0000
0100
0000
,
0100
0000
0000
0000
,
0010
0000
0000
0000
,
0100
0000
0000
0000
,
0001
0000
0000
0000
,
1000
0000
0000
0000
,
0001
0001
0001
0000
,
0001
0001
0001
0000
,
1000
1000
1000
0000
,
1000
1000
1000
0000
,
0010
0000
0000
0000
,
1000
0000
0000
0000
,
0001
0000
0000
0000
,
0100
0000
0100
0000
,
0100
0000
0000
0000
,
0010
0000
0000
0000
,
0100
0000
0000
0000
,
0001
0000
0000
0000
,
1000
0000
0000
0000
,
1000
0000
1000
0000
,
0100
0100
0100
0000
,
0001
0000
0001
0000
,
0100
0100
0100
0000
,
1000
0000
1000
0000
,
0100
0100
0100
0000
,
0001
0000
0001
0000
,
0100
0100
0100
0000
,
1000
0000
0010
0000
,
0100
0000
0000
0000
,
0100
0000
1000
0000
,
0100
0000
0000
0000
,
0010
0000
0100
0000
,
1000
0000
0000
0000
,
0010
0000
1000
0000
,
0100
0000
0001
0000
,
0100
0000
0000
0000
,
0010
0010
0000
0000
,
0001
0000
0000
0000
,
0010
0010
0000
0000
,
0100
0000
0000
0000
,
1000
0001
0000
0000
,
0100
0000
0000
0000
,
0001
1000
0000
0000
,
2002
0000
0000
0000
,
0000
0000
0000
0000
,
0000
0000
0000
3003
,
0000
0000
0000
0000
,
0000
0000
0220
0000
,
0000
0000
0000
0000
,
0000
0000
0000
0000
,
0000
0330
0000
0000
,
0000
0000
0000
0000
,
2002
0000
0000
0000
,
0000
0000
0000
0000
,
0000
0000
0000
3003
,
0000
0000
0000
1001
0000
0000
0000
0000
,
0000
0000
0000
0000
,
0000
0000
0000
0000
,
0000
0000
0000
0000
,
0000
0000
0000
0000
,
0000
0000
0000
0000
,
0000
0000
0000
0000
,
0000
0000
0000
0000
,
0000
0000
0000
0010
0000
0000
0000
0000
,
0000
0000
0000
0010
0000
0000
0000
0000
,
0000
0000
0100
0000
,
0000
0000
0100
0000
,
0000
0000
0000
0000
0000
0010
0000
0000
,
0000
0000
0000
0000
0000
0010
0000
0000
,
0000
0000
0000
0100
,
0000
0000
0000
0100
,
0000
0000
0000
0000
0000
0000
0000
1000
,
0000
0000
0000
0100
0000
0000
0000
0001
,
0000
0000
0000
1000
0000
0000
0000
1001
,
0000
0000
0000
0000
,
0000
0100
0000
0000
0000
0000
0000
0000
,
0000
0000
0000
0001
0000
0000
0000
0000
,
0000
0000
0000
0000
0000
1000
0000
0000
,
0000
0000
0000
0000
0000
0000
0000
0010
,
0000
0000
0000
0000
,
0000
0010
0000
0000
0000
0000
0000
0000
,
0000
0000
0000
0100
0000
0000
0000
0000
,
0000
0000
0000
0000
0000
0100
0000
0000
,
0000
0000
0000
0000
0000
0000
0000
1001
,
0000
0000
0000
0000
,
0000
0100
0000
0000
0000
0000
0000
0000
,
0000
0000
0000
1000
0000
0000
0000
0000
,
0000
0000
0000
0000
0000
0001
0000
0000
,
0000
0000
0000
0000
0000
0000
0000
0010
,
0000
0000
0000
0000
,
0000
0010
0000
0000
0000
0000
0000
0000
,
0000
0000
0000
0100
0000
0000
0000
0000
,
0000
0000
0000
0000
0000
0100
0000
0000
,
0000
0000
0000
0000
0000
0000
0000
1001
,
0000
0000
0000
0000
0000
0100
0000
0000
,
0000
0100
0000
0000
0000
0000
0000
0000
,
0000
0000
0000
0001
0000
0000
0000
0000
,
0000
0000
0000
0000
0000
0010
0000
0000
,
0000
0000
0000
0000
0000
0000
0000
0100
,
0000
0000
0000
0000
,
0000
1000
0000
0000
0000
0000
0000
0000
,
0000
0000
0000
0100
0000
0000
0000
0000
,
0000
0000
0000
0000
0000
0001
0000
0000
,
0000
0000
0000
0000
0000
0000
0000
1000
,
0000
0000
0000
0000
,
0000
0100
0000
0000
0000
0000
0000
0000
,
0000
0000
0000
0001
0000
0000
0000
0000
,
0000
0000
0000
0000
0000
0100
0000
0000
,
0000
0000
0000
0000
0000
0000
0000
1000
,
0000
0000
0000
0000
,
0000
0010
0000
0000
0000
0000
0000
0000
,
0000
0000
0000
0100
0000
0000
0000
0000
,
0000
0000
0000
0000
0000
0001
0000
0000
,
0000
0000
0000
0000
,
0100
0000
0000
0000
,
0000
0100
0000
0000
,
0000
0000
0100
0000
,
0000
0000
0000
0100
,
0000
0000
0000
0000
,
0010
0000
0000
0000
,
0000
0100
0000
0000
,
;

//---------------dance-single - ----------------
#NOTES:
     dance-single:
     :
     Easy:
     6:
     0.233,0.310,0.141,0.168,0.000:
0000
0000
0000
0000
,
0000
0000
0000
0000
,
0000
0000
0000
0000
,
0000
0000
0000
0000
,
0000
0000
0000
0000
,
0000
0000
0000
0000
,
0000
0000
0000
0000
,
0000
0000
0000
0000
,
0000
0000
0000
0000
,
2002
0000
0000
0003
,
0000
0000
0000
0000
,
3001
0000
0100
0000
,
0010
0000
1000
0000
,
0002
0000
0000
0000
,
0000
0000
0000
0000
,
0013
0000
0100
0000
,
1000
0000
0000
0000
,
2002
0000
0000
0003
,
0000
0000
0000
0000
,
3001
0000
0100
0000
,
0010
0000
1000
0000
,
0002
0000
0000
0000
,
0000
0000
0000
0000
,
0013
0000
0100
0000
,
0110
0000
0000
0000
,
1001
0000
0010
0000
,
1000
0000
0001
0000
,
1000
0000
0100
0000
,
0001
0000
0001
0000
,
0100
0000
0010
0000
,
1000
0000
0010
0000
,
0100
0000
0001
0000
,
0010
0000
0000
0000
,
1001
0000
0010
0000
,
0001
0100
1000
0000
,
0001
0000
0100
0000
,
1000
0010
1000
0000
,
0100
0000
0010
0000
,
0001
1000
0010
0000
,
0100
0001
1000
0000
,
0010
0000
0000
0000
,
1001
0100
0001
0000
,
1000
0001
0010
0000
,
1000
0010
0001
0000
,
1000
0001
0100
0000
,
0100
1000
0001
0000
,
0100
0010
0001
0000
,
0100
1000
0001
0000
,
0010
0000
0100
0000
,
1001
0001
0010
0100
,
1000
0100
0010
0000
,
1000
1000
0010
0100
,
0001
0010
0100
0000
,
1000
0010
0001
0010
,
1000
0010
0100
0000
,
0010
1000
0010
0001
,
0010
0000
0000
0000
,
0002
0000
0003
0001
,
0020
0000
0030
0010
,
1000
0000
0001
0000
,
2002
0000
3003
0000
,
0200
0300
0010
0000
,
0200
0300
0001
0000
,
0020
0030
0100
0000
,
2000
3000
0002
0003
,
2000
0000
3100
0000
,
0002
0000
0103
0000
,
0020
0000
0031
0000
,
0200
0000
1300
0000
,
0100
0000
0000
0000
,
0002
0000
0003
0001
,
0020
0000
0030
0010
,
1000
0000
0001
0000
,
2002
0000
3003
0000
,
0200
0000
0300
0010
,
0200
0000
0300
0001
,
0200
0000
0010
0300
,
2002
0000
3003
0000
,
0001
0001
0100
0000
,
1000
1000
0100
0000
,
0010
0010
1000
0000
,
0100
0100
0010
0000
,
0001
0001
0010
0000
,
1000
1000
0100
0000
,
0010
0010
0100
0000
,
0001
1000
1001
0000
,
0001
0100
1000
0010
,
0001
0100
0110
0000
,
0100
0001
0010
1000
,
0100
0010
1001
0000
,
0100
0100
0010
0000
,
0001
0001
0100
0000
,
0100
0100
1000
0000
,
0010
0010
1001
0000
,
0100
0010
0010
0000
,
0100
0110
0000
0000
,
1000
0001
0001
1000
,
0100
0110
0000
0000
,
0010
1000
1000
0100
,
0001
1001
0000
0000
,
0100
0001
0010
1000
,
0100
0110
0000
0000
,
0020
0000
0000
0000
,
0000
0000
0000
0000
,
0000
0000
0000
0000
,
0000
0000
0000
0000
,
0000
0030
0200
0000
,
0000
0000
0000
0000
,
0000
0000
0000
0000
,
0000
0000
0000
0000
,
0000
0000
0000
0300
,
0000
0000
0000
0000
,
0000
0000
0000
0000
,
0000
0000
0000
0000
,
0000
0000
0000
2002
0000
0000
0000
0000
,
0000
0000
0000
0000
,
0000
0000
0000
0000
,
0000
0000
0000
0000
,
0000
0000
0000
0000
,
0000
0000
0000
0000
,
0000
0000
0000
0000
0000
0000
0000
3003
,
0000
0000
0000
0000
,
0000
0000
0000
0100
0000
0100
0000
0010
,
0000
0010
0000
0110
0000
0000
0000
1001
,
0000
0000
0100
0100
,
0010
0010
0110
0000
,
1001
0000
0000
0000
0000
0010
0000
0010
,
0000
0100
0000
0100
0000
0110
0000
0000
,
0000
1001
0000
0000
0000
0000
0010
0000
,
0010
0100
0100
0110
,
0000
0000
1001
0000
0000
0000
0000
0100
,
0000
0000
0000
0010
0000
0000
0000
0001
,
0000
0010
0000
0100
0000
1000
0000
1001
,
0000
0000
0000
0000
0000
1000
0000
0000
,
0000
0001
0000
0000
0000
0000
0000
0100
,
0000
0000
0000
0100
0000
0000
0000
0000
,
0000
1000
0000
0000
0000
0200
0000
0000
,
0000
0300
0000
0000
0000
0000
0000
0010
,
0000
0000
0000
0000
0000
0100
0000
0000
,
0000
0100
0000
0000
0000
0000
0000
0010
,
0000
0000
0000
1001
0000
0000
0000
0000
,
0000
1000
0000
0000
0000
1001
0000
0000
,
0000
0000
0000
0000
0000
0000
0000
1001
,
0000
0000
0000
0000
0000
0001
0000
0000
,
0000
1000
0000
0000
0000
0000
0000
0100
,
0000
0000
0000
0100
0000
0000
0000
0000
,
0000
0001
0000
0000
0000
0200
0000
0000
,
0000
0300
0000
0000
0000
0000
0000
0010
,
0000
0000
0000
0000
0000
0100
0000
0000
,
0000
0100
0000
0000
0000
0000
0000
0010
,
0000
0000
0000
1001
0000
0000
0000
0000
,
0000
0001
0000
0000
0000
1001
0000
0000
,
0000
0000
0000
0000
0000
0000
0000
1001
,
0000
0000
0000
0000
0000
1000
0000
0001
,
0000
1000
0000
0000
0000
0000
0000
0100
,
0000
0010
0000
0100
0000
0000
0000
0000
,
0000
0001
0000
0010
0000
0100
0000
0000
,
0000
0000
0000
0000
0000
0000
0000
0010
,
0000
0000
0000
0000
0000
0100
0000
0010
,
0000
0100
0000
0000
0000
0000
0000
0010
,
0000
1000
0000
1001
0000
0000
0000
0000
,
0000
0001
0000
0100
0000
1001
0000
0000
,
0000
0000
0000
0000
0000
0000
0000
1000
,
0000
0100
0000
0010
0000
0001
0000
0100
,
0000
0010
0000
0001
0000
1000
0000
0100
,
0000
0010
0000
0100
0000
0010
0000
0001
,
0000
1000
0000
0100
0000
0010
0000
0001
,
0000
0010
0000
0100
0000
1000
0000
0001
,
0000
0010
0000
0100
0000
0010
0000
0100
,
0000
1000
0000
1000
0000
0100
0000
0010
,
0000
1000
0000
0100
0000
0010
0000
0001
,
0000
0100
0000
0010
0000
0001
0000
0010
,
0000
0100
0000
1000
0000
0100
0000
0000
,
0002
0000
0000
0003
0000
0200
0000
0000
,
0300
0000
0002
0000
0000
0003
0000
0020
,
0000
0000
0030
0000
2000
0000
0000
3000
,
0000
0200
0000
0000
0300
0000
2000
0000
,
0000
3000
0000
0020
0000
0000
0030
0000
,
0001
0010
0100
1000
,
0010
2002
0000
0000
,
0000
3003
0000
0000
,
;

//---------------dance-single - ----------------
#NOTES:
     dance-single:
     :
     Medium:
     11:
     0.443,0.585,0.202,0.428,0.000:
0000
0000
0000
0000
,
0000
0000
0000
0000
,
0000
0000
0000
0000
,
0000
0000
0000
0000
,
0000
0000
0000
0000
,
0000
0000
0000
0000
,
0000
0000
0000
0000
,
0000
0000
0000
0000
,
0000
0000
0000
0000
,
2001
0000
0000
0000
,
3002
0000
0000
0000
,
0203
0000
0000
0000
,
0310
1000
1000
0010
,
0200
0000
0000
0000
,
0302
0000
0000
0000
,
0023
0000
0000
0000
,
0130
1000
0100
1000
,
1002
0000
0000
0000
,
2003
0000
0000
0000
,
3200
0000
0000
0000
,
0310
0001
0001
0010
,
0200
0000
0000
0000
,
2300
0000
0000
0000
,
3020
0000
0000
0000
,
0130
0000
0000
0000
,
1001
0100
0010
0001
,
1000
0001
0100
0000
,
0001
1000
0010
0100
,
0001
1000
0100
0000
,
0010
0001
1000
0100
,
0001
0100
1000
0000
,
0010
0100
1000
0100
,
0001
0010
0001
0000
,
1000
0000
0001
0000
0000
0010
0001
0000
,
1000
0000
0001
0000
0000
0010
1000
0000
,
0001
0000
0100
0000
0000
0001
1000
0000
,
0001
0100
0001
0000
,
0001
0000
1000
0000
0000
0010
1000
0000
,
0001
0000
1000
0000
0000
0010
0001
0000
,
1000
0000
0100
0000
0000
1000
0001
0000
,
1000
0001
1001
0000
,
1001
0000
0100
0000
0010
0100
0001
0000
,
1000
0001
0100
0000
,
0001
0000
1000
0000
0010
0100
1000
0000
,
0100
0001
0101
0000
,
0010
0000
0001
0000
1000
0100
0010
0000
,
0001
0100
1000
0000
,
0100
0000
0010
0000
1000
0001
0100
0000
,
1000
1010
1001
0000
,
1000
0000
0001
0000
0010
0100
1000
0000
,
0001
0000
1000
0000
0100
1000
0100
0000
,
0010
0000
0010
0000
0001
1000
0100
0000
,
0010
0001
1100
0000
,
0100
0000
0010
0000
0001
0100
0010
0000
,
1000
0000
1000
0000
0001
0100
0001
0000
,
0010
0000
0010
0000
0001
0100
1000
0000
,
0100
0000
0000
0000
,
0002
0023
0230
2300
,
3001
0010
0100
0000
,
2000
3020
0230
0302
,
0013
0100
0110
0000
,
1000
0100
1000
0000
0010
0100
0010
0000
,
0100
0001
0011
0000
,
0001
0100
0001
0000
0010
0100
0010
0000
,
0100
1000
1010
0000
,
2000
3020
2030
3020
,
0230
0302
0203
0302
,
2003
3200
2300
3200
,
0320
0032
0023
0032
,
0103
0000
0000
0000
,
0002
0023
0230
2300
,
3001
1001
1100
0000
,
2000
3020
0230
0302
,
1003
1001
0101
0100
,
2000
3002
0203
0320
,
1030
1100
0011
0010
,
0002
0203
0320
2030
,
3001
0110
1001
0000
,
0001
0100
0001
0000
0010
0100
0010
0000
,
1000
0011
1001
0000
,
0100
0010
0100
0000
1000
0010
1000
0000
,
0001
0110
0110
0001
,
1000
0100
1000
0000
0010
0100
0010
0000
,
0001
1010
1001
0000
,
0100
0010
0100
0000
0001
0100
0001
0000
,
1000
0110
0110
1001
,
1000
0100
0001
0000
1000
0100
0001
0000
,
0100
1000
0010
0001
,
0001
0100
1000
0000
0001
0100
1000
0000
,
0001
0010
1000
0100
,
0010
0001
0100
0000
0010
0001
0100
0000
,
0001
0010
1000
0100
,
0001
0100
0010
0000
0001
0100
0010
0000
,
1000
0100
0001
0010
,
0110
0000
0001
0000
0010
0100
0000
0000
,
1001
0000
0100
0010
0000
0010
0100
0000
,
1001
0000
0001
0100
0001
0100
0010
0000
,
0100
0000
0010
0100
0000
0100
0010
0000
,
0110
0000
1000
0000
0010
0100
0000
0000
,
1001
0000
0100
0010
0000
0010
0100
0000
,
1001
0000
1000
0100
1000
0100
0010
0000
,
0100
0000
0010
0100
0000
0100
0010
0000
,
0002
0000
0000
2003
,
0000
0000
3002
0000
,
0000
2003
0000
0000
,
3020
0000
0000
0230
,
0000
0000
0320
0000
,
0000
0230
0000
0000
,
0302
0000
0000
0023
,
0000
0000
0230
0000
,
0000
2300
0000
0000
,
3002
0000
0000
0203
,
0000
0000
0320
0000
,
0000
2030
0000
0000
,
0000
3000
0000
0002
0000
0000
0000
0013
,
0000
2000
0000
0000
0000
3010
0000
0002
,
0000
0000
0000
0103
0000
2000
0000
0000
,
0000
3100
0000
0002
0000
0000
0000
1003
,
0000
0200
0000
0000
0000
0300
0000
0000
,
0020
0000
0000
0000
0000
0000
0000
0200
,
0000
0000
0000
0000
0000
0000
0000
0330
,
0000
0000
0000
0000
,
0000
0000
0000
0010
0000
0010
0000
1000
,
0001
0100
0010
1000
0000
0001
0000
0010
,
0100
0010
0100
1000
0010
0000
0010
0000
,
1000
0001
0100
0010
1000
0000
0001
0000
,
0010
0100
0010
0100
1000
0010
0000
0010
,
0000
1000
0001
0100
0010
1000
0000
0001
,
0000
0010
0100
0010
0100
1000
0010
0000
,
0010
0000
1000
0001
0100
0010
1000
0000
,
0001
0000
0010
0100
0010
0100
1000
0001
,
0100
0001
0000
1000
0100
1000
0000
0001
,
0100
0001
0100
0010
0100
0010
0000
1000
,
0000
0000
0001
0100
0000
1000
0000
0010
,
0000
0100
0000
0000
0001
1000
0000
0010
,
0000
0100
0000
0010
0000
0000
1000
0001
,
0000
0100
0000
0010
1000
0100
0000
0000
,
0010
0010
0000
0100
0000
0010
0000
0001
,
0000
0000
0100
0010
0000
1000
0000
0100
,
0010
0100
0000
0000
1000
0010
0000
0100
,
0000
0001
0000
0010
0000
0000
0100
0100
,
0000
1000
0000
0001
0100
0010
0000
0000
,
1000
1000
0000
0100
0010
0100
0000
0001
,
0000
0000
1000
0100
0000
0001
0000
0010
,
0000
0100
0000
0000
1000
0001
0000
0010
,
0000
0100
0000
0010
0000
0000
0001
1000
,
0000
0100
0000
0010
0001
0100
0000
0000
,
0010
0010
0000
0100
0000
0010
0000
1000
,
0000
0000
0100
0010
0000
0001
0000
0100
,
0010
0100
0000
0000
0001
0010
0000
0100
,
0000
1000
0000
0010
0000
0000
0100
0100
,
0000
0001
0000
1000
0100
0010
0000
0000
,
0001
0001
0000
0100
0010
0100
0000
1002
,
0000
0000
1000
1003
0000
0001
0000
1100
,
0000
0210
0000
0000
0010
0310
0000
1000
,
0000
1001
0000
2010
0000
0000
0010
3010
,
0000
0001
0000
0100
1000
0200
0000
0000
,
1000
1300
0000
0001
0000
1001
0000
0201
,
0000
0000
0010
0310
0000
0001
0000
0100
,
0001
0020
0000
0000
0100
0130
0000
1000
,
0000
1010
0000
0210
0000
0000
0001
0301
,
0000
1000
0000
1000
0100
0020
0000
0000
,
0001
0031
0000
0001
1000
0001
0000
0001
,
0010
0100
1000
0200
0000
0010
0000
0310
,
0000
0001
0010
0100
1000
0200
0000
0010
,
0000
0310
0000
0001
0100
0010
1000
0200
,
0000
1000
0000
1300
0000
0001
0100
0010
,
1000
0200
0000
1300
0001
1000
0000
0001
,
1000
0100
1000
0002
0000
1003
0010
0100
,
0000
1000
0001
0100
0001
2000
0000
3001
,
0010
0100
0000
0010
0001
0010
0001
1000
,
0000
0010
1000
0100
0000
1000
0010
1000
,
0010
0100
0001
0010
0000
0000
0000
0000
,
2020
0000
0000
3030
0000
0202
0000
0000
,
0303
0000
2020
0000
0000
3030
0000
0202
,
0000
0000
0303
0000
2200
0000
0000
3300
,
0000
0022
0000
0000
0033
0000
2200
0000
,
0000
3300
0000
0022
0000
0000
0033
0000
,
2000
3020
0032
0023
,
1030
0001
2002
0000
0000
0000
0000
0000
,
0000
3003
0000
0000
,
;

//---------------dance-single - ----------------
#NOTES:
     dance-single:
     :
     Hard:
     15:
     0.621,0.791,0.179,0.386,0.145: // measure 1
0000
0000
0000
0000
,  // measure 2
0000
0000
0000
0000
,  // measure 3
0000
0000
0000
0000
,  // measure 4
0000
0000
0000
0000
,  // measure 5
0000
0000
0000
0000
,  // measure 6
0000
0000
0000
0000
,  // measure 7
0000
0000
0000
0000
,  // measure 8
0000
0000
0000
0000
,  // measure 9
0000
0000
0000
0000
,  // measure 10
2002
0000
0000
0003
,  // measure 11
0020
0000
0000
3000
,  // measure 12
0200
0000
0000
0030
,  // measure 13
0301
0010
0100
1000
,  // measure 14
0002
0000
0000
0000
,  // measure 15
2000
0000
0000
0003
,  // measure 16
0020
0000
0000
3000
,  // measure 17
0130
0001
0010
0100
,  // measure 18
2002
0000
0000
0003
,  // measure 19
0200
0000
0000
3000
,  // measure 20
0020
0000
0000
0300
,  // measure 21
0031
0100
0010
1000
,  // measure 22
0002
0000
0000
0000
,  // measure 23
2000
0000
0000
0003
,  // measure 24
0200
0000
0000
3000
,  // measure 25
1300
0000
0000
0000
,  // measure 26
1001
0000
0100
0010
0001
0000
0010
0000
,  // measure 27
0100
1000
0010
0100
0001
0000
0110
0000
,  // measure 28
0001
0100
0010
0000
0100
0001
0010
0100
,  // measure 29
1000
0000
0010
1000
0100
0000
0110
0000
,  // measure 30
1001
0000
0100
0010
1000
0000
0100
0000
,  // measure 31
0010
0001
0100
0010
1000
0000
1001
0000
,  // measure 32
0010
0001
0100
0000
0010
1000
0010
0100
,  // measure 33
0001
0000
0010
0001
1000
0000
0110
0000
,  // measure 34
1000
0000
0001
0000
1000
0100
0010
0000
,  // measure 35
0001
0000
0100
0000
0001
0010
0100
0000
,  // measure 36
1000
0000
0010
0000
1000
0001
0010
0000
,  // measure 37
0001
0100
0010
1000
0001
0010
0100
0000
,  // measure 38
0001
0000
1000
0000
0001
0100
0010
0000
,  // measure 39
1000
0000
0100
0000
1000
0010
0100
0000
,  // measure 40
0001
1000
0010
0000
0001
1000
0010
0000
,  // measure 41
1000
0100
0010
0001
1000
0010
0100
0000
,  // measure 42
1001
0100
0010
0001
0100
0010
1000
0100
,  // measure 43
1000
0000
0010
0000
0100
0000
0010
0000
1000
0100
1000
0000
0001
0000
0000
0000
,  // measure 44
0010
0100
0001
1000
0100
0010
0001
0100
,  // measure 45
0010
0000
1000
0000
0010
0000
0100
0000
0001
0100
0001
0000
0010
0000
0000
0000
,  // measure 46
0100
1000
0010
0100
0001
0010
0100
1000
,  // measure 47
0001
0000
0100
0000
0010
0000
1000
0000
0001
0010
0001
0000
1000
0000
0000
0000
,  // measure 48
0010
0100
0001
0010
0100
1000
0010
0100
,  // measure 49
0001
0000
0010
0000
0100
0000
1000
0000
0010
0100
0010
0000
1000
0000
0000
0000
,  // measure 50
0001
1000
0100
0010
0001
0100
0010
0001
,  // measure 51
1000
0000
0100
0000
0010
0000
0001
0000
0010
0001
0010
0000
1000
0000
0000
0000
,  // measure 52
0010
1000
0100
0010
0001
0100
0010
1000
,  // measure 53
0100
0000
0010
0000
1000
0000
0010
0000
0001
0100
0010
0000
1000
0000
0000
0000
,  // measure 54
0010
0100
1000
0001
0010
0100
1000
0010
,  // measure 55
0100
0000
0001
0000
0010
0000
0100
0000
1000
0010
1000
0000
0010
0000
0000
0000
,  // measure 56
0001
1000
0010
0100
1000
0010
0100
0001
,  // measure 57
0010
0000
0000
0000
,  // measure 58
0002
0203
0320
2030
,  // measure 59
3001
0010
0100
0000
0010
0100
1000
0000
,  // measure 60
2000
3200
0320
0032
,  // measure 61
1003
0010
0100
0001
1000
0010
0100
0000
,  // measure 62
0001
0001
0010
0000
0100
0010
0200
0000
,  // measure 63
1300
1000
0100
0000
0010
0100
0020
0000
,  // measure 64
1030
1000
0010
0000
0100
0010
0200
0000
,  // measure 65
0301
0000
0000
0000
0000
0000
0000
0000
0000
0000
0000
0000
0000
0000
0000
0000
0000
0000
0000
0000
0000
0000
0000
0000
0001
0000
0000
0000
0000
0000
0000
0000
0000
0000
0000
0000
0000
0000
0000
0000
0000
0000
0000
0000
0000
0000
0000
0000
0100
0000
0000
0000
0000
0000
0000
0000
0000
0000
0000
0000
0000
0000
0000
0000
0000
0000
0000
0000
0000
0000
0000
0000
0000
0000
0000
0000
0000
0000
0000
0000
0000
0000
0000
0000
0000
0000
0000
0000
0000
0000
0000
0000
0000
0000
0000
0000
0010
0000
0000
0000
0000
0000
0000
0000
0000
0000
0000
0000
0000
0000
0000
0000
0000
0000
0000
0000
0000
0000
0000
0000
0100
0000
0000
0000
0000
0000
0000
0000
0000
0000
0000
0000
0000
0000
0000
0000
0000
0000
0000
0000
0000
0000
0000
0000
0020
0000
0000
0000
0000
0000
0000
0000
0000
0000
0000
0000
0000
0000
0000
0000
0000
0000
0000
0000
0000
0000
0000
0000
0000
0000
0000
0000
0000
0000
0000
0000
0000
0000
0000
0000
0000
0000
0000
0000
0000
0000
0000
0000
0000
0000
0000
0030
,  // measure 66
2000
0000
3200
0000
0320
0000
0031
1000
,  // measure 67
0020
0000
0230
0000
0302
0000
1003
0100
,  // measure 68
0020
0000
0032
0000
2003
0000
3010
0100
,  // measure 69
0002
0000
2003
0000
3100
0000
0010
0001
,  // measure 70
1000
0000
0000
0000
,  // measure 71
2000
3200
0320
0032
,  // measure 72
0013
0000
0010
0001
0000
0001
1000
0000
1000
0100
0000
0000
,  // measure 73
0002
0203
0320
2030
,  // measure 74
3001
0010
0100
1000
0000
0000
0100
0000
0000
0110
0000
0000
,  // measure 75
0002
2003
3020
0230
,  // measure 76
0301
0010
0100
1000
0000
0000
0001
0010
0100
1000
0000
0000
,  // measure 77
2000
3020
0230
0302
,  // measure 78
1003
0100
0010
0001
0010
0100
1000
0001
0010
0100
0000
0000
,  // measure 79
1000
1000
0010
0100
0100
0010
0100
0010
,  // measure 80
1000
1100
2002
3003
,  // measure 81
1000
1000
0010
0100
0100
0010
0100
0010
,  // measure 82
1000
0000
0010
0100
0110
0000
1000
0000
,  // measure 83
0001
0001
0010
0100
0100
0010
0001
1000
,  // measure 84
0001
1100
2002
3003
,  // measure 85
0100
0100
0001
0100
0100
0010
0100
1000
,  // measure 86
0100
0000
0001
1000
1001
0000
0110
0000
,  // measure 87
1000
0010
1000
0001
0100
0010
0001
0010
,  // measure 88
1000
0100
0010
0001
0100
1000
0100
0000
,  // measure 89
0100
0010
1000
0010
0100
0001
0010
1000
,  // measure 90
0010
0100
0010
0001
0100
0010
0100
0000
,  // measure 91
0100
0001
0010
0001
0100
0010
1000
0001
,  // measure 92
0100
0010
1000
0100
0010
0100
0001
0000
,  // measure 93
0001
0100
0010
0001
0010
0100
1000
0010
,  // measure 94
0100
0001
0010
0100
0010
0001
0100
0000
,  // measure 95
0110
0000
0001
0010
0100
1000
0000
0000
,  // measure 96
1000
0000
0100
0000
0010
0000
0001
0000
0100
0010
0100
0000
0001
0000
0000
0000
,  // measure 97
1001
0000
0001
0100
0010
0100
1000
0100
,  // measure 98
0001
0000
1000
0000
0100
0000
0010
0000
0001
1000
0001
0000
0010
0000
0000
0000
,  // measure 99
1001
0000
0001
0010
0100
1000
0000
0000
,  // measure 100
1000
0000
0100
0000
0010
0000
0001
0000
0010
0100
0010
0000
0001
0000
0000
0000
,  // measure 101
1001
0000
0001
0100
0010
0100
1000
0100
,  // measure 102
0001
0000
1000
0000
0100
0000
0010
0000
0001
1000
0001
0000
1001
0000
0000
0000
,  // measure 103
2000
0000
0000
0100
0000
0000
3020
0000
,  // measure 104
0000
0100
0000
0000
2030
0000
0000
0010
,  // measure 105
0000
0000
3002
0000
0000
0010
0000
0000
,  // measure 106
0203
0000
0000
1000
0000
0000
0302
0000
,  // measure 107
0000
1000
0000
0000
0023
0000
0000
0100
,  // measure 108
0000
0000
0032
0000
0000
0100
0000
0000
,  // measure 109
0023
0000
0000
0001
0000
0000
0230
0000
,  // measure 110
0000
1000
0000
0000
0320
0000
0000
2000
,  // measure 111
0030
0000
0200
3000
0000
0002
0300
0000
,  // measure 112
0020
0003
0000
0002
0030
0000
0200
0003
,  // measure 113
0000
2000
0300
0000
0002
3000
0000
0020
,  // measure 114
0003
0000
0200
0030
0000
0000
0000
0000
,  // measure 115
0000
0300
0000
2000
0000
0010
0000
3100
,  // measure 116
0000
0002
0000
0100
0000
1003
0000
0200
,  // measure 117
0000
0010
0000
0301
0000
0020
0000
0100
,  // measure 118
0000
1030
0000
1000
0010
1000
0000
1100
,  // measure 119
0000
0001
0010
0001
0000
0011
0000
0100
,  // measure 120
0020
0100
0000
0130
0000
1000
0001
0200
,  // measure 121
0000
0000
0000
0000
0000
0000
0000
0301
,  // measure 122
2000
0000
3002
0000
0003
0100
0010
0100
,  // measure 123
0010
1000
0000
0010
0100
0010
0100
0001
,  // measure 124
1000
0010
0100
0001
1000
0100
0010
0001
,  // measure 125
0100
0000
0010
0000
0100
0010
1000
0001
0010
0000
0100
0000
0010
0000
0100
0000
,  // measure 126
1000
0001
0010
0100
1000
0001
0100
0010
,  // measure 127
1000
0000
0100
0000
0010
0000
0100
0010
0001
1000
0100
0000
0010
0000
0100
0000
,  // measure 128
0010
0001
1000
0100
0010
0001
1000
0010
,  // measure 129
0100
0000
0001
0000
0010
0000
0100
0000
0010
0100
1000
0001
0100
0000
0010
0000
,  // measure 130
0100
0010
1000
0001
0100
0010
1000
0001
,  // measure 131
0010
0000
0100
0000
1000
0000
0010
0000
0100
0000
0001
0000
0010
0000
0100
1000
,  // measure 132
0200
0000
1000
0000
0300
0000
1000
0001
2000
0000
0001
0000
3000
0000
0001
0010
,  // measure 133
0001
0000
0100
0010
0100
0000
0010
1000
0010
0000
1000
0100
1000
0000
0001
0000
,  // measure 134
1000
0000
0100
1000
0000
0010
0000
0010
,  // measure 135
0100
0010
0100
0000
0001
0100
0000
0010
,  // measure 136
0000
0001
1000
0001
1000
0000
1000
0100
,  // measure 137
0000
0100
0000
0010
0001
0010
0001
0000
,  // measure 138
0100
0001
0000
1000
0000
0001
0000
0010
,  // measure 139
1000
0000
0001
0100
0010
1000
0000
0010
,  // measure 140
0010
0100
0001
0000
0100
0010
0000
0100
,  // measure 141
0000
0001
1000
0010
1000
0000
0010
0100
,  // measure 142
0000
0010
0000
0001
0001
1000
0100
0000
,  // measure 143
1000
0001
0000
0200
0000
0310
0010
1000
,  // measure 144
0001
0000
0100
0001
0000
0010
0000
0010
,  // measure 145
0100
0010
0100
0000
1000
0100
0000
0010
,  // measure 146
0000
1000
0001
1000
0001
0000
0001
0100
,  // measure 147
0000
0100
0000
0010
1000
0010
1000
0000
,  // measure 148
0100
1000
0000
0001
0000
1000
0000
0010
,  // measure 149
0001
0000
1000
0100
0010
0001
0000
0010
,  // measure 150
0010
0100
1000
0000
0100
0010
0000
0100
,  // measure 151
0000
1000
0001
0010
0001
0000
0010
0100
,  // measure 152
0000
0010
0000
1000
1000
0001
0100
0000
,  // measure 153
0001
1000
0000
0200
0000
0310
0010
0001
,  // measure 154
1001
0000
1100
1000
0000
1010
0000
0010
,  // measure 155
0100
0010
0110
0000
0101
0100
0000
0011
,  // measure 156
0000
0001
1000
0001
1001
0000
1100
0100
,  // measure 157
0000
0110
0000
0010
0001
0010
0011
0000
,  // measure 158
0101
0001
0000
1000
0000
1001
0000
0010
,  // measure 159
1010
0000
0101
0100
0010
1000
0000
0010
,  // measure 160
0010
0100
0101
0000
0110
0010
0000
1100
,  // measure 161
0000
0001
1000
0010
1010
0000
0110
0100
,  // measure 162
0000
0011
0000
0001
0001
1000
1100
0000
,  // measure 163
1001
0001
0000
0200
0000
0310
0010
1000
,  // measure 164
0100
0000
0010
0000
0001
0000
1000
0000
0100
0000
0010
0001
0100
0000
0010
0000
,  // measure 165
1000
0000
0100
0000
0010
0000
0001
0000
0100
0000
0010
0000
1000
0000
0001
0010
,  // measure 166
0100
0000
1000
0000
0001
0000
0010
0000
0001
0010
0100
0000
1000
0000
0001
0000
,  // measure 167
0010
0000
0100
1000
0100
0000
1000
0000
0100
0000
0010
0000
0001
1000
0100
0000
,  // measure 168
0010
0000
0001
0000
0100
0000
0010
0100
0010
0000
0100
0000
0001
0000
1000
0000
,  // measure 169
0001
0000
0010
0000
0001
0000
1000
0000
0001
0000
0010
0100
1000
0000
0010
1000
,  // measure 170
0010
0000
0100
0000
0001
0000
0100
0000
0010
0000
0100
0000
1000
0000
0100
0010
,  // measure 171
0100
0000
0001
0010
0100
0000
1000
0000
0100
0000
1000
0000
0001
0000
1000
0000
,  // measure 172
0010
0000
1000
0001
0100
0000
0010
1000
0100
0000
0010
0000
0001
0100
0001
1000
,  // measure 173
0001
0000
1000
0010
1000
0001
1000
0000
0001
0000
1000
0000
0001
0000
0000
0000
,  // measure 174
1002
0000
0000
0000
0000
0000
0000
0000
0000
0000
1003
0100
0010
0001
0010
0100
,  // measure 175
1000
0100
0010
0001
0200
0000
0000
0000
0000
0000
0000
0000
0000
0000
0301
0010
,  // measure 176
0001
1000
0010
1000
0001
0010
0100
1000
0002
0000
0000
0000
0000
0000
0000
0000
,  // measure 177
0000
0000
1003
0100
0010
0001
0010
0100
1000
0100
0010
0001
0200
0000
0000
0000
,  // measure 178
0000
0000
0000
0000
0000
0000
0301
0010
0001
1000
0010
1000
0001
0010
0100
1000
,  // measure 179
0002
0203
2300
3200
,  // measure 180
0301
0010
0100
2000
0002
0000
0000
0000
0000
0000
0000
0000
0000
0000
0000
0000
,  // measure 181
0000
3003
0000
0000
;
