#TITLE:Wings of an Angel (Fly With Me);
#SUBTITLE:Full Song;
#ARTIST:J-Mi and Midi-D;
#TITLETRANSLIT:;
#SUBTITLETRANSLIT:;
#ARTISTTRANSLIT:;
#CREDIT:;
#BANNER:Wings of an Angel (Fly With Me) (Full Song).png;
#BACKGROUND:Wings of an Angel (Fly With Me) (Full Song)-bg.png;
#LYRICSPATH:;
#CDTITLE:./CDTITLES/DanceDanceRevolution II.png;
#MUSIC:Wings of an Angel (Fly With Me) (Full Song).ogg;
#OFFSET:0.000;
#SAMPLESTART:157.700;
#SAMPLELENGTH:15.000;
#SELECTABLE:YES;
#DISPLAYBPM:175.000;
#BPMS:0.000=175.001;
#STOPS:;
#BGCHANGES:;

//---------------dance-single - ----------------
#NOTES:
     dance-single:
     :
     Beginner:
     2:
     0.120,0.214,0.005,0.054,0.000:
0000
0000
0000
0000
,
0000
0000
0000
0000
,
0000
0000
0000
0000
,
0000
0000
0000
0000
,
0000
0000
0000
0000
,
0000
0000
0000
0000
,
0000
0000
0000
0000
,
0000
0000
0000
0000
,
0000
0000
0000
0000
,
1000
0000
0000
0000
,
0001
0000
0000
0000
,
1000
0000
0000
0000
,
0001
0000
0000
0000
,
1000
0000
0000
0000
,
0001
0000
0000
0000
,
1000
0000
0000
0000
,
0000
0000
0000
0000
,
0001
0000
0000
0000
,
0001
0000
0000
0000
,
1000
0000
0000
0000
,
1000
0000
0000
0000
,
0001
0000
0000
0000
,
0001
0000
0000
0000
,
1000
0000
0000
0000
,
1000
0000
0000
0000
,
0001
0000
0001
0000
,
0001
0000
0000
0000
,
1000
0000
1000
0000
,
1000
0000
0000
0000
,
0001
0000
0001
0000
,
0001
0000
0000
0000
,
1000
0000
1000
0000
,
1000
0000
0000
0000
,
0000
0000
0000
0000
,
0010
0000
0000
0000
,
0010
0000
0000
0000
,
0010
0000
0000
0000
,
0010
0000
0000
0000
,
0100
0000
0000
0000
,
0100
0000
0000
0000
,
0100
0000
0000
0000
,
0100
0000
0000
0000
,
0001
0000
0000
0000
,
0010
0000
0000
0000
,
1000
0000
0000
0000
,
0010
0000
0000
0000
,
0001
0000
0000
0000
,
0010
0000
0000
0000
,
1000
0000
0000
0000
,
0010
0000
0000
0000
,
1000
0000
0000
0000
,
0010
0000
0000
0000
,
1000
0000
0000
0000
,
0010
0000
0000
0000
,
0001
0000
0000
0000
,
0010
0000
0000
0000
,
0001
0000
0000
0000
,
0010
0000
0000
0000
,
1000
0000
0000
0000
,
0010
0000
0000
0000
,
1000
0000
0000
0000
,
0010
0000
0000
0000
,
0001
0000
0000
0000
,
0010
0000
0000
0000
,
0001
0000
0000
0000
,
0010
0000
0000
0000
,
0000
0000
0000
0000
,
0001
0000
0001
0000
,
1000
0000
1000
0000
,
0001
0000
1000
0000
,
0001
0000
0000
0000
,
0001
0000
0001
0000
,
1000
0000
1000
0000
,
0001
0000
1000
0000
,
0001
0000
0000
0000
,
1000
0000
1000
0000
,
0001
0000
0001
0000
,
1000
0000
0001
0000
,
1000
0000
0000
0000
,
1000
0000
1000
0000
,
0001
0000
0001
0000
,
1000
0000
0001
0000
,
1000
0000
0000
0000
,
0001
0001
0001
0000
,
1000
1000
1000
0000
,
0001
0000
1000
0000
,
0001
0000
0000
0000
,
1000
1000
1000
0000
,
0001
0001
0001
0000
,
1000
0000
0001
0000
,
1000
0000
0000
0000
,
0002
0000
0000
0003
,
0000
0000
0000
0000
,
2000
0000
0000
3000
,
0000
0000
0000
0000
,
0002
0000
0000
0003
,
0000
0000
0000
0000
,
2000
0000
0000
3000
,
0000
0000
0000
0000
,
0001
0000
1000
0000
,
0001
0000
0000
0000
,
0010
0000
0100
0000
,
0010
0000
0000
0000
,
0001
0000
1000
0000
,
0001
0000
0000
0000
,
0010
0000
0100
0000
,
0010
0000
0000
0000
,
1000
0000
0001
0000
,
1000
0000
0000
0000
,
0010
0000
0100
0000
,
0010
0000
0000
0000
,
1000
0000
0001
0000
,
1000
0000
0000
0000
,
0010
0000
0100
0000
,
0010
0000
0000
0000
,
0001
0000
0000
0000
,
0001
0000
0000
0000
,
1000
0000
0000
0000
,
1000
0000
0000
0000
,
0001
0000
0000
0000
,
0001
0000
0000
0000
,
1000
0000
0000
0000
,
1000
0000
0000
0000
,
0002
0000
0000
0000
,
0000
0000
0003
0000
,
2000
0000
0000
0000
,
0000
0000
3000
0000
,
0002
0000
0000
0000
,
0000
0000
0003
0000
,
2000
0000
0000
0000
,
0000
0000
3000
0000
,
2002
0000
0000
0000
,
0000
0000
0000
3003
,
;

//---------------dance-single - ----------------
#NOTES:
     dance-single:
     :
     Easy:
     4:
     0.184,0.285,0.032,0.107,0.000:
0000
0000
0000
0000
,
0000
0000
0000
0000
,
0000
0000
0000
0000
,
0000
0000
0000
0000
,
0000
0000
0000
0000
,
0000
0000
0000
0000
,
0000
0000
0000
0000
,
0000
0000
0000
0000
,
0000
0000
0000
0000
,
0001
0001
0001
0000
,
1000
1000
1000
0000
,
0010
0010
0010
0000
,
0100
0000
0000
0000
,
1000
1000
1000
0000
,
0001
0001
0001
0000
,
0010
0010
0010
0000
,
0000
0000
0000
0000
,
1000
0000
0001
0000
,
1000
0000
0100
0000
,
1000
0000
0010
0000
,
2000
0000
3000
0000
,
0001
0000
1000
0000
,
0001
0000
0100
0000
,
0001
0000
0010
0000
,
0002
0000
0003
0000
,
1000
0000
0001
0000
,
1000
0000
0100
0000
,
1000
0000
0010
0000
,
2000
0000
3000
0000
,
0001
0000
1000
0000
,
0001
0000
0100
0000
,
0001
0000
0010
0000
,
0002
0000
0003
0000
,
0000
0000
0000
0000
,
1000
0000
0000
0000
,
0000
0000
0000
0000
,
0001
0000
0000
0000
,
0000
0000
0000
0000
,
1000
0000
0000
0000
,
0000
0000
0000
0000
,
0001
0000
0000
0000
,
0000
0000
0000
0000
,
1000
0000
0000
0000
,
0100
0000
0000
0000
,
0010
0000
0000
0000
,
0001
0000
0000
0000
,
1000
0000
0000
0000
,
0100
0000
0000
0000
,
0010
0000
0000
0000
,
0001
0000
0000
0000
,
0010
0000
0000
0000
,
0100
0000
0000
0000
,
0001
0000
0000
0000
,
1000
0000
0000
0000
,
0010
0000
0000
0000
,
0100
0000
0000
0000
,
0001
0000
0000
0000
,
1000
0000
0000
0000
,
0010
0000
0010
0000
,
0100
0000
0100
0000
,
0001
0000
0001
0000
,
1000
0000
1000
0000
,
0010
0000
0010
0000
,
0100
0000
0100
0000
,
0001
0000
0001
0000
,
1000
0000
1000
0000
,
0000
0000
0000
0000
,
0010
0000
1000
0000
,
0100
0000
0010
0000
,
0001
0000
0100
0000
,
0010
0010
0010
0000
,
0010
0000
1000
0000
,
0100
0000
0010
0000
,
0001
0000
0100
0000
,
0010
0010
0010
0000
,
1000
1000
0100
0000
,
0100
0100
0010
0000
,
0010
0010
0001
0000
,
0001
0001
1000
0000
,
0001
0001
0100
0000
,
0100
0100
0010
0000
,
0010
0010
1000
0000
,
1001
0000
0000
0000
,
0001
1000
0001
0000
,
1000
0001
1000
0000
,
0010
0100
0010
0000
,
0100
0010
0100
0000
,
1000
0001
1000
0000
,
0001
1000
0001
0000
,
0010
0100
0010
0000
,
0100
0010
0100
0000
,
2000
0000
0000
0000
,
0000
0000
0000
3000
,
0002
0000
0000
0000
,
0000
0000
0000
0003
,
2000
0000
0000
0000
,
0000
0000
0000
3000
,
0002
0000
0000
0000
,
0000
0000
0003
0000
,
1000
0001
1000
1000
,
0001
0000
0000
0000
,
0100
0010
0100
0100
,
0010
0000
0000
0000
,
0001
1000
0001
0001
,
1000
0000
0000
0000
,
0100
0010
0100
0100
,
0010
0000
0000
0000
,
1000
0001
1000
0001
,
1001
0000
0000
0000
,
0100
0010
0100
0010
,
0110
0000
0000
0000
,
0001
1000
0001
1000
,
1001
0000
0000
0000
,
0100
0010
0100
0010
,
0110
0000
0000
0000
,
1000
0000
0001
0000
,
1000
0000
0100
0000
,
1000
0000
0010
0000
,
2000
0000
3000
0000
,
0001
0000
1000
0000
,
0001
0000
0100
0000
,
0001
0000
0010
0000
,
0002
0000
0003
0000
,
2000
0000
0000
3000
,
0200
0000
0000
0300
,
0020
0000
0000
0030
,
0002
0000
0000
0003
,
2000
0000
0000
3000
,
0020
0000
0000
0030
,
0200
0000
0000
0300
,
0002
0000
0000
0003
,
2002
0000
0000
0000
,
0000
0000
0000
3003
,
;

//---------------dance-single - ----------------
#NOTES:
     dance-single:
     :
     Medium:
     8:
     0.389,0.534,0.123,0.107,0.000:
0000
0000
0000
0000
,
0000
0000
0000
0000
,
0000
0000
0000
0000
,
0000
0000
0000
0000
,
0000
0000
0000
0000
,
0000
0000
0000
0000
,
0000
0000
0000
0000
,
0000
0000
0000
0000
,
0000
0000
0000
0000
,
1000
1000
1000
1000
,
0100
0100
0100
0100
,
0010
0010
0010
0010
,
0001
0001
0001
0001
,
1000
1000
0100
1000
,
0100
0100
0010
0100
,
0010
0010
0001
0010
,
0001
1000
0001
1000
0001
0000
1001
0000
,
1000
0010
1000
0010
,
0100
0001
0001
1000
,
0100
0010
0001
0000
0100
0000
0100
0000
,
0020
0100
0130
0000
,
0001
0010
0001
0010
,
0100
1000
1000
0001
,
0100
0010
1000
0000
0100
0000
0100
0000
,
1001
0110
1001
0000
,
1000
0010
1000
0001
,
0100
0010
0001
1000
,
0100
0010
0001
0000
1000
0000
0100
0000
,
0020
0001
0130
0000
,
0001
0010
0001
1000
,
0100
0010
1000
0001
,
0100
0010
1000
0000
0001
0000
0100
0000
,
1001
0110
1001
0110
,
0000
0000
0000
0000
,
0001
0000
0001
0000
0001
0000
0000
1000
,
0000
1000
0000
1000
1000
0000
0000
0000
,
0010
0000
0010
0000
0010
0000
0000
0100
,
0000
0100
0000
0100
0100
0000
0000
0000
,
0001
0000
0100
0000
0001
0000
0000
1000
,
0000
0010
0000
1000
1000
0000
0000
0000
,
0010
0000
1000
0000
0010
0000
0000
0100
,
0000
0001
0000
0100
0100
0000
0000
0000
,
0100
0000
0010
0000
,
1000
0000
0100
0000
,
0001
0000
0010
0000
,
1000
0001
0100
0000
,
0100
0000
0010
0000
,
0001
0000
0100
0000
,
1000
0000
0010
0000
,
0001
1000
0100
0010
,
0001
0010
1000
0010
,
0001
0100
1000
0100
,
1000
0100
0001
0100
,
0010
1000
0001
0000
,
1000
0010
0001
0010
,
1000
0100
0001
0100
,
0001
0001
0010
0000
,
1000
0001
0100
0110
,
1000
0010
0001
0010
,
1000
0100
0001
0100
,
0001
0100
1000
0100
,
0010
0001
1000
0000
,
0001
0010
1000
0010
,
0001
0100
1000
0100
,
1000
0010
0001
0100
,
0100
0100
0010
0010
,
0100
0000
0000
1001
,
1000
0000
1000
0000
1000
0100
0001
0000
,
0010
0000
0010
0000
0001
0100
1000
0000
,
0010
0100
0010
0000
0100
0000
0100
0000
,
0001
1000
0010
0100
0001
0000
0000
0000
,
0001
0000
0001
0000
0001
0100
1000
0000
,
0010
0000
0010
0000
1000
0100
0001
0000
,
0010
0100
0010
0000
0100
0000
0100
0000
,
1000
0001
0010
0100
1000
0000
0000
0000
,
1000
0100
1000
0000
1000
0100
0001
0000
,
0010
0100
0010
0000
0001
0100
1000
0000
,
0010
0100
0010
0000
0100
0010
0100
0000
,
0001
1000
0010
0100
0001
0000
1000
0000
,
0001
0100
0001
0000
0001
0100
1000
0000
,
0010
0100
0010
0000
1000
0100
0001
0000
,
0010
0100
0010
0000
0100
0010
0100
0000
,
1000
0000
0001
1001
,
1000
0100
1000
0100
1000
0100
0010
0000
,
0010
0100
1000
0000
0001
0100
1000
0000
,
0010
0100
0010
0000
1000
0001
1000
0000
,
0100
0010
0100
0010
0100
0000
0110
0000
,
0001
0100
0001
0100
0001
0100
0010
0000
,
0010
0100
0001
0000
1000
0100
0001
0000
,
0010
0100
0010
0000
0001
1000
0001
0000
,
0100
1001
0010
1001
,
0002
0000
0000
0000
,
2000
0003
0000
0000
,
0020
3000
0000
0000
,
0200
0030
0000
0310
,
2000
0000
0000
0000
,
0002
3000
0000
0000
,
0020
0003
0000
0000
,
0100
0100
0100
0130
,
1000
0001
0000
0100
0000
0100
0000
0010
,
0000
1000
0000
0001
0000
1000
0000
0100
,
0010
0100
0000
0010
0000
0010
0000
1000
,
0000
0100
0000
0001
0000
0100
0000
1000
,
0001
1000
0000
0100
0000
0100
0000
0010
,
0000
0001
0000
1000
0000
0001
0000
0100
,
0010
0100
0000
0010
0000
0010
0000
0001
,
0000
0100
0000
1000
0000
0100
0000
0001
,
1000
0001
0000
0100
0000
0110
0000
0010
,
0000
1000
0000
1001
0000
1000
0000
0100
,
0010
0100
0000
0010
0000
0110
0000
1000
,
0000
0100
0000
1001
0000
0100
0000
1000
,
0001
1000
0000
0100
0000
0110
0000
0010
,
0000
0001
0000
1001
0000
0001
0000
0100
,
0010
0100
0000
0010
0000
0110
0000
0001
,
1000
0000
0000
0000
,
1000
0010
0001
0010
,
0100
0001
0010
1000
,
0100
0001
0100
0100
,
0120
0100
0130
0000
,
0001
1000
0001
0010
,
0100
1000
0010
0001
,
0100
1000
0100
0100
,
1000
0001
1000
0000
0001
1000
0001
0000
,
2000
0000
0000
0000
,
3020
0000
0000
0000
,
0032
0000
0000
0000
,
0203
0000
0000
0300
,
0002
0000
0000
0000
,
0023
0000
0000
0000
,
2030
0000
0000
0000
,
3200
0000
0000
0300
,
2002
0000
0000
0000
,
0000
0000
0000
3003
,
;

//---------------dance-single - ----------------
#NOTES:
     dance-single:
     :
     Hard:
     12:
     0.515,0.676,0.145,0.134,0.172: // measure 1
0000
0000
0000
0000
,  // measure 2
0000
0000
0000
0000
,  // measure 3
0000
0000
0000
0000
,  // measure 4
0000
0000
0000
0000
,  // measure 5
0000
0000
0000
0000
,  // measure 6
0000
0000
0000
0000
,  // measure 7
0000
0000
0000
0000
,  // measure 8
0000
0000
0000
0000
,  // measure 9
0000
0000
0000
0000
,  // measure 10
1000
1000
1000
1000
,  // measure 11
0010
0010
0010
0010
,  // measure 12
0001
0001
0001
0001
,  // measure 13
0100
0100
0100
0100
,  // measure 14
1010
1000
1000
1000
,  // measure 15
0110
0010
0010
0010
,  // measure 16
0101
0001
0001
0001
,  // measure 17
0100
0100
0010
0010
0100
0000
0110
0000
,  // measure 18
1000
0000
0010
0000
1000
0100
0010
0000
,  // measure 19
0001
0100
0001
0010
0001
0000
1000
0000
,  // measure 20
0100
0010
0001
0000
0010
0100
0001
0000
,  // measure 21
0020
0100
0031
0000
,  // measure 22
0001
0000
0010
0000
0001
0100
0010
0000
,  // measure 23
1000
0100
1000
0010
1000
0000
0001
0000
,  // measure 24
0100
0010
1000
0000
0010
0100
1000
0000
,  // measure 25
0110
1001
0110
0000
,  // measure 26
1000
0000
0010
0001
1000
0100
0010
0000
,  // measure 27
0001
0100
0001
0010
0001
0100
1000
0000
,  // measure 28
0100
0010
0001
0000
0010
0100
0001
0100
,  // measure 29
0020
0100
0031
1001
,  // measure 30
0001
0000
0010
1000
0001
0100
0010
0000
,  // measure 31
1000
0100
1000
0010
1000
0100
0001
0000
,  // measure 32
0100
0010
1000
0000
0010
0100
1000
0100
,  // measure 33
0110
1001
0110
1001
,  // measure 34
0100
0000
0000
0000
,  // measure 35
1000
0000
0100
0000
0010
0000
0000
0001
,  // measure 36
0000
1000
0000
0001
0001
0000
0000
0000
,  // measure 37
0100
0000
0010
0000
0001
0000
0000
1000
,  // measure 38
0000
0100
0000
1000
1000
0000
0000
0000
,  // measure 39
0001
0000
0100
0000
0020
0000
0000
1000
,  // measure 40
0000
0001
0000
1000
2000
0000
3030
0000
,  // measure 41
0100
0000
0010
0000
2000
0000
0000
0001
,  // measure 42
0000
0100
0000
0001
0002
0000
3003
0000
,  // measure 43
0100
0000
0010
0000
,  // measure 44
1000
0000
0100
0000
,  // measure 45
0001
0000
0010
0000
,  // measure 46
1000
0001
0100
0000
,  // measure 47
0100
0000
0010
0000
,  // measure 48
0001
0000
0100
0000
,  // measure 49
1000
0000
0010
0000
,  // measure 50
0001
1000
0100
0010
,  // measure 51
0001
0000
0010
0000
0000
0100
0010
0000
,  // measure 52
0001
0000
0100
0000
0000
0010
0000
0010
,  // measure 53
1000
0000
0100
0000
0000
1000
0100
0000
,  // measure 54
0010
0000
0001
0000
0000
0100
0000
0100
,  // measure 55
1000
0000
0010
0000
0000
0100
0010
0000
,  // measure 56
1000
0000
0001
0000
0000
0010
0000
0010
,  // measure 57
1000
0001
0010
0000
,  // measure 58
1000
0001
0100
0110
,  // measure 59
0001
0000
0010
0000
0000
0100
0010
0000
,  // measure 60
0001
0000
0100
0000
0000
0010
0000
0010
,  // measure 61
1000
0000
0100
0000
0000
1000
0100
0000
,  // measure 62
0010
0000
0001
0000
0000
0100
0000
0100
,  // measure 63
1000
0000
0010
0000
0000
0100
0010
0000
,  // measure 64
1000
0000
0001
0000
0000
0010
0000
0010
,  // measure 65
0001
0000
0100
0000
0000
0001
0100
0000
,  // measure 66
0001
0000
1000
0000
0100
0010
0100
0000
,  // measure 67
0020
0000
0030
1001
,  // measure 68
0010
0000
0001
0000
0010
0001
0000
0000
1000
0000
0000
0001
0000
0000
0010
0000
,  // measure 69
0001
0000
0100
0000
0001
0100
0000
0000
0001
0000
0000
0001
0000
0000
0001
0000
,  // measure 70
0100
0000
0010
0000
0100
0010
0000
0000
1000
0000
0000
0100
0000
0000
0010
0000
,  // measure 71
0000
0000
0001
0000
0000
0001
0000
0000
1000
0000
0000
0010
0000
0000
1000
0000
,  // measure 72
0010
0000
1000
0000
0010
1000
0000
0000
0001
0000
0000
1000
0000
0000
0010
0000
,  // measure 73
1000
0000
0100
0000
1000
0100
0000
0000
1000
0000
0000
1000
0000
0000
1000
0000
,  // measure 74
0100
0000
0010
0000
0100
0010
0000
0000
0001
0000
0000
0100
0000
0000
0010
0000
,  // measure 75
0010
0000
0100
0000
0000
0100
0000
0000
0010
0000
0000
0100
0000
0000
0010
0000
,  // measure 76
1000
0000
0001
1000
0000
0001
1000
0000
0100
0000
0010
0000
0001
0000
0000
0000
,  // measure 77
0100
0000
0010
1000
0000
0010
1000
0000
0100
0000
0001
0000
0100
0000
0000
0000
,  // measure 78
0010
0000
0001
0100
0000
0001
0100
0000
0010
0000
1000
0000
0001
0000
1000
0000
,  // measure 79
0100
0000
0001
0100
0000
0001
0100
0000
1000
0000
0000
0000
1001
0000
0000
0000
,  // measure 80
0001
0000
1000
0001
0000
1000
0001
0000
0100
0000
0010
0000
1000
0000
0000
0000
,  // measure 81
0100
0000
0010
0001
0000
0010
0001
0000
0100
0000
1000
0000
0100
0000
0000
0000
,  // measure 82
0010
0000
1000
0100
0000
1000
0100
0000
0010
0000
0001
0000
1000
0000
0001
0000
,  // measure 83
0100
0000
0000
0000
0010
0010
0010
0000
,  // measure 84
1000
0000
0100
0010
0000
0001
0100
0000
0001
0000
0100
0000
1000
0000
0000
0000
,  // measure 85
0010
0000
0100
0001
0000
1000
0010
0000
0001
0000
0010
0000
0100
0000
0000
0000
,  // measure 86
0001
0000
0100
0010
0000
1000
0001
0000
0010
0000
0100
0000
1000
0000
0100
0000
,  // measure 87
0010
0000
0001
1000
0000
0010
0001
0000
1000
0000
0000
0000
1001
0000
0000
0000
,  // measure 88
0001
0000
0100
0010
0000
1000
0100
0000
1000
0000
0100
0000
0001
0000
0000
0000
,  // measure 89
0010
0000
0100
1000
0000
0001
0010
0000
1000
0000
0010
0000
0100
0000
0000
0000
,  // measure 90
1000
0000
0100
0010
0000
0001
1000
0000
0010
0000
0100
0000
0001
0000
0100
0000
,  // measure 91
0110
0000
1001
0000
0010
0010
0100
0100
,  // measure 92
0020
0000
0000
0000
,  // measure 93
2000
0000
0000
0030
,  // measure 94
0002
0000
0000
3000
,  // measure 95
0200
0000
0000
0000
0003
0000
0310
0100
,  // measure 96
0020
0000
0000
0000
,  // measure 97
2000
0000
0000
0030
,  // measure 98
0002
0000
0000
3000
,  // measure 99
0103
0010
0100
0010
1000
0001
1000
0001
,  // measure 100
1000
0000
1000
0000
0000
0000
0100
0000
0000
0000
0100
0000
0000
0000
1000
0100
,  // measure 101
1000
0000
0001
0100
0001
0000
1000
0100
0010
0000
0010
0000
0010
0000
0000
0000
,  // measure 102
0100
0000
0100
0000
0000
0000
0001
0000
0000
0000
0001
0000
0000
0000
0100
0010
,  // measure 103
0100
0000
0001
1000
0001
0000
0100
0000
0010
0000
0010
0000
0000
0000
0100
0000
,  // measure 104
0001
0000
0001
0000
0000
0000
0100
0000
0000
0000
0100
0000
0000
0000
0001
0100
,  // measure 105
0001
0000
1000
0100
1000
0000
0001
0100
0010
0000
0010
0000
0010
0000
0000
0000
,  // measure 106
0100
0000
0100
0000
0000
0000
1000
0000
0000
0000
0011
0000
0000
0000
0100
0010
,  // measure 107
0100
0000
1000
0001
1000
0000
0100
0000
0010
0000
0010
0000
0100
0000
0100
0000
,  // measure 108
0001
0000
0001
0000
0000
0000
0100
0000
0000
0000
0110
0000
0000
0000
0001
0100
,  // measure 109
0001
0000
1000
0100
1000
0000
0001
1000
0010
0000
0010
0000
0010
0000
0000
0000
,  // measure 110
0100
0000
0100
0000
0000
0000
1000
0000
0000
0000
1010
0000
0000
0000
0100
0010
,  // measure 111
0100
0000
1000
0001
1000
0000
0100
0000
0010
0000
0010
0000
0000
0000
0110
0000
,  // measure 112
1000
0000
1000
0000
0000
0000
0100
0000
0000
0000
0110
0000
0000
0000
1000
0100
,  // measure 113
1000
0000
0001
0100
0001
0000
1000
0001
0010
0000
0010
0000
0010
0000
0000
0000
,  // measure 114
0100
0000
0100
0000
0000
0000
0001
0000
0000
0000
1001
0000
0000
0000
0100
0010
,  // measure 115
0100
0000
0001
1000
0001
0000
0100
0000
0010
0000
0010
0000
0110
0000
0000
0000
,  // measure 116
1000
0001
0010
0000
1000
0100
0010
0000
,  // measure 117
0001
0100
0001
0000
0001
0000
1000
0000
,  // measure 118
0100
0010
0001
1000
0010
0100
0001
0000
,  // measure 119
0020
0100
0031
1100
,  // measure 120
0001
1000
0010
0000
0001
0100
0010
0000
,  // measure 121
1000
0100
1000
0000
1000
0000
0001
0000
,  // measure 122
0100
0010
1000
0001
0010
0100
1000
0000
,  // measure 123
0001
0100
0001
0100
0010
1000
0010
1000
,  // measure 124
0200
0000
0010
0010
,  // measure 125
2300
0000
0100
0100
,  // measure 126
3002
0000
0010
0010
,  // measure 127
0203
0010
0310
0000
,  // measure 128
0200
0000
0010
0010
,  // measure 129
0302
0000
0100
0100
,  // measure 130
2003
0000
0010
0010
,  // measure 131
3200
0010
0310
0100
,  // measure 132
2002
0000
0000
0000
,  // measure 133
0000
0000
0000
3003
;
