#TITLE:Whip My Hair;
#SUBTITLE:Short Song;
#ARTIST:Willow;
#TITLETRANSLIT:;
#SUBTITLETRANSLIT:;
#ARTISTTRANSLIT:;
#CREDIT:;
#BANNER:Whip My Hair.png;
#BACKGROUND:Whip My Hair-bg.png;
#LYRICSPATH:;
#CDTITLE:./CDTITLES/DanceDanceRevolution II.png;
#MUSIC:../Whip My Hair (Full Song)/Whip My Hair (Full Song).ogg;
#OFFSET:0.000;
#SAMPLESTART:61.780;
#SAMPLELENGTH:15.000;
#SELECTABLE:YES;
#DISPLAYBPM:81.000;
#BPMS:0.000=81.499;
#STOPS:;
#BGCHANGES:;

//---------------dance-single - ----------------
#NOTES:
     dance-single:
     :
     Beginner:
     3:
     0.030,0.055,0.020,0.000,0.000:
0000
0000
0000
0000
,
0000
0000
0000
0000
,
0000
0000
0000
0000
,
0000
0000
0000
0000
,
0000
0000
0000
0000
,
0001
0000
0000
0000
,
0001
0000
0000
0000
,
1001
0000
0000
0000
,
1001
0000
0000
0000
,
1000
0000
0000
0000
,
0100
0000
0000
0000
,
0010
0000
0000
0000
,
0001
0000
0000
0000
,
0010
0000
0000
0000
,
0100
0000
0000
0000
,
1000
0000
0000
0000
,
0010
0000
0000
0000
,
1000
0000
0000
0000
,
0001
0000
0000
0000
,
1000
0000
0000
0000
,
0001
0000
0000
0000
,
0010
0000
0000
0000
,
0100
0000
0000
0000
,
0010
0000
0000
0000
,
0100
0000
0000
0000
,
0001
0000
0010
0000
,
0001
0000
0001
0000
,
1001
0000
0000
0000
,
1001
0000
0000
0000
,
1000
0000
0001
0000
,
0100
0000
0001
0000
,
0010
0000
1000
0000
,
0001
0000
0000
0000
,
0010
0000
0000
0000
,
0100
0000
0000
0000
,
1000
0000
0001
0000
,
0010
0000
0000
0000
,
;

//---------------dance-single - ----------------
#NOTES:
     dance-single:
     :
     Easy:
     5:
     0.075,0.083,0.020,0.000,0.000: // measure 1
0000
0000
0000
0000
,  // measure 2
0000
0000
0000
0000
,  // measure 3
0000
0000
0000
0000
,  // measure 4
0000
0000
0000
0000
,  // measure 5
0000
0000
0000
0000
,  // measure 6
1000
0001
0100
0000
,  // measure 7
0010
0010
1000
0001
,  // measure 8
0100
0010
0110
0000
,  // measure 9
1000
0001
1001
0000
,  // measure 10
0100
0000
0010
0000
,  // measure 11
0001
1000
0010
0100
,  // measure 12
0001
1000
0010
0000
,  // measure 13
0001
1000
0100
0000
,  // measure 14
0001
0010
0001
0010
,  // measure 15
1000
0100
0001
0000
,  // measure 16
0010
1000
0010
1000
,  // measure 17
0100
0001
0010
0000
,  // measure 18
1000
0000
1000
0000
,  // measure 19
0100
0000
0100
0000
,  // measure 20
0010
0000
0010
0000
,  // measure 21
0001
0000
0001
0000
,  // measure 22
1000
0100
1000
0000
,  // measure 23
0100
0010
0100
0000
,  // measure 24
0010
0001
0010
0000
,  // measure 25
0001
1000
0001
0000
,  // measure 26
0010
1000
0100
0000
,  // measure 27
0010
0100
0001
1000
,  // measure 28
0100
1000
1100
0000
,  // measure 29
0001
0010
0011
0000
,  // measure 30
0100
0100
0100
0000
,  // measure 31
1000
0100
0010
0100
,  // measure 32
0010
0010
0100
0000
,  // measure 33
0001
0001
0100
0000
,  // measure 34
1000
0010
1000
0010
,  // measure 35
0001
0100
1000
0000
,  // measure 36
0010
0001
0010
0001
,  // measure 37
0100
1000
0010
0000
;

//---------------dance-single - ----------------
#NOTES:
     dance-single:
     :
     Medium:
     8:
     0.134,0.148,0.091,0.000,0.000:
0000
0000
0000
0000
,
0000
0000
0000
0000
,
0000
0000
0000
0000
,
0000
0000
0000
0000
,
0000
0000
0000
0000
,
0100
0010
0001
0000
0100
1000
0010
0000
,
0100
0001
0010
0000
1000
0100
0001
0000
,
0010
1000
0100
0001
0010
0001
0100
0000
,
1000
1100
1100
0000
0010
0011
0011
0000
,
1000
1000
0100
0100
,
0010
0001
0001
0000
0100
0010
0010
0000
,
0001
0000
0100
0000
0001
0000
0100
0010
,
1000
0010
1000
0100
,
1000
1000
0100
0010
0100
0110
0110
0000
,
0001
0000
0101
0000
1000
0100
1100
0000
,
0010
0001
0100
0010
1000
0001
1001
0000
,
0100
0010
1000
0001
0010
0000
0000
0000
,
1000
0000
0100
0000
0010
0100
0010
0000
,
0001
0000
0010
0000
1000
0100
1000
0000
,
0010
0000
0001
0000
0100
0010
0100
0000
,
0010
0000
0001
0000
0100
1000
0100
0000
,
0010
0000
0010
0000
,
0100
0000
0100
0000
,
0001
1000
0100
0010
,
1000
0100
0001
1000
,
0001
0010
1000
0000
0001
1000
0010
0000
,
1000
0001
0010
0000
0001
0100
0001
0000
,
0100
1000
0100
0001
0010
0001
1000
0000
,
0100
0101
0101
0000
1000
1010
1010
0000
,
0001
0001
0100
0100
,
0010
0010
1000
0000
0100
0010
0010
0000
,
0001
0000
1000
0000
0001
0000
0100
0001
,
1000
0010
0001
0000
,
0001
0001
0100
0010
0100
0110
0110
0000
,
1000
0000
1100
0000
0001
0100
0101
0000
,
0010
1000
0100
0010
0001
1000
1001
0000
,
0100
0010
0100
0001
0010
0000
0000
0000
,
;

//---------------dance-single - ----------------
#NOTES:
     dance-single:
     :
     Hard:
     10:
     0.160,0.168,0.000,0.000,0.086:
0000
0000
0000
0000
,
0000
0000
0000
0000
,
0000
0000
0000
0000
,
0000
0000
0000
0000
,
0000
0000
0000
0000
,
0010
0000
0000
1000
0010
0000
0100
0000
0000
0010
1000
0000
0100
0010
0000
0000
,
0001
0000
0000
0100
0010
0000
0100
0000
0000
0010
0001
0000
1000
0100
0000
0010
,
0100
0001
1000
0100
0010
1000
0001
0010
,
1000
0100
1000
0100
0001
0000
0000
0000
0100
1000
0100
1000
0010
0000
0100
0000
,
0001
0010
0100
1000
,
0001
0100
0010
0001
0100
0010
1000
0100
,
0010
0000
0001
0000
0100
0000
1000
0100
,
0010
0000
1000
0000
0100
0000
0001
0100
,
1000
0100
0010
0000
0001
0000
0100
0000
0010
0100
0001
0000
1000
0000
0000
0000
,
0100
0000
0000
0010
0001
0000
0010
0000
0100
0000
0100
0000
0100
0000
0000
0000
,
1000
0001
0100
0000
0010
0000
0001
0000
0010
1000
0100
0000
0010
0000
0010
0000
,
0001
0000
0000
0001
0100
0000
0010
0000
1000
0000
0000
0000
0000
0000
0000
0000
,
0001
0100
0001
0000
0010
1000
0010
0000
,
0100
1000
0100
0000
0001
0010
0001
0000
,
1000
0100
0001
0100
0010
1000
0010
0001
,
0100
0001
0100
1000
0001
0010
1000
0010
,
0100
0000
1000
0000
,
0001
0000
0010
0000
,
0100
0000
0100
0010
1000
0000
1000
0100
,
0001
0000
0001
1000
0010
0000
0010
0000
,
0100
0000
0000
1000
0100
0000
0001
0000
0000
1000
0010
0000
0001
0100
0000
0000
,
1000
0000
0000
0010
0001
0000
1000
0000
0000
0100
0010
0000
0001
0100
0000
1000
,
0100
0001
0010
1000
0100
0010
0001
0100
,
0010
0100
0010
0100
1000
0000
0000
0000
0100
0000
0010
0000
1000
0001
1000
0001
,
0010
0100
1000
0001
,
0010
1000
0100
0010
1000
0100
0001
1000
,
0100
0000
0010
0000
1000
0000
0001
1000
,
0100
0001
1000
0000
,
0001
0100
0010
0000
1000
0000
0100
0000
0010
0100
1000
0000
0001
0000
0000
0000
,
0100
0000
0000
0010
1000
0000
0010
0000
0100
0000
0100
0000
0100
0000
0000
0000
,
0001
1000
0100
0000
0010
0000
1000
0000
0010
0001
0100
0000
0010
0000
0010
0000
,
1000
0000
0000
1000
0100
0000
0010
0000
0001
0000
0000
0000
1000
0000
1000
0000
,
;

//---------------dance-double - ----------------
#NOTES:
     dance-double:
     :
     Easy:
     5:
     0.072,0.083,0.051,0.000,0.000:
00000000
00000000
00000000
00000000
,
00000000
00000000
00000000
00000000
,
00000000
00000000
00000000
00000000
,
00000000
00000000
00000000
00000000
,
00000000
00000000
00000000
00000000
,
10000000
00010000
01000000
00000000
,
00100000
10000000
01000000
00000000
,
10000000
01000000
00010000
00000000
,
00001000
00000010
00001001
00000000
,
00000001
00000000
00000100
00000000
,
00001000
00001000
00010000
00010000
,
00001000
00000000
01000000
00000000
,
00010000
00000000
00000100
00000000
,
00000010
00000001
00000010
00000001
,
00000011
00000000
00001100
00000000
,
00010000
00001000
00010000
00001000
,
00010000
00000000
01100000
00000000
,
10000000
00000000
10000000
00000000
,
01000000
00000000
00010000
00000000
,
00010000
00000000
00010000
00000000
,
00001000
00000000
00000100
00000000
,
00000001
00000000
00000001
00000000
,
00001000
00000000
00000001
00000000
,
00000100
00001000
00010000
00100000
,
00010000
00001000
00010000
00000100
,
00000010
00001000
00001100
00000000
,
00000010
00000001
00000011
00000000
,
00000001
00000100
00001000
00001000
,
00010000
00100000
01100000
00000000
,
10000000
00000000
01000000
00000000
,
00010000
00010000
00001000
00001000
,
00010000
00000000
00000100
00000000
,
00001000
00000000
01000000
00000000
,
00100000
10000000
00100000
10000000
,
10100000
00000000
01010000
00000000
,
00001000
00010000
00001000
00010000
,
00001000
00000000
00000110
00000000
,
;

//---------------dance-double - ----------------
#NOTES:
     dance-double:
     :
     Medium:
     8:
     0.141,0.148,0.101,0.000,0.000:
00000000
00000000
00000000
00000000
,
00000000
00000000
00000000
00000000
,
00000000
00000000
00000000
00000000
,
00000000
00000000
00000000
00000000
,
00000000
00000000
00000000
00000000
,
00000010
00000001
00000100
00000010
00001000
00000001
00000100
00000000
,
00000010
00000100
00001000
00000000
00010000
01000000
01000000
00000000
,
10000000
01000000
01100000
00000000
00010000
00001000
00000010
00001000
,
00010000
00001000
00010000
00000000
00000110
00000010
00001000
00001001
,
00000001
00000100
00001000
00010000
,
00100000
01000000
00010000
01000000
00100000
10000000
01000000
00000000
,
11000000
00010000
00011000
00001000
,
00001100
00000001
00001001
00000000
,
00000010
00001000
00000100
00001000
00000001
00000100
00001000
00010000
,
00001000
00000000
00101000
00000000
00011000
00010000
00001000
00000000
,
01000000
00100000
01000000
00010000
00100000
00010000
10000000
00000000
,
01000000
00100000
00001000
00010000
00011000
00000000
00000000
00000000
,
00000010
00001000
00000001
00000100
,
00001000
00010000
00001000
00100000
,
01000000
10000000
00010000
00001000
,
00010000
00100000
00001000
00000010
,
00000001
00000100
00001000
00010000
,
00001000
00000100
00000010
00010000
,
00001000
00000000
00100000
00010000
00100000
00000000
00001000
00010000
,
00001000
00000000
00000100
00000010
00000100
00000000
00001000
00010000
,
00100000
10000000
01000000
00100000
01000000
11000000
11000000
00000000
,
00010000
00100000
00001000
00000000
00010000
00000010
00000110
00000000
,
00000001
00000100
00001000
00000100
00001000
00010000
00001000
00000000
,
00010000
00001000
00010000
01000000
00100000
00000000
10010000
00000000
,
10000000
01000000
00100000
00001000
,
00010000
00000100
00001000
00000100
00000010
00000001
00001000
00000000
,
00000001
00001100
00001000
00110000
,
01000000
10010000
01100000
00000000
,
00100000
00010000
01000000
00010000
10000000
01000000
00010000
00001000
,
00010000
00000000
00010010
00000000
00011000
00001000
00010000
00000000
,
00000100
00000010
00000100
00001000
00000010
00001000
00000001
00000000
,
00000100
00000010
00010000
00001000
01000000
00000000
00000000
00000000
,
;

//---------------dance-double - ----------------
#NOTES:
     dance-double:
     :
     Hard:
     11:
     0.152,0.167,0.000,0.000,0.038:
00000000
00000000
00000000
00000000
,
00000000
00000000
00000000
00000000
,
00000000
00000000
00000000
00000000
,
00000000
00000000
00000000
00000000
,
00000000
00000000
00000000
00000000
,
00100000
00000000
00010000
00000000
01000000
00000000
00100000
00000000
10000000
01000000
00000000
00100000
00010000
00000000
00001000
00000000
,
00000100
00000010
00000001
00000100
00010000
00000100
00000001
00000000
,
00000010
00000001
00000010
00000000
00000100
00000000
00000100
00000000
00001000
00000000
01000000
00000000
00100000
00000000
00010000
00000000
,
01000000
00000000
00100000
00000000
01000000
00000000
00000000
00000000
00010000
00100000
00010000
00100000
00001000
00010000
00001000
00010000
,
00001000
00100000
00000010
00010000
,
00001000
00010000
01000000
00010000
00001000
00100000
00001000
00010000
,
00001000
00000000
01000000
00010000
00001000
00000000
00000100
00000010
,
00000001
00000000
00000100
00001000
00010000
00001000
00010000
00000000
,
00000100
00000000
00000010
00000000
00000001
00000000
00000010
00000000
00000100
00001000
00000100
00000000
00000010
00000000
00001000
00000000
,
00010000
00000000
00100000
00000000
10000000
01000000
00010000
00000000
,
01000000
10000000
00100000
00001000
00010000
01000000
00100000
00000000
,
10000000
01000000
00010000
00001000
00000010
00000000
00000000
00000000
,
00000001
00000000
00000001
00000000
00000010
00000100
00010000
00000000
,
00001000
00000000
00001000
00000000
00010000
01000000
00100000
00000000
,
00010000
00000000
00010000
00000000
10000000
00100000
00010000
00000000
,
00001000
00000000
00001000
00000000
00010000
00000100
00000010
00000000
,
00000001
00000100
00010000
01000000
,
00100000
00010000
00000100
00000010
,
00000001
00000100
00001000
00000000
00010000
01000000
10000000
00000000
,
00100000
01000000
00010000
00000000
00100000
00001000
00010000
00000000
,
00000010
00000000
00001000
00000000
00000100
00000000
00000010
00000000
00000001
00001000
00000100
00010000
00001000
00000000
00010000
00000000
,
01000000
00000000
00100000
00000000
00001000
00000000
01000000
00000000
00001000
00010000
00001000
00000000
00100000
00000000
00000000
00000000
,
00010000
01000000
00010000
00000000
00100000
00000000
00001000
00000000
00010000
00000000
00000100
00000000
00000010
00000000
00000001
00000000
,
00000100
00000000
00000010
00000000
00000100
00000000
00000000
00000000
00001000
00000000
00010000
00000000
00100000
01000000
00100000
01000000
,
00100000
00010000
00000010
00001000
,
00010000
00100000
00001000
00010000
00000100
00001000
00010000
00001000
,
00000010
00000000
00000100
00001000
00010000
00000000
01000000
01000000
,
10000000
00010000
00100000
00000000
01000000
00000000
00000000
00000000
,
01000000
00000000
00100000
00000000
10000000
00000000
00100000
00000000
01000000
00010000
01000000
00000000
00100000
00000000
00010000
00000000
,
00001000
00000000
00000010
00000000
00000001
00000100
00001000
00000000
,
00000100
00000001
00000010
00010000
00001000
00000100
00000010
00000000
,
00000001
00000100
00001000
00010000
01000000
00000000
00000000
00000000
,
;
