#TITLE:This Time I Know It's For Real;
#SUBTITLE:Full Song;
#ARTIST:Donna Summer;
#TITLETRANSLIT:;
#SUBTITLETRANSLIT:;
#ARTISTTRANSLIT:;
#CREDIT:;
#BANNER:This Time I Know It's For Real (Full Song).png;
#BACKGROUND:This Time I Know It's For Real (Full Song)-bg.png;
#LYRICSPATH:;
#CDTITLE:./CDTITLES/DanceDanceRevolution II.png;
#MUSIC:This Time I Know It's For Real (Full Song).ogg;
#OFFSET:0.000;
#SAMPLESTART:53.720;
#SAMPLELENGTH:15.000;
#SELECTABLE:YES;
#DISPLAYBPM:116.000;
#BPMS:0.000=116.050;
#STOPS:;
#BGCHANGES:;

//---------------dance-single - ----------------
#NOTES:
     dance-single:
     :
     Beginner:
     3:
     0.092,0.134,0.050,0.032,0.000:
0000
0000
0000
0000
,
0000
0000
0000
0000
,
0000
0000
0000
0000
,
0000
0000
0000
0000
,
1000
0000
0000
0000
,
1000
0000
0000
0000
,
0001
0000
0000
0000
,
0001
0000
0000
0000
,
1000
0000
0000
0000
,
1000
0000
0000
0000
,
0001
0000
0000
0000
,
0001
0000
0000
0000
,
0010
0000
0000
0000
,
0000
0000
0000
0000
,
1000
0000
1000
0000
,
1000
0000
0000
0000
,
0010
0000
0010
0000
,
0010
0000
0000
0000
,
0001
0000
0001
0000
,
0001
0000
0000
0000
,
0100
0000
0100
0000
,
0100
0000
0000
0000
,
1000
0000
0001
0000
,
1000
0000
0000
0000
,
0001
0000
1000
0000
,
0001
0000
0000
0000
,
0010
0000
0010
0000
,
1000
0000
0000
0000
,
0100
0000
0100
0000
,
0001
0000
0000
0000
,
0010
0000
0010
0000
,
1000
0000
0000
0000
,
1001
0000
0000
0000
,
0110
0000
0000
0000
,
2002
0000
0000
3003
,
0000
0000
0000
0000
,
1000
0000
1000
0000
,
1000
0000
0000
0000
,
0010
0000
0010
0000
,
0010
0000
0000
0000
,
0001
0000
0001
0000
,
0001
0000
0000
0000
,
0100
0000
0100
0000
,
0100
0000
0000
0000
,
1000
0000
0001
0000
,
1000
0000
0000
0000
,
0001
0000
1000
0000
,
0001
0000
0000
0000
,
0010
0000
0010
0000
,
1000
0000
0000
0000
,
0100
0000
0100
0000
,
0001
0000
0000
0000
,
0010
0000
0010
0000
,
1000
0000
0000
0000
,
1001
0000
0000
0000
,
0110
0000
0000
0000
,
2002
0000
0000
3003
,
0000
0000
0000
0000
,
0100
0000
0000
0000
,
0100
0000
0000
0000
,
0010
0000
0000
0000
,
0010
0000
0000
0000
,
0100
0000
0000
0000
,
0100
0000
0000
0000
,
1000
0000
0010
0000
,
0001
0000
0010
0000
,
1000
0000
0100
0000
,
0001
0000
0100
0000
,
1000
0000
0010
0000
,
0001
0000
0010
0000
,
1000
0000
0100
0000
,
0001
0000
0100
0000
,
1000
0000
0001
0000
,
1000
0000
0000
0000
,
0001
0000
1000
0000
,
0001
0000
0000
0000
,
0010
0000
0010
0000
,
1000
0000
0000
0000
,
0100
0000
0100
0000
,
0001
0000
0000
0000
,
0010
0000
0010
0000
,
1000
0000
0000
0000
,
1001
0000
0000
0000
,
0110
0000
0000
0000
,
0010
0000
1000
0000
,
0001
0000
0000
0000
,
0100
0000
0100
0000
,
0001
0000
0000
0000
,
0010
0000
0010
0000
,
1000
0000
0000
0000
,
1001
0000
0000
0000
,
0110
0000
0000
0000
,
2002
0000
0000
0000
,
0000
3003
0000
0000
,
1000
0000
0000
0000
,
1000
0000
0000
0000
,
0002
0000
0000
0000
,
0000
0000
0000
0003
,
;

//---------------dance-single - ----------------
#NOTES:
     dance-single:
     :
     Easy:
     5:
     0.174,0.178,0.087,0.283,0.000: // measure 1
0000
0000
0000
0000
,  // measure 2
0000
0000
0000
0000
,  // measure 3
0000
0000
0000
0000
,  // measure 4
0000
0000
0000
0000
,  // measure 5
0100
0000
0010
0000
,  // measure 6
0001
1000
1000
0000
,  // measure 7
0100
0000
0010
0000
,  // measure 8
1000
0001
0100
0000
,  // measure 9
0100
0000
0010
0000
,  // measure 10
0001
1000
1000
0000
,  // measure 11
0001
0010
0100
1000
,  // measure 12
0001
0000
0000
0000
,  // measure 13
0001
0100
0001
0000
,  // measure 14
1000
0100
1000
0000
,  // measure 15
0001
0000
0001
0000
,  // measure 16
1000
0000
1000
0000
,  // measure 17
0100
0000
0100
0000
,  // measure 18
0010
0010
0010
0000
,  // measure 19
0001
0000
0001
0000
,  // measure 20
1000
0000
1000
0000
,  // measure 21
0100
0000
0100
0000
,  // measure 22
0010
0100
0010
0000
,  // measure 23
2000
0000
3001
0000
,  // measure 24
0002
0000
0103
0000
,  // measure 25
0020
0000
1030
0000
,  // measure 26
2002
3003
0000
0000
,  // measure 27
0001
1000
0001
0000
,  // measure 28
2002
0000
3003
0000
,  // measure 29
0010
0100
0010
0000
,  // measure 30
0220
0000
0330
0000
,  // measure 31
1000
0001
1000
0000
,  // measure 32
2002
0000
3003
0000
,  // measure 33
0002
0000
2003
0000
,  // measure 34
3002
0000
0023
0000
,  // measure 35
0200
0000
0000
0000
,  // measure 36
0000
0000
0330
0000
,  // measure 37
0001
0000
0001
0000
,  // measure 38
1000
0000
1000
0000
,  // measure 39
0100
0000
0100
0000
,  // measure 40
0010
0010
0010
0000
,  // measure 41
0001
0000
0001
0000
,  // measure 42
1000
0000
1000
0000
,  // measure 43
0100
0000
0100
0000
,  // measure 44
0010
0100
0010
0000
,  // measure 45
2000
0000
3001
0000
,  // measure 46
0002
0000
0103
0000
,  // measure 47
0020
0000
1030
0000
,  // measure 48
2002
3003
0000
0000
,  // measure 49
0001
1000
0001
0000
,  // measure 50
2002
0000
3003
0000
,  // measure 51
0010
0100
0010
0000
,  // measure 52
0220
0000
0330
0000
,  // measure 53
1000
0001
1000
0000
,  // measure 54
2002
0000
3003
0000
,  // measure 55
0002
0000
2003
0000
,  // measure 56
3002
0000
0023
0000
,  // measure 57
0200
0000
0000
0000
,  // measure 58
0000
0000
0330
0000
,  // measure 59
0001
0000
1000
0000
,  // measure 60
0001
0000
0100
0000
,  // measure 61
1000
0000
0010
0000
,  // measure 62
1000
1000
0001
0001
,  // measure 63
0000
0000
1000
0000
,  // measure 64
0000
0000
0001
0000
,  // measure 65
2001
0000
3000
0000
,  // measure 66
0120
0000
0030
0000
,  // measure 67
1000
0100
1000
0100
,  // measure 68
2000
0000
3000
0000
,  // measure 69
1002
0000
0003
0000
,  // measure 70
0120
0000
0030
0000
,  // measure 71
0001
0100
0001
0100
,  // measure 72
0002
0000
0003
0000
,  // measure 73
2000
0000
3001
0000
,  // measure 74
0002
0000
0103
0000
,  // measure 75
0020
0000
1030
0000
,  // measure 76
2002
3003
0000
0000
,  // measure 77
0001
1000
0001
0000
,  // measure 78
2002
0000
3003
0000
,  // measure 79
0010
0100
0010
0000
,  // measure 80
0220
0000
0330
0000
,  // measure 81
1000
0001
1000
0000
,  // measure 82
2002
0000
3003
0000
,  // measure 83
0002
0000
2003
0000
,  // measure 84
3002
0000
0013
0000
,  // measure 85
0001
1000
0001
0000
,  // measure 86
2002
0000
3003
0000
,  // measure 87
0010
0100
0010
0000
,  // measure 88
0220
0000
0330
0000
,  // measure 89
1000
0001
1000
0000
,  // measure 90
2002
0000
3003
0000
,  // measure 91
0002
0000
2003
0000
,  // measure 92
3002
0000
0013
0000
,  // measure 93
0100
0000
0010
0000
,  // measure 94
0001
1000
1000
0000
,  // measure 95
0100
0000
0010
0000
,  // measure 96
1000
0001
0100
0000
,  // measure 97
0020
0000
0000
0000
,  // measure 98
0000
0000
0000
0030
;

//---------------dance-single - ----------------
#NOTES:
     dance-single:
     :
     Medium:
     6:
     0.222,0.245,0.073,0.283,0.000:
0000
0000
0000
0000
,
0000
0000
0000
0000
,
0000
0000
0000
0000
,
0000
0000
0000
0000
,
0100
0100
0010
0010
,
0001
1000
1000
0001
,
0100
0100
0010
0010
,
0100
2000
0000
3100
,
0100
0100
0010
0010
,
0001
1000
1000
0001
,
0100
1000
0010
0001
,
0100
0000
0100
0100
,
0001
0100
0001
0100
,
1000
0100
1000
1001
,
0000
0010
0000
0010
,
0100
0100
0000
1000
,
0000
0100
0000
0100
,
0010
0100
0010
0100
,
0000
0010
0000
0010
,
0100
0100
0000
0001
,
0000
0100
0000
0100
,
0001
0100
0110
0000
,
0000
2001
0000
0001
,
3020
0100
0000
0130
,
0000
1002
0000
1000
,
0203
0010
0020
0330
,
0001
1000
0001
1000
,
0002
0000
2000
3003
,
0010
1000
0010
1000
,
0020
0000
2000
3030
,
1000
0001
1000
0001
,
2000
0000
0002
3003
,
0020
0000
0230
0000
,
0302
0000
0023
0000
,
0200
0000
0000
0000
,
0000
0000
0000
0330
,
0000
0010
0000
0010
,
0100
0100
0000
0001
,
0000
0100
0000
0100
,
0010
0100
0010
0100
,
0000
0010
0000
0010
,
0100
0100
0000
1000
,
0000
0100
0000
0100
,
1000
0100
0110
0000
,
0000
1002
0000
1000
,
0023
0100
0000
0130
,
0000
2001
0000
0001
,
3200
0010
0020
0330
,
1000
0001
1000
0001
,
2000
0000
0002
3003
,
0010
0001
0010
0001
,
0020
0000
0002
0033
,
0001
1000
0001
1000
,
0002
0000
2000
3003
,
0020
0000
0230
0000
,
2300
0000
3020
0000
,
0200
0000
0000
0000
,
0000
0000
0000
0330
,
0010
0000
1000
0001
,
0100
1000
0100
0001
,
1000
0000
0100
0001
,
0010
1000
0001
0100
,
0001
0000
0010
1000
,
0100
1100
0101
0000
,
2010
0010
3100
0000
,
1020
0100
0130
0000
,
0001
0010
0100
0010
,
1000
0100
0100
0010
,
0012
0010
0103
0000
,
0021
0100
0130
0000
,
1000
0010
0100
0010
,
0001
0100
1001
0000
,
0000
1002
0000
1000
,
0023
0100
0000
0130
,
0000
2001
0000
0001
,
3200
0010
0020
0330
,
1000
0001
1000
0001
,
2000
0000
0002
3003
,
0010
0001
0010
0001
,
0020
0000
0002
0033
,
0001
1000
0001
1000
,
0002
0000
2000
3003
,
0020
0000
0230
0000
,
2300
0000
3010
0000
,
0001
1000
0001
1000
,
0002
0000
2000
3003
,
0010
1000
0010
1000
,
0020
0000
2000
3030
,
1000
0001
1000
0001
,
2000
0000
0002
3003
,
0020
0000
0230
0000
,
0302
0000
0013
0000
,
0100
0100
0010
0010
,
0001
1000
1000
0001
,
0100
0100
0010
0010
,
0100
2000
0000
3100
,
0002
0000
0000
0000
,
0000
0000
0000
0003
,
;

//---------------dance-single - ----------------
#NOTES:
     dance-single:
     :
     Hard:
     8:
     0.323,0.334,0.064,0.319,0.000:
0000
0000
0000
0000
,
0000
0000
0000
0000
,
0000
0000
0000
0000
,
0000
0000
0000
0000
,
0010
0001
0010
0000
0100
0000
0100
0000
,
1000
0100
0001
0000
0001
0100
1000
0000
,
0010
1000
0010
0000
0100
0000
0100
0000
,
0010
1000
0001
0020
0000
0000
0130
0000
,
0010
0001
0010
0000
0100
0000
0100
0000
,
1000
0100
0001
0000
0001
0100
1000
0000
,
0010
0001
1000
0100
,
0010
0010
0010
0010
,
1000
0100
0010
0000
1000
0100
0010
0000
,
0001
0100
0010
1000
0001
0000
1001
0000
,
0000
0100
0000
0100
,
0010
1000
0010
0100
0000
0100
0001
0000
,
0000
0010
0000
0010
,
0100
1000
0100
0001
0100
0000
0110
0000
,
0000
0100
0000
0100
,
0010
0001
0010
0100
0000
0100
1000
0000
,
0000
0010
0000
0010
,
1000
0100
0010
0001
0100
0010
0100
0000
,
0000
0012
0100
1000
,
0203
0010
1000
0310
,
0000
2100
0001
0100
,
3020
0100
0200
0330
,
1000
0100
0010
0100
1000
0100
0010
0100
,
2000
0010
0002
3003
,
0100
0010
0001
0010
0100
0010
0001
0010
,
0200
0001
0020
0330
,
0001
0100
0010
0100
0001
0100
0010
0100
,
0002
0010
2000
3003
,
0200
0000
0000
0320
0000
0000
0032
0000
,
0200
0003
0000
0320
0000
0000
2030
0000
,
0002
0000
0000
0000
,
0000
0000
0000
3003
,
0000
0100
0000
0100
,
0010
1000
0010
0100
0000
0100
0001
0000
,
0000
0010
0000
0010
,
0100
1000
0100
0001
0100
0000
0110
0000
,
0000
0100
0000
0100
,
0010
0001
0010
0100
0000
0100
1000
0000
,
0000
0010
0000
0010
,
1000
0001
0010
0100
1000
0010
0100
0000
,
0000
0012
0100
1000
,
0203
0010
1000
0310
,
0000
2100
0001
0100
,
3020
0100
0200
0330
,
1000
0100
0010
0100
1000
0100
0010
0100
,
2000
0010
0002
3003
,
0100
0010
0001
0010
0100
0010
0001
0010
,
0200
0001
0020
0330
,
0001
0100
0010
0100
0001
0100
0010
0100
,
0002
0010
2000
3003
,
0200
0000
0000
0320
0000
0000
0032
0000
,
0200
0003
0000
0320
0000
0000
2030
0000
,
0002
0000
0000
0000
,
0000
0000
0000
3003
,
0100
0000
0000
0000
0100
0000
0100
1000
,
0010
0001
0100
0000
1000
0010
0100
0000
,
0001
0000
0000
0000
0001
0000
0001
0010
,
0100
0001
0010
0000
1000
0100
0010
0000
,
1000
0000
0000
0000
1000
0000
1000
0001
,
0010
1000
0100
0000
0010
0000
1100
0000
,
0012
0000
0100
0000
0013
0100
1000
0000
,
0021
0000
0100
0000
0031
0100
0010
0000
,
1000
1000
0100
0000
0010
0010
0100
0000
,
0001
0001
0010
0000
1000
1000
0100
0000
,
2010
0000
0100
0000
3010
0100
0001
0000
,
1020
0000
0100
0000
1030
0100
0010
0000
,
0001
0001
1000
0000
0010
0010
1000
0000
,
0100
0100
0010
0001
1000
1000
0100
0000
,
0000
0012
0100
1000
,
0203
0010
1000
0310
,
0000
2100
0001
0100
,
3020
0100
0200
0330
,
1000
0100
0010
0100
1000
0100
0010
0100
,
2000
0010
0002
3003
,
0100
0010
0001
0010
0100
0010
0001
0010
,
0200
0001
0020
0330
,
0001
0100
0010
0100
0001
0100
0010
0100
,
0002
0010
2000
3003
,
0200
0000
0000
0320
0000
0000
0032
0000
,
0200
0003
0000
0320
0000
0000
1030
0000
,
0001
1000
0010
1000
0001
1000
0010
1000
,
0002
0100
2000
3003
,
0100
0010
1000
0010
0100
0010
1000
0010
,
0200
1000
0020
0330
,
1000
0100
0010
0100
1000
0100
0010
0100
,
2000
0010
0002
3003
,
0200
0000
0000
0320
0000
0000
2030
0000
,
0200
3000
0000
0320
0000
0000
0031
0000
,
1000
0001
0010
0000
0100
0000
0010
0000
,
0001
0010
1000
0000
1000
0010
0001
0000
,
0010
1000
0010
0000
0100
0000
0100
0000
,
0010
1000
0001
0020
0000
0000
0130
0000
,
0020
0000
0000
0000
,
0000
0000
0000
0030
,
;

//---------------dance-double - ----------------
#NOTES:
     dance-double:
     :
     Easy:
     5:
     0.178,0.201,0.087,0.292,0.000:
00000000
00000000
00000000
00000000
,
00000000
00000000
00000000
00000000
,
00000000
00000000
00000000
00000000
,
00000000
00000000
00000000
00000000
,
01000000
00000000
00100000
00000000
,
00010000
00001000
00001000
00000000
,
00000100
00000000
00000010
00000000
,
00001000
00000001
00000100
00000000
,
00000100
00000000
00000010
00000000
,
00001000
00010000
00010000
00000000
,
00100000
01000000
10000000
00010000
,
00100000
00000000
00000000
00000000
,
00001000
01000000
00001000
00000000
,
00010000
00000100
00010000
00000000
,
00001000
00000000
00001000
00000000
,
00100000
00000000
00100000
00000000
,
01000000
00000000
01000000
00000000
,
00100000
00001000
00010000
00000000
,
00010000
00000000
00010000
00000000
,
00000010
00000000
00000010
00000000
,
00000100
00000000
00000100
00000000
,
00001000
00010000
00001000
00000000
,
00200000
00000000
00310000
00000000
,
00002000
00000000
01003000
00000000
,
00200000
00000000
10300000
00000000
,
20020000
30030000
00000000
00000000
,
00100000
01000000
00100000
00000000
,
00202000
00000000
00303000
00000000
,
00010000
00001000
00000100
00000000
,
00000220
00000000
00000330
00000000
,
00000010
00000100
00000010
00000000
,
00020020
00000000
00030030
00000000
,
00002000
00000000
00023000
00000000
,
02030000
00000000
03020000
00000000
,
00002000
00000000
00000000
00000000
,
00000000
00000000
00000000
00033000
,
00010000
00000000
00010000
00000000
,
00000010
00000000
00000010
00000000
,
00000100
00000000
00000100
00000000
,
00000010
00010000
00001000
00000000
,
00001000
00000000
00001000
00000000
,
00100000
00000000
00100000
00000000
,
01000000
00000000
01000000
00000000
,
00010000
00001000
00010000
00000000
,
00000020
00000000
00001030
00000000
,
00020000
00000000
00030100
00000000
,
00000020
00000000
00000031
00000000
,
00002002
00003003
00000000
00000000
,
00000010
00000100
00000010
00000000
,
00020020
00000000
00030030
00000000
,
00001000
00010000
01000000
00000000
,
02200000
00000000
03300000
00000000
,
00100000
01000000
00100000
00000000
,
00202000
00000000
00303000
00000000
,
00020000
00000000
00032000
00000000
,
00003200
00000000
00002300
00000000
,
00020000
00000000
00000000
00000000
,
00000000
00000000
00033000
00000000
,
00010000
00000000
00100000
00000000
,
00010000
00000000
00001000
00000000
,
00000010
00000000
00000100
00000000
,
00010000
00001000
00100000
00010000
,
00000000
00000000
01000000
00000000
,
00000000
00000000
00001000
00000000
,
00220000
00000000
00330000
00000000
,
00002020
00000000
00003030
00000000
,
00001000
00000001
00000100
00001000
,
00010000
00001000
00010000
00000000
,
00002020
00000000
00003030
00000000
,
00220000
00000000
00330000
00000000
,
00010000
10000000
01000000
00010000
,
00001000
00010000
00001000
00000000
,
00200000
00000000
00310000
00000000
,
00002000
00000000
01003000
00000000
,
00200000
00000000
10300000
00000000
,
20020000
30030000
00000000
00000000
,
00100000
01000000
00100000
00000000
,
00202000
00000000
00303000
00000000
,
00010000
00001000
00000100
00000000
,
00000220
00000000
00000330
00000000
,
00000010
00000100
00000010
00000000
,
00020020
00000000
00030030
00000000
,
00002000
00000000
00023000
00000000
,
02030000
00000000
03010000
00000000
,
00000010
00000100
00000010
00000000
,
00020020
00000000
00030030
00000000
,
00001000
00010000
01000000
00000000
,
02200000
00000000
03300000
00000000
,
00100000
01000000
00100000
00000000
,
00202000
00000000
00303000
00000000
,
00020000
00000000
00032000
00000000
,
00003200
00000000
00001300
00000000
,
01000000
00000000
00100000
00000000
,
00010000
00001000
00001000
00000000
,
00000100
00000000
00000010
00000000
,
00001000
00000001
00000100
00000000
,
00000020
00000000
00000000
00000000
,
00000000
00000000
00000000
00000030
,
;

//---------------dance-double - ----------------
#NOTES:
     dance-double:
     :
     Medium:
     6:
     0.222,0.245,0.073,0.269,0.000:
00000000
00000000
00000000
00000000
,
00000000
00000000
00000000
00000000
,
00000000
00000000
00000000
00000000
,
00000000
00000000
00000000
00000000
,
01000000
01000000
00100000
00100000
,
00010000
00001000
00001000
00000100
,
00000100
00000100
00000010
00000010
,
00000100
00000002
00000000
00000103
,
00000100
00000100
00000010
00000010
,
00001000
00010000
00010000
01000000
,
10000000
00100000
01000000
00010000
,
01000000
00000000
01000000
00100000
,
10000000
01000000
00010000
00001000
,
00000100
00000001
00000010
00001001
,
00000000
00000010
00000000
00000010
,
00000100
00000100
00000000
00000001
,
00000000
00000100
00000000
00001000
,
00100000
01000000
00100000
01000000
,
00000000
00100000
00000000
00100000
,
01000000
01000000
00000000
10000000
,
00000000
01000000
00000000
00010000
,
00001000
00010000
00011000
00000000
,
00000000
00102000
00000000
00010000
,
00203000
01000000
01300000
00001000
,
00000000
00020010
00000000
00000100
,
00032000
00000010
00003010
00000000
,
00000001
00001000
00000100
00010000
,
02000000
00000000
00200000
03300000
,
00001000
00100000
00010000
10000000
,
00200000
00000000
20000000
30300000
,
10000000
00010000
01000000
00001000
,
00000200
00000000
00000020
00000330
,
00000002
00000000
00002003
00000000
,
00023000
00000000
20030000
00000000
,
02000000
00000000
00000000
00000000
,
00000000
00000000
00000000
33000000
,
00000000
00100000
00000000
00100000
,
01000000
01000000
00000000
10000000
,
00000000
01000000
00000000
00010000
,
00000010
00000100
00000010
00000100
,
00000000
00000010
00000000
00000010
,
00000100
00000100
00000000
00000001
,
00000000
00000100
00000000
00001000
,
00010000
00001000
00011000
00000000
,
00000000
00020010
00000000
00001000
,
00030020
00000100
00000130
00010000
,
00000000
00102000
00000000
01000000
,
00023000
00100000
00130000
00000000
,
10000000
00010000
01000000
00001000
,
00000200
00000000
00000020
00000330
,
00010000
00000010
00001000
00000001
,
00000020
00000000
00000002
00000033
,
00000001
00001000
00000100
00010000
,
02000000
00000000
00200000
03300000
,
20000000
00000000
30020000
00000000
,
00032000
00000000
00003002
00000000
,
00000200
00000000
00000000
00000000
,
00000000
00000000
00000000
00000303
,
00000010
00000000
00001000
00000001
,
00001000
00010000
00001000
00000010
,
00010000
00000000
00001000
01000000
,
00100000
10000000
00010000
01000000
,
00100000
00000000
00010000
00001000
,
00000100
00001100
00011000
00000000
,
00120000
01000000
01030000
00000000
,
10200000
00010000
00310000
00000000
,
00001000
00010000
01000000
00010000
,
00001000
00000100
00000100
00000001
,
00002010
00000100
00003100
00000000
,
00000021
00001000
00001030
00000000
,
00000001
00000100
00000010
00010000
,
01000000
10000000
10010000
00000000
,
00000000
00102000
00000000
00010000
,
00203000
01000000
01300000
00001000
,
00000000
00020010
00000000
00000100
,
00032000
00000010
00003010
00000000
,
00000001
00001000
00000100
00010000
,
02000000
00000000
00200000
03300000
,
00001000
00100000
00010000
10000000
,
00200000
00000000
20000000
30300000
,
10000000
00010000
01000000
00001000
,
00000200
00000000
00000020
00000330
,
00000002
00000000
00002003
00000000
,
00023000
00000000
10030000
00000000
,
00100000
00001000
01000000
00001000
,
00000200
00000000
00000020
00000330
,
00010000
00000010
00001000
00000001
,
00000020
00000000
00000002
00000033
,
00000001
00001000
00000100
00010000
,
02000000
00000000
00200000
03300000
,
20000000
00000000
30020000
00000000
,
00032000
00000000
00003001
00000000
,
00000100
00000100
00000010
00000010
,
00001000
00010000
00010000
01000000
,
01000000
01000000
00100000
00100000
,
01000000
20000000
00000000
31000000
,
00200000
00000000
00000000
00000000
,
00000000
00000000
00000000
00300000
,
;

//---------------dance-double - ----------------
#NOTES:
     dance-double:
     :
     Hard:
     8:
     0.312,0.312,0.078,0.319,0.000:
00000000
00000000
00000000
00000000
,
00000000
00000000
00000000
00000000
,
00000000
00000000
00000000
00000000
,
00000000
00000000
00000000
00000000
,
00100000
00010000
00100000
00000000
01000000
00000000
01000000
00000000
,
10000000
01000000
00010000
00000000
00001000
00000100
00000001
00000000
,
00000010
00000001
00000010
00000000
00000100
00000000
00000100
00000000
,
00010000
00001000
00100000
00020000
00000000
00000000
01030000
00000000
,
00100000
00010000
00100000
00000000
01000000
00000000
01000000
00000000
,
10000000
01000000
00010000
00000000
00001000
00000100
00000001
00000000
,
00001000
00000010
00010000
00100000
,
01000000
01000000
01000000
01000000
,
00010000
01000000
00100000
00000000
10000000
01000000
00100000
00000000
,
00010000
01000000
00100000
00010000
00001000
00000000
00001001
00000000
,
00000000
00000100
00000000
00000100
,
00000010
00000001
00000010
00000100
00000000
00000100
00001000
00000000
,
00000000
00010000
00000000
00010000
,
00001000
00010000
01000000
00010000
00001000
00000000
00101000
00000000
,
00000000
01000000
00000000
01000000
,
00100000
10000000
00100000
01000000
00000000
01000000
00010000
00000000
,
00100000
00001000
00010000
00001000
,
00010000
00001000
00000100
00000001
00000010
00000000
00000110
00000000
,
00000000
00020010
00000000
00001000
,
00030200
00000000
00000010
00000000
00010300
00001000
00010000
00000000
,
00000000
00012000
00000000
00100000
,
02003000
00100000
00020000
03030000
,
10000000
01000000
00100000
01000000
10000000
01000000
00100000
00000000
,
00002000
00100000
00020000
00033000
,
00001000
00010000
00000010
00010000
00001000
00010000
00000010
00000000
,
00000200
00000001
00000020
00000330
,
00000001
00000100
00000010
00000100
00000001
00000100
00000010
00000000
,
00020000
00000010
00002000
00033000
,
02000000
00000000
00000000
03200000
00000000
00000000
00320000
00000000
,
00002000
00030000
00000000
00003020
00000000
00000000
00000230
00000000
,
00000020
00000000
00000000
00000000
,
00000000
00000000
00000000
00000330
,
00000000
00000010
00000000
00000010
,
00000100
00000001
00000100
00000010
00000000
00000010
00001000
00000000
,
00000000
00010000
00000000
00010000
,
00001000
00010000
00100000
00010000
00001000
00000000
01001000
00000000
,
00000000
00100000
00000000
00100000
,
01000000
10000000
01000000
00100000
00000000
00100000
00010000
00000000
,
01000000
00001000
00010000
00001000
,
00010000
00001000
00000010
00000001
00000100
00000000
00000110
00000000
,
00000000
00020100
00000000
00001000
,
00030020
00000000
00000100
00000000
00010030
00001000
00010000
00000000
,
00000000
00012000
00000000
01000000
,
00203000
01000000
00020000
00330000
,
10000000
00100000
01000000
00100000
10000000
00100000
01000000
00000000
,
00002000
01000000
00020000
00033000
,
00001000
00010000
00000100
00010000
00001000
00010000
00000100
00000000
,
00000020
00000001
00000200
00000330
,
00000001
00000010
00000100
00000010
00000001
00000010
00000100
00000000
,
00020000
00000100
00002000
00033000
,
00200000
00000000
00000000
02300000
00000000
00000000
03020000
00000000
,
00002000
00030000
00000000
00003200
00000000
00000000
00000320
00000000
,
00000200
00000000
00000000
00000000
,
00000000
00000000
00000000
00000330
,
00000001
00000000
00000100
00000010
,
00001000
00000100
00010000
00001000
00100000
00000000
01000000
00000000
,
10000000
00000000
01000000
00010000
,
00001000
00010000
01000000
00000000
00010000
00001000
00000100
00000000
,
00000010
00000000
00001000
00000001
,
00000100
00001000
00000100
00001000
00010000
00000000
00011000
00000000
,
00102000
00010000
00103000
00010000
,
00201000
00010000
00301000
00010000
,
00100000
01000000
00100000
00000000
00001000
00010000
00001000
00000000
,
01000000
00100000
01000000
00000000
00001000
00010000
00001000
00000000
,
00020010
00001000
00030010
00001000
,
00010020
00001000
00010030
00001000
,
00000010
00000100
00000010
00000000
00010000
00001000
00010000
00000000
,
00001000
00100000
01000000
00100000
00001000
00000000
00011000
00000000
,
00000000
00020010
00000000
00001000
,
00030200
00000000
00000010
00000000
00010300
00001000
00010000
00000000
,
00000000
00012000
00000000
00100000
,
02003000
00100000
00020000
03030000
,
10000000
01000000
00100000
01000000
10000000
01000000
00100000
00000000
,
00002000
00100000
00020000
00033000
,
00001000
00010000
00000010
00010000
00001000
00010000
00000010
00000000
,
00000200
00000001
00000020
00000330
,
00000001
00000100
00000010
00000100
00000001
00000100
00000010
00000000
,
00020000
00000010
00002000
00033000
,
02000000
00000000
00000000
03200000
00000000
00000000
00320000
00000000
,
00002000
00030000
00000000
00003020
00000000
00000000
00000130
00000000
,
00000001
00000100
00000010
00000100
00000001
00000100
00000010
00000000
,
00020000
00000010
00002000
00033000
,
00010000
00001000
00100000
00001000
00010000
00001000
00100000
00000000
,
02000000
10000000
00200000
03300000
,
10000000
01000000
00100000
01000000
10000000
01000000
00100000
00000000
,
00002000
00100000
00020000
00033000
,
00000200
00000000
00000000
00000320
00000000
00000000
00002030
00000000
,
00020000
00003000
00000000
00230000
00000000
00000000
01300000
00000000
,
00010000
00100000
00010000
00000000
01000000
00000000
00100000
00000000
,
10000000
01000000
00010000
00000000
00001000
00000010
00000001
00000000
,
00000010
00000001
00000010
00000000
00000100
00000000
00000100
00000000
,
00010000
00001000
00100000
00020000
00000000
00000000
01030000
00000000
,
00200000
00000000
00000000
00000000
,
00000000
00000000
00000000
00300000
,
;
