#TITLE:The Heavens Above;
#SUBTITLE:Full Song;
#ARTIST:U1 /F Anneliese;
#TITLETRANSLIT:;
#SUBTITLETRANSLIT:;
#ARTISTTRANSLIT:;
#CREDIT:;
#BANNER:The Heavens Above (Full Song).png;
#BACKGROUND:The Heavens Above (Full Song)-bg.png;
#LYRICSPATH:;
#CDTITLE:./CDTITLES/DanceDanceRevolution II.png;
#MUSIC:The Heavens Above (Full Song).ogg;
#OFFSET:0.000;
#SAMPLESTART:117.460;
#SAMPLELENGTH:15.000;
#SELECTABLE:YES;
#DISPLAYBPM:140.000;
#BPMS:0.000=140.001;
#STOPS:;
#BGCHANGES:;

//---------------dance-single - ----------------
#NOTES:
     dance-single:
     :
     Beginner:
     3:
     0.111,0.198,0.004,0.076,0.000:
0000
0000
0000
0000
,
0000
0000
0000
0000
,
0000
0000
0000
0000
,
0000
0000
0000
0000
,
0000
0000
0000
0000
,
0001
0000
0000
0000
,
0000
0000
0000
0000
,
0001
0000
0000
0000
,
0000
0000
0000
0000
,
1000
0000
0000
0000
,
0000
0000
0000
0000
,
1000
0000
0000
0000
,
0000
0000
0000
0000
,
0001
0000
0000
0000
,
0001
0000
0000
0000
,
0001
0000
0000
0000
,
0000
0000
0000
0000
,
1000
0000
0000
0000
,
1000
0000
0000
0000
,
1000
0000
0000
0000
,
0000
0000
0000
0000
,
1000
0000
0000
0000
,
0001
0000
0000
0000
,
0100
0000
0000
0000
,
0010
0000
0000
0000
,
1000
0000
0000
0000
,
0001
0000
0000
0000
,
0100
0000
0000
0000
,
0010
0000
0000
0000
,
0001
0000
0001
0000
,
0100
0000
0100
0000
,
1000
0000
1000
0000
,
0010
0000
0010
0000
,
0001
0000
1000
0000
,
0001
0000
1000
0000
,
0100
0100
0000
0000
,
0001
0001
0000
0000
,
0020
0000
0030
0000
,
0020
0000
0030
0000
,
0200
0000
0300
0000
,
0200
0000
0300
0000
,
0100
0000
0100
0000
,
0001
0000
0001
0000
,
0010
0000
0010
0000
,
1000
0000
1000
0000
,
0001
0001
0000
0000
,
0100
0100
0000
0000
,
1000
1000
0000
0000
,
0001
0001
0000
0000
,
0100
0000
0100
0000
,
0010
0000
0010
0000
,
0001
0000
0001
0000
,
0010
0000
0010
0000
,
1000
0000
0000
0000
,
0100
0000
0000
0000
,
0001
0000
0000
0000
,
1000
0000
0000
0000
,
0010
0000
0000
0000
,
0001
0000
0001
0000
,
0100
0000
0100
0000
,
1000
0000
1000
0000
,
0010
0000
0000
0000
,
0001
0000
0100
0000
,
0010
0000
0000
0000
,
1000
0000
0100
0000
,
0001
0000
0000
0000
,
1000
0000
0100
0000
,
0001
0000
0000
0000
,
0001
0000
0100
0000
,
1000
0000
0000
0000
,
0010
0000
0000
0000
,
1000
0000
0000
0000
,
0001
0000
0000
0000
,
0001
0000
1000
0000
,
0001
0000
1000
0000
,
0010
0000
0010
0000
,
0100
0100
0100
0000
,
0002
0000
0000
0000
,
0000
0003
0000
0000
,
2000
0000
0000
0000
,
0000
3000
0000
0000
,
0020
0000
0000
0000
,
0000
0030
0000
0000
,
0200
0000
0000
0000
,
0000
0300
0000
0000
,
0002
0000
0000
0003
,
0000
0000
0000
0000
,
2000
0000
0000
3000
,
0000
0000
0000
0000
,
0002
0000
0000
0003
,
0000
0000
0000
0000
,
2000
0000
0000
3000
,
0000
0000
0000
0000
,
0010
0000
0000
0000
,
0010
0000
0000
0000
,
0010
0000
0000
0000
,
0010
0000
0000
0000
,
0100
0000
0000
0000
,
0100
0000
0000
0000
,
0100
0000
0000
0000
,
0100
0000
0000
0000
,
0020
0000
0030
0000
,
0020
0000
0030
0000
,
0200
0000
0300
0000
,
0200
0000
0300
0000
,
0100
0000
0000
0000
,
0010
0000
0000
0000
,
0100
0000
0100
0000
,
0100
0000
0000
0000
,
0010
0000
0000
0000
,
0010
0000
0000
0000
,
0010
0000
0000
0000
,
0010
0000
0000
0000
,
0100
0000
0000
0000
,
0100
0000
0000
0000
,
0100
0000
0000
0000
,
0100
0000
0000
0000
,
1001
0000
0000
0000
,
0000
0000
0000
0000
,
1000
0000
0000
0000
,
0100
0000
0000
0000
,
0001
0000
0000
0000
,
1000
0000
0000
0000
,
0010
0000
0000
0000
,
0001
0000
0001
0000
,
0010
0000
0000
0000
,
0001
0000
0100
0000
,
0010
0000
0000
0000
,
1000
0000
0100
0000
,
0001
0000
0000
0000
,
1000
0000
0100
0000
,
0001
0000
0000
0000
,
0001
0000
0100
0000
,
1000
0000
0000
0000
,
0010
0000
0000
0000
,
1000
0000
0000
0000
,
0001
0000
0000
0000
,
0001
0000
1000
0000
,
0001
0000
1000
0000
,
0010
0000
0010
0000
,
0100
0100
0100
0000
,
0001
0001
0002
0003
,
0000
0000
0000
0000
,
1000
1000
2000
3000
,
0000
0000
0000
0000
,
0001
0001
0001
0001
,
0000
0000
0000
0000
,
1000
1000
1000
1000
,
0000
0000
0000
0000
,
0010
0010
0020
0030
,
0000
0000
0000
0000
,
0010
0010
0020
0030
,
0000
0000
0000
0000
,
0100
0100
0200
0300
,
0000
0000
0000
0000
,
0100
0100
0100
0100
,
0100
0000
0010
0000
,
0100
0000
0000
0000
,
;

//---------------dance-single - ----------------
#NOTES:
     dance-single:
     :
     Easy:
     7:
     0.274,0.368,0.076,0.390,0.000:
0000
0000
0000
0000
,
0000
0000
0000
0000
,
0000
0000
0000
0000
,
0000
0000
0000
0000
,
0000
0000
0000
0000
,
1000
0000
0100
0000
,
1000
0000
0100
0000
,
1000
0000
0100
0000
,
1000
0000
0100
0000
,
0001
0000
0100
0000
,
0001
0000
0100
0000
,
0001
0000
0100
0000
,
0001
0000
0100
0000
,
1000
0000
0010
0000
,
1000
0000
0100
0000
,
0001
0000
0010
0000
,
0001
0000
0100
0000
,
1000
0000
0100
0000
,
1000
0000
0010
0000
,
0001
0000
0100
0000
,
0001
0000
0000
0000
,
0100
0000
1000
0100
,
0001
0000
0100
0001
,
0100
1000
0010
0001
,
0010
1000
0001
0100
,
0100
0000
1000
0100
,
0001
0000
0100
0001
,
0100
1000
0010
0001
,
0010
1000
0001
0100
,
2000
3100
0002
0103
,
0010
1000
0020
1000
,
1030
0010
1000
0100
,
0001
0100
2000
0100
,
3100
0010
0001
0100
,
1000
0100
0002
0010
,
0013
0001
0100
1000
,
0100
0001
0010
0001
,
0022
0003
2000
0030
,
0200
3000
0002
0303
,
0202
0303
2020
3000
,
1000
1030
0100
0100
,
0001
0001
0010
0010
,
1020
1000
1000
1030
,
0201
0001
0001
0301
,
0010
0001
0010
1000
,
0200
0301
0200
1300
,
0100
0001
0020
1000
,
1030
0010
0001
0100
,
1000
0100
0002
0100
,
0103
0010
1000
0100
,
0001
0100
2000
0100
,
3100
0010
0001
0010
,
0001
0200
0301
0100
,
2200
3000
0002
0300
,
0020
0033
0001
0001
,
0022
0033
2200
3000
,
1000
1300
0100
0100
,
0001
0001
0010
0010
,
1000
0100
1000
0100
,
0010
0001
0010
0001
,
1000
0100
0001
0100
,
2020
0000
0000
0000
,
0000
3030
0010
1000
,
0002
0000
0200
0303
,
1000
0100
1000
0200
,
0002
0303
0010
1000
,
0100
0001
0100
1000
,
0200
0000
0002
0303
,
0010
1000
0100
0002
,
0020
0033
0001
0100
,
0010
1000
0001
0100
,
0202
0003
2000
3300
,
0010
1000
0100
0001
,
0200
0000
2000
0300
,
0020
3000
0031
0010
,
2000
0000
0002
3003
,
0010
0001
1000
0100
,
1001
0000
0000
0000
,
0000
0000
0000
0000
,
0000
0000
0000
0000
,
0000
0000
0000
0000
,
0000
1000
0000
1000
,
0000
1000
0000
1000
,
0000
0001
0000
0001
,
0000
0001
0000
0001
,
0002
0000
0000
0000
,
2003
0000
0000
0000
,
3020
0000
0000
0000
,
0230
0000
0000
0000
,
0302
0000
0000
0000
,
2003
0000
0000
0000
,
3020
0000
0000
0000
,
0230
0000
0000
0000
,
0320
0000
0000
0000
,
0100
0000
0031
0000
,
0020
0000
0000
0000
,
0100
0000
1030
0000
,
0020
0000
0000
0000
,
0100
0000
1030
0000
,
0020
0000
0000
0000
,
0100
0000
0031
0000
,
0022
0003
2000
0030
,
0200
3000
0002
0303
,
0202
0303
2020
3000
,
1000
1030
0100
0100
,
0001
0001
0010
0010
,
0010
0000
0010
0000
,
0100
0000
0010
0000
,
0100
0010
0100
1001
,
0002
0000
2003
0000
,
3200
0000
2300
0000
,
3002
0000
2003
0000
,
3020
0000
0000
0000
,
2030
0000
3002
0000
,
0203
0000
0302
0000
,
2003
0000
3002
0000
,
0023
0000
0030
0000
,
0001
0001
0001
0001
,
1000
1000
1000
1000
,
2200
3000
0002
0300
,
0020
0033
0001
0001
,
0022
0033
2200
3000
,
1000
1300
0100
0100
,
0001
0001
0010
0010
,
1000
0100
1000
0100
,
0010
0001
0010
0001
,
1000
0100
0001
0100
,
2020
0000
0000
0000
,
0000
3030
0010
1000
,
0002
0000
0200
0303
,
1000
0100
1000
0200
,
0002
0303
0010
1000
,
0100
0001
0100
1000
,
0200
0000
0002
0303
,
0010
1000
0100
0002
,
0020
0033
0001
0100
,
0010
1000
0001
0100
,
0202
0003
2000
3300
,
0200
0000
2300
0000
,
3100
0001
0100
0001
,
0010
0100
0110
0000
,
0001
0000
0001
1000
,
0001
0000
1000
0001
,
1000
0000
1000
0001
,
1000
0000
0001
1000
,
0001
0000
1000
0000
,
1000
0000
0001
0000
,
0001
0000
1000
0000
,
1000
0000
0001
0000
,
0200
0000
0001
0000
,
0010
0000
0001
0300
,
1000
0000
0100
0000
,
0001
0000
0010
0000
,
0020
0000
0100
0000
,
1000
0000
0100
0030
,
0001
0001
0100
0100
,
1000
1000
0010
0010
,
0100
0000
0000
0000
,
;

//---------------dance-single - ----------------
#NOTES:
     dance-single:
     :
     Medium:
     9:
     0.370,0.453,0.087,0.451,0.000:
0000
0000
0000
0000
,
0000
0000
0000
0000
,
0000
0000
0000
0000
,
0000
0000
0000
0000
,
0000
0000
0000
0000
,
0001
0000
1000
0000
,
0001
0000
1000
0000
,
1000
0000
0001
0000
,
1000
0000
0001
0000
,
0001
1000
1000
0001
,
0001
1000
1000
0001
,
0010
1000
0010
0001
,
0100
1000
0100
0001
,
1000
0100
0010
0100
,
1000
0010
0010
0100
,
0001
0100
0010
0100
,
0001
0000
0100
1000
,
0001
0100
0010
0100
,
0001
0010
0010
0100
,
1000
0100
0010
0100
,
1000
0001
0200
0300
,
1000
0000
0100
1000
0001
0000
0010
0001
,
0100
0000
0001
0100
0010
0000
1000
0010
,
1000
0000
0010
1000
0001
0000
0100
0001
,
0010
0000
0001
0010
0100
0000
1000
0100
,
1000
0000
0100
1000
0001
0000
0010
0001
,
0100
0000
0001
0100
0010
0000
1000
0010
,
1000
0000
0010
1000
0001
0000
0100
0001
,
0010
0000
0001
0010
0100
0000
1000
0100
,
1000
0000
0010
1000
0001
0000
0100
0001
,
0010
1000
0100
1000
,
0010
0000
0001
0010
0100
0000
1000
0100
,
0010
0001
0100
1000
,
0100
0000
0001
0100
0010
0000
1000
0010
,
1000
0100
0001
0100
,
1000
0000
0100
1000
0001
0000
0010
0001
,
0100
1000
0100
0001
,
0020
0000
0000
0032
0200
0000
0000
0000
,
0300
1000
0000
0013
,
0200
0000
0000
2300
0020
0000
0030
0000
,
0002
3000
0020
0003
,
2000
0030
0020
3000
,
0002
0030
0200
0003
,
2300
0000
0000
3100
0002
0000
0000
0013
,
2000
3010
0001
0100
,
0001
0000
0010
0001
1000
0000
0100
1000
,
0010
0001
0100
0001
,
0010
0000
1000
0010
0100
0000
0001
0100
,
0010
1000
0100
0001
,
0100
0000
1000
0100
0010
0000
0001
0010
,
0001
0100
1000
0100
,
0001
0000
0100
0001
1000
0000
0010
1000
,
0100
0001
0100
1000
,
0020
0000
0000
2030
0200
0000
0000
0000
,
0300
0001
0000
3010
,
0200
0000
0000
0302
0020
0000
0030
0000
,
2000
0003
0020
3000
,
0002
0030
0020
0003
,
2000
0030
0200
3000
,
0302
0000
0000
0103
2000
0000
0000
3010
,
0002
0013
1000
0100
,
0202
0000
0003
1000
,
0002
0000
0300
0013
2000
0000
0000
3010
,
0022
0000
0033
0202
0000
0003
0000
1300
,
0200
0000
0000
0302
0100
0000
0013
0000
,
2200
0000
3000
0001
,
2000
0000
0300
3010
0002
0000
0000
0013
,
2020
0000
3030
2200
0000
3000
0000
0301
,
0200
0000
0000
2300
0100
0000
3010
0000
,
0100
0001
0010
0000
0100
1000
0010
0000
,
0100
0001
0010
0000
0100
1000
0010
0000
,
0202
0000
0303
0022
0000
0000
0000
0000
,
0000
0000
0000
0030
0000
1003
0100
0000
,
0010
0001
0100
0000
0010
1000
0100
0000
,
0010
0001
0100
0000
0010
1000
0100
0000
,
0010
0001
0010
0001
0010
0100
1000
0100
,
1000
0010
1000
0010
0100
0001
0010
1000
,
0001
0000
0000
0000
,
0000
0000
0000
0000
,
1000
0000
0000
0000
,
0000
0000
0000
0000
,
0100
0010
0000
0010
,
0000
0010
0000
0010
,
0100
0010
0000
0010
,
0000
0010
0000
0000
,
0001
0001
0100
0100
,
0010
0010
1000
1000
,
0100
0100
0010
0010
,
0001
0001
1000
1000
,
1001
0001
0100
0100
,
0110
0010
1000
1000
,
1100
0100
0010
0010
,
2000
0000
0000
3000
,
0020
0000
2000
0030
,
0100
0100
3200
0000
,
0320
0000
0002
0030
,
1000
1000
2003
0000
,
3020
0000
0002
0030
,
0100
0100
0203
0000
,
0320
0000
2000
0030
,
0001
0000
0000
0000
0000
0000
0000
0000
0000
0000
0000
0000
0000
0000
0000
0000
0000
0000
0000
0000
0000
0000
0000
0000
0000
0000
0000
0000
0000
0000
0000
0000
0000
0000
0000
0000
0000
0000
0000
0000
0000
0000
0000
0000
0000
0000
0000
0000
0001
0000
0000
0000
0000
0000
0000
0000
0000
0000
0000
0000
0000
0000
0000
0000
0000
0000
0000
0000
0000
0000
0000
0000
0000
0000
0000
0000
0000
0000
0000
0000
0000
0000
0000
0000
0000
0000
0000
0000
0000
0000
0000
0000
0000
0000
0000
0000
3002
0000
0000
0000
0000
0000
0000
0000
0000
0000
0000
0000
0000
0000
0000
0000
0000
0000
0000
0000
0000
0000
0000
0000
0000
0000
0000
0000
0000
0000
0000
0000
0000
0000
0000
0000
0000
0000
0000
0000
0000
0000
0000
0000
0000
0000
0000
0000
0000
0000
0000
0000
0000
0000
0000
0000
0000
0000
0000
0000
0000
0000
0000
0000
0000
0000
0000
0000
0000
0000
0000
0000
0000
0000
0000
0000
0000
0000
0000
0000
0000
0000
0000
0000
0000
0000
0000
0000
0000
0000
0000
0000
0000
0000
0000
0003
,
0020
0000
0000
0032
0200
0000
0000
0000
,
0300
1000
0000
0013
,
0200
0000
0000
2300
0020
0000
0030
0000
,
0002
0000
0000
0000
0000
0000
0000
0000
0000
0000
0000
0000
0000
0000
0000
0000
0000
0000
0000
0000
0000
0000
0000
0000
0000
0000
0000
0000
0000
0000
0000
0000
0000
0000
0000
0000
0000
0000
0000
0000
0000
0000
0000
0000
0000
0000
0000
0000
3000
0000
0000
0000
0000
0000
0000
0000
0000
0000
0000
0000
0000
0000
0000
0000
0000
0000
0000
0000
0000
0000
0000
0000
0000
0000
0000
0000
0000
0000
0000
0000
0000
0000
0000
0000
0000
0000
0000
0000
0000
0000
0000
0000
0000
0000
0000
0000
0020
0000
0000
0000
0000
0000
0000
0000
0000
0000
0000
0000
0000
0000
0000
0000
0000
0000
0000
0000
0000
0000
0000
0000
0000
0000
0000
0000
0000
0000
0000
0000
0000
0000
0000
0000
0000
0000
0000
0000
0000
0000
0000
0000
0000
0000
0000
0000
0003
0000
0000
0000
0000
0000
0000
0000
0000
0000
0000
0000
0000
0000
0000
0000
0000
0000
0000
0000
0000
0000
0000
0000
0000
0000
0000
0000
0000
0000
0000
0000
0000
0000
0000
0000
0000
0000
0000
0000
0000
0000
0000
0000
0000
0000
0000
0030
,
0100
0000
0000
0100
0010
0000
0000
1000
,
0010
0000
0000
0100
0001
0000
0000
1000
,
0100
0000
0000
0100
0010
0000
0000
0100
,
0010
0000
0000
1000
0001
0000
1001
0000
,
0002
0000
2000
0003
,
0100
0100
3200
0001
,
2300
0000
0002
3000
,
1000
1000
1003
0001
,
2000
0000
0002
3000
,
0100
0100
0203
1000
,
0302
0000
2000
0003
,
0001
0001
3001
1000
,
0010
1000
0001
0100
,
0100
1000
0001
0010
,
0200
0000
0000
0302
0020
0000
0030
0000
,
2000
0003
0020
3000
,
0002
0030
0020
0003
,
2000
0030
0200
3000
,
0302
0000
0000
0103
2000
0000
0000
3010
,
0002
0013
1000
0100
,
0202
0000
0003
1000
,
0002
0000
0300
0013
2000
0000
0000
3010
,
0022
0000
0033
0202
0000
0003
0000
1300
,
0200
0000
0000
0302
0100
0000
0013
0000
,
2200
0000
3000
0001
,
2000
0000
0300
3010
0002
0000
0000
0013
,
2020
0000
3030
2200
0000
3000
0000
0301
,
0200
0000
0000
2300
0100
0000
3010
0000
,
0100
0001
0010
0000
0100
1000
0010
0000
,
0100
0001
0010
0000
0100
1000
0010
0000
,
0202
0000
0303
0022
0000
0000
0000
0000
,
0000
0000
0000
0030
0000
1003
0100
0000
,
0010
0001
0100
0000
0010
1000
0100
0000
,
0001
0100
0001
0000
1000
0100
1000
0000
,
0010
0100
0010
0100
0001
0010
0001
0010
,
0100
1000
0100
1000
0100
0010
0001
0000
,
0100
0000
0100
0000
0001
0100
0001
0000
,
1000
0000
1000
0000
0100
1000
0100
0000
,
0010
0001
0010
0001
,
1000
0010
1000
0010
,
2000
0100
0010
0001
,
3020
0100
0001
1000
,
0230
1000
0010
0001
,
0010
1000
0310
0110
,
1000
1000
0100
0010
,
0001
0001
0100
0010
,
1000
0100
1000
1000
,
0001
0100
0001
0001
,
1000
0100
1000
0000
1000
0000
0100
0000
,
0001
0100
0001
0000
0001
0000
0100
0000
,
0001
1000
1001
0001
,
1001
0100
1001
0100
,
0010
0000
0000
0000
,
;

//---------------dance-single - ----------------
#NOTES:
     dance-single:
     :
     Hard:
     11:
     0.448,0.482,0.072,0.282,0.148: // measure 1
0000
0000
0000
0000
,  // measure 2
0000
0000
0000
0000
,  // measure 3
0000
0000
0000
0000
,  // measure 4
0000
0000
0000
0000
,  // measure 5
0000
0000
0000
0000
,  // measure 6
0010
0000
1000
0000
,  // measure 7
0010
0000
1000
0000
,  // measure 8
0010
0000
0001
0000
,  // measure 9
0010
0000
0001
0000
,  // measure 10
0100
0000
0000
1000
0100
0000
0000
0010
,  // measure 11
0100
0000
0000
0001
0100
0000
0000
0010
,  // measure 12
0100
0000
0000
1000
0100
0000
0000
0010
,  // measure 13
0100
0000
0000
0001
0100
0000
0000
0010
,  // measure 14
1000
0000
0100
0010
0001
0000
0100
0010
,  // measure 15
0001
0000
0100
1000
0010
0000
0100
0010
,  // measure 16
1000
0000
0010
0100
0001
0000
0010
0100
,  // measure 17
1000
0000
0000
0010
0000
0000
0100
0000
0001
0000
0000
0010
0000
0000
0100
0000
,  // measure 18
0001
0000
0100
0010
1000
0000
0100
0010
,  // measure 19
1000
0000
0100
0001
0010
0000
0100
0010
,  // measure 20
0001
0000
0010
0100
1000
0000
0010
0100
,  // measure 21
0001
0000
0000
0010
0000
0000
0100
0000
0020
0000
0000
0000
0030
0000
0000
0000
,  // measure 22
0100
0000
0000
0001
0000
0000
0010
0000
0100
0000
0000
1000
0000
0000
0010
0000
,  // measure 23
0100
0000
0000
1000
0000
0000
0010
0000
0100
0000
0000
0001
0000
0000
0100
0000
,  // measure 24
1000
0000
0000
0010
0000
0000
0100
0000
1000
0000
0000
0001
0000
0000
0010
0000
,  // measure 25
0100
0000
0000
0001
0000
0000
0010
0000
1000
0000
0000
0010
0000
0000
0100
0000
,  // measure 26
0100
0000
0000
0001
0000
0000
0010
0000
0100
0000
0000
1000
0000
0000
0010
0000
,  // measure 27
0100
0000
0000
1000
0000
0000
0010
0000
0100
0000
0000
0001
0000
0000
0100
0000
,  // measure 28
1000
0000
0000
0010
0000
0000
0100
0000
1000
0000
0000
0001
0000
0000
0010
0000
,  // measure 29
0100
0000
0000
0001
0000
0000
0010
0000
1000
0000
0000
0110
0000
0000
0001
0000
,  // measure 30
1000
0000
0010
0000
0100
0010
1000
0000
,  // measure 31
0100
0000
0010
0000
1000
0001
0010
0000
,  // measure 32
1000
0000
0010
0000
0001
0010
0100
0000
,  // measure 33
0010
0000
1000
0000
0100
0010
1000
0000
,  // measure 34
0010
0000
0001
0000
0010
0001
1000
0000
,  // measure 35
0100
0000
1000
0000
0010
0001
0100
0000
,  // measure 36
1000
0000
0010
0000
0100
0001
1000
0000
,  // measure 37
0010
0000
0000
0000
0100
0000
1000
0000
0010
0000
0000
0100
0000
0000
0010
0000
,  // measure 38
2200
0000
3300
0022
0000
0000
0033
0000
,  // measure 39
1000
0000
0000
0010
0000
0000
0100
0000
0010
0000
0000
1000
0000
0000
0001
0000
,  // measure 40
0010
0000
0000
0100
0000
0000
0001
0000
0010
0000
0000
0100
0000
0000
1000
0000
,  // measure 41
0010
0000
0000
0100
0000
0000
0001
0000
0010
0000
0000
0100
0000
0000
1000
0000
,  // measure 42
0010
0000
0000
0001
0000
0000
0010
0000
1000
0000
0000
0100
0000
0000
0001
0000
,  // measure 43
0010
0000
0000
0001
0000
0000
1000
0000
0010
0000
0000
0100
0000
0000
0001
0000
,  // measure 44
0010
0000
0000
1000
0000
0000
0001
0000
0010
0000
0000
0100
0000
0000
1000
0000
,  // measure 45
0010
0000
0000
0001
0000
0000
0100
0000
1000
0000
0000
0010
0000
0000
0100
0000
,  // measure 46
2000
0000
3100
0001
0010
0100
1000
0000
,  // measure 47
0002
0000
1003
0100
0010
1000
0001
0000
,  // measure 48
0200
0000
0310
1000
0010
0100
0001
0000
,  // measure 49
0020
0000
0031
0100
0010
1000
0010
0000
,  // measure 50
2000
0000
3001
0010
0100
1000
0010
0000
,  // measure 51
0002
0000
0103
1000
0010
0001
0100
0000
,  // measure 52
2000
0000
3010
0001
0100
0001
1000
0000
,  // measure 53
0020
0000
0000
0000
0031
0000
0100
0000
1000
0000
0000
0010
0000
0000
0100
0000
,  // measure 54
2020
0000
3030
0202
0000
0000
0303
0000
,  // measure 55
1000
0000
0010
0001
0100
0001
0010
0000
,  // measure 56
0202
0000
0303
2020
0000
0000
3030
0000
,  // measure 57
0100
0000
0000
0001
0000
0000
0010
0000
0100
0000
0000
1000
0000
0000
0001
0000
,  // measure 58
0100
0000
0000
0001
0000
0000
0010
0000
1000
0000
0000
0001
0000
0000
0100
0000
,  // measure 59
1000
0000
0000
0001
0000
0000
0010
0000
1000
0000
0000
0010
0000
0000
0001
0000
,  // measure 60
0100
0000
0000
1000
0000
0000
0010
0000
0100
0000
0000
1000
0000
0000
0010
0000
,  // measure 61
0100
0000
0000
0001
0000
0000
0010
0000
1000
0000
0000
0001
0000
0000
0100
0000
,  // measure 62
1000
0001
0100
0010
1000
0001
0100
0000
,  // measure 63
0010
0001
1000
0100
0010
1000
0100
0000
,  // measure 64
0010
0001
1000
0010
0100
0001
1000
0000
,  // measure 65
0100
0001
0010
1000
0100
0010
1000
0000
,  // measure 66
0010
0001
1000
0010
0100
0001
1000
0000
,  // measure 67
0100
0001
0010
0100
1000
0001
0010
0000
,  // measure 68
0100
0001
0010
1000
0100
0010
1000
0000
,  // measure 69
0100
0000
0000
0000
0010
0000
0001
0000
1000
0000
0000
0100
0000
0000
0010
0000
,  // measure 70
2000
0000
3200
0000
0301
0010
1000
0001
,  // measure 71
0200
0000
0320
0000
1030
0001
0010
0100
,  // measure 72
2000
0000
3200
0000
0310
1000
0100
0001
,  // measure 73
0020
0000
0032
0000
0103
1000
0001
0100
,  // measure 74
0020
0000
2030
0000
3010
0001
1000
0010
,  // measure 75
0200
0000
0320
0000
1030
0001
0010
0001
,  // measure 76
2000
0000
3002
0000
0013
0100
0001
1000
,  // measure 77
0020
0000
0000
0000
0230
0000
0001
0000
1300
0000
0000
0010
0000
0000
0001
0000
,  // measure 78
1000
0000
0000
0000
,  // measure 79
0000
0000
0000
0000
,  // measure 80
0001
0000
0000
0000
,  // measure 81
0000
0000
0000
0000
,  // measure 82
0100
0010
0000
0010
,  // measure 83
0000
0010
0000
0010
,  // measure 84
0100
0010
0000
0010
,  // measure 85
0000
0010
0000
0000
,  // measure 86
1000
1000
0100
0100
,  // measure 87
0010
0010
0001
0001
,  // measure 88
0100
0100
0010
0010
,  // measure 89
1000
1000
0001
0001
,  // measure 90
1001
1000
0100
0100
,  // measure 91
0110
0010
0001
0001
,  // measure 92
0101
0100
0010
0010
,  // measure 93
2000
0000
0000
3000
,  // measure 94
0020
0000
2000
0030
,  // measure 95
3100
0000
0000
0001
0000
0000
0100
0000
2000
0000
0000
0000
0000
0000
0000
0000
,  // measure 96
3020
0000
0002
0030
,  // measure 97
1003
0000
0000
1000
0000
0000
0100
0000
0010
0000
0000
0010
0000
0000
0001
0000
,  // measure 98
0020
0000
0002
0030
,  // measure 99
0103
0000
0000
1000
0000
0000
0100
0000
0002
0000
0000
0000
0000
0000
0000
0000
,  // measure 100
0023
0000
2000
0030
,  // measure 101
3001
0000
0000
0001
0000
0000
0100
0000
0010
0000
0000
0010
0000
0000
1000
0000
,  // measure 102
2200
0000
3300
0022
0000
0000
0033
0000
,  // measure 103
1000
0000
0000
0010
0000
0000
0100
0000
0010
0000
0000
1000
0000
0000
0001
0000
,  // measure 104
0010
0000
0000
0100
0000
0000
0001
0000
0010
0000
0000
0100
0000
0000
1000
0000
,  // measure 105
0010
0000
0000
0100
0000
0000
0001
0000
0010
0000
0000
0100
0000
0000
1000
0000
,  // measure 106
0100
0000
0000
0001
0010
0000
0000
1000
,  // measure 107
0010
0000
0000
1000
0001
0000
0000
0010
,  // measure 108
0100
0000
0000
1000
0000
0000
0100
0000
0010
0000
0000
0001
0000
0000
0100
0000
,  // measure 109
0010
0000
0000
0001
0000
0000
0010
0000
1000
0000
0000
0010
0000
0000
1000
0000
,  // measure 110
0002
0000
2000
0003
,  // measure 111
0100
0000
0000
0100
0000
0000
3100
0000
1000
0000
0000
0000
0001
0000
0000
0000
,  // measure 112
2000
0000
0002
3000
,  // measure 113
1000
0000
0000
0100
0000
0000
1003
0000
0001
0000
0000
0010
0000
0000
0001
0000
,  // measure 114
2000
0000
0002
3000
,  // measure 115
0100
0000
0000
0100
0000
0000
0103
0000
0001
0000
0000
0000
1000
0000
0000
0000
,  // measure 116
0002
0000
2000
0003
,  // measure 117
0001
0000
0000
0100
0000
0000
3010
0000
1000
0000
0000
0010
0000
0000
1000
0000
,  // measure 118
0020
0100
1000
0130
,  // measure 119
0002
0010
0100
0013
,  // measure 120
0202
0000
0303
2020
0000
0000
3030
0000
,  // measure 121
0100
0000
0000
0001
0000
0000
0010
0000
0100
0000
0000
1000
0000
0000
0001
0000
,  // measure 122
0100
0000
0000
0001
0000
0000
0010
0000
1000
0000
0000
0001
0000
0000
0100
0000
,  // measure 123
1000
0000
0000
0001
0000
0000
0010
0000
1000
0000
0000
0010
0000
0000
0001
0000
,  // measure 124
0100
0000
0000
1000
0000
0000
0010
0000
0100
0000
0000
1000
0000
0000
0010
0000
,  // measure 125
0100
0000
0000
0001
0000
0000
0010
0000
1000
0000
0000
0001
0000
0000
0100
0000
,  // measure 126
1000
0001
0100
0010
1000
0001
0100
0000
,  // measure 127
0010
0001
1000
0100
0010
1000
0100
0000
,  // measure 128
0010
0001
1000
0010
0100
0001
1000
0000
,  // measure 129
0100
0001
0010
1000
0100
0010
1000
0000
,  // measure 130
0010
0001
1000
0010
0100
0001
1000
0000
,  // measure 131
0100
0001
0010
0100
1000
0001
0010
0000
,  // measure 132
0100
0001
0010
1000
0100
0010
1000
0000
,  // measure 133
0100
0000
0000
0000
0010
0000
0001
0000
1000
0000
0000
0100
0000
0000
0010
0000
,  // measure 134
2000
0000
3200
0000
0301
0010
1000
0001
,  // measure 135
0200
0000
0320
0000
1030
0001
0010
0100
,  // measure 136
2000
0000
3200
0000
0310
1000
0100
0001
,  // measure 137
0020
0000
0032
0000
0103
1000
0001
0100
,  // measure 138
0020
0000
2030
0000
3010
0001
1000
0010
,  // measure 139
0200
0000
0302
0000
0013
0100
0001
0100
,  // measure 140
0010
1000
0001
0010
0001
1000
0010
1000
,  // measure 141
0001
0010
0001
1000
0010
0000
1001
0000
,  // measure 142
0100
0010
0100
0010
0001
0100
0001
0100
,  // measure 143
0010
1000
0100
1000
0010
1000
0100
1000
,  // measure 144
0100
0010
0100
0010
0001
0100
0001
0000
,  // measure 145
0010
1000
0100
1000
0010
1000
0100
0000
,  // measure 146
0100
0010
0100
0000
0001
0100
0001
0000
,  // measure 147
0010
1000
0100
0000
0010
1000
0100
0000
,  // measure 148
0100
0000
0100
0000
0001
0100
0001
0000
,  // measure 149
0010
0000
0001
0000
0100
0000
1000
0000
0010
0000
0000
1000
0000
0000
0001
0000
,  // measure 150
0100
0100
0001
0001
,  // measure 151
0100
0100
1000
1000
,  // measure 152
0010
0100
0010
0000
0100
0010
0100
0000
,  // measure 153
1000
0001
1000
0000
0001
1000
0001
0000
,  // measure 154
0101
0100
0001
0010
,  // measure 155
1100
0100
1000
0010
,  // measure 156
1010
0100
0001
1000
,  // measure 157
0011
0000
0000
0000
0100
0000
1000
0000
1010
0000
0000
0100
0000
0000
0010
0000
,  // measure 158
1000
0000
0000
0000
;
