#TITLE:Tell Me What To Do;
#SUBTITLE:Short Song;
#ARTIST:atomsoak ft. cerol;
#TITLETRANSLIT:;
#SUBTITLETRANSLIT:;
#ARTISTTRANSLIT:;
#CREDIT:;
#BANNER:Tell Me What To Do.png;
#BACKGROUND:Tell Me What To Do-bg.png;
#LYRICSPATH:;
#CDTITLE:./CDTITLES/DanceDanceRevolution II.png;
#MUSIC:Tell Me What To Do.ogg;
#OFFSET:0.000;
#SAMPLESTART:81.100;
#SAMPLELENGTH:15.000;
#SELECTABLE:YES;
#DISPLAYBPM:145.000;
#BPMS:0.000=145.004;
#STOPS:;
#BGCHANGES:;

//---------------dance-single - ----------------
#NOTES:
     dance-single:
     :
     Beginner:
     3:
     0.140,0.174,0.036,0.000,0.000:
0000
0000
0000
0000
,
0000
0000
0000
0000
,
0000
0000
0000
0000
,
0000
0000
0000
0000
,
0000
0000
0000
0000
,
0010
0000
0000
0000
,
0100
0000
0000
0000
,
1000
0000
0000
0000
,
0001
0000
0000
0000
,
1000
0000
0000
0000
,
0001
0000
0000
0000
,
1001
0000
0000
0000
,
0010
0000
0100
0000
,
1000
0000
0000
0000
,
0001
0000
0000
0000
,
1001
0000
0000
0000
,
0010
0000
0100
0000
,
1000
0000
1000
0000
,
0001
0000
0001
0000
,
0010
0000
0010
0000
,
0100
0000
0100
0000
,
0010
0000
0010
0000
,
0001
0000
0001
0000
,
1000
0000
1000
0000
,
0100
0000
0100
0000
,
0001
0001
0000
0000
,
1000
1000
0000
0000
,
0010
0010
0000
0000
,
0100
0100
0000
0000
,
0001
0001
0000
0000
,
1000
1000
0000
0000
,
0010
0010
0000
0000
,
0100
0100
0000
0000
,
0000
0000
0000
0000
,
0000
0001
0000
0001
,
0000
1000
0000
1000
,
0000
0001
0000
0001
,
0000
1000
0000
1000
,
0000
0010
0000
0010
,
0000
0100
0000
0100
,
0000
1000
0000
1000
,
1000
0000
0000
0000
,
1000
1000
0000
0000
,
0001
0001
0001
0000
,
1000
0000
1000
0000
,
0010
0010
0010
0000
,
1000
0000
1000
0000
,
0100
0000
0100
0000
,
0001
0000
0001
0000
,
0010
0010
0010
0000
,
1000
0000
1000
0000
,
0001
0000
0001
0000
,
0100
0000
0100
0000
,
0001
0001
0001
0000
,
0100
0000
0100
0000
,
1000
0000
1000
0000
,
0010
0000
0010
0000
,
1000
0000
0000
0000
,
0001
0000
0000
0000
,
1001
0000
0000
0000
,
0010
0000
0100
0000
,
1000
0000
0000
0000
,
0001
0000
0000
0000
,
1001
0000
0000
0000
,
0010
0000
0100
0000
,
;

//---------------dance-single - ----------------
#NOTES:
     dance-single:
     :
     Easy:
     6:
     0.205,0.262,0.153,0.009,0.000:
0000
0000
0000
0000
,
0000
0000
0000
0000
,
0000
0000
0000
0000
,
0000
0000
0000
0000
,
0000
0000
0000
0000
,
1010
0000
0000
0000
,
1010
0000
0000
0000
,
0101
0000
0000
0000
,
1000
0000
0001
0000
,
0011
0000
0000
0000
,
0011
0000
0000
0000
,
1100
0000
0000
0000
,
1000
0000
0001
0000
,
1001
0000
0000
0000
,
1001
0000
0000
0000
,
1001
0000
0000
0000
,
0010
0000
0100
0000
,
0010
1000
0010
1000
,
0001
0000
0100
0000
,
0010
0001
1000
0100
,
0001
0000
1000
0000
,
0001
0010
0001
0010
,
1000
0000
0100
0000
,
0001
0000
0100
0000
,
1000
0000
0100
0000
,
0010
0000
1000
1000
,
0001
0000
0100
0100
,
0001
0000
0100
0001
,
1000
0000
0100
1000
,
0010
0000
1000
0001
,
0100
0000
0001
1000
,
0010
0000
0001
0001
,
0100
0000
1000
1000
,
0000
0000
0000
0000
,
0001
1000
0001
0000
,
1000
0001
1000
0000
,
0010
0001
0010
0000
,
1000
0010
1000
0000
,
0010
0010
0001
0001
,
1000
1000
0100
0100
,
0001
0100
0001
0100
,
0002
0000
0000
0003
,
1000
1000
0000
0001
,
0001
0001
0000
1000
,
1000
0000
0001
0000
,
0010
0001
0010
0000
,
1000
0100
1000
0000
,
0001
0000
0100
0000
,
1000
0000
1000
0000
,
0010
0001
0010
0000
,
1000
0100
1000
0000
,
0010
0001
0001
0000
,
0100
0000
0100
0000
,
0001
0100
0001
0000
,
1000
0100
1000
0000
,
0010
0000
0001
0000
,
1000
0000
0100
0000
,
1001
0000
0001
0000
,
1001
0000
1000
0000
,
1001
0000
0001
0000
,
0010
0000
0100
0000
,
1010
0000
1000
0000
,
1100
0000
0100
0000
,
0011
0000
0001
0000
,
1001
0000
1001
0000
,
;

//---------------dance-single - ----------------
#NOTES:
     dance-single:
     :
     Medium:
     9:
     0.388,0.474,0.099,0.433,0.185:
0000
0000
0000
0000
,
0000
0000
0000
0000
,
0000
0000
0000
0000
,
0000
0000
0000
0000
,
0000
0000
0000
0000
,
0001
0000
0000
0010
0000
0000
0000
0000
0000
0000
0000
0000
0001
0000
0000
0000
,
0100
0000
0000
0001
0000
0000
0000
0000
0000
0000
0000
0000
1000
0000
0000
0000
,
0010
0000
0000
1000
0000
0000
0000
0000
0000
0000
0000
0000
0010
0000
0000
0000
,
0100
0000
0000
0010
0000
0000
0000
0000
1000
0000
0000
0100
0000
0000
0000
0000
,
0010
0000
0000
0001
0000
0000
0000
0000
0000
0000
0000
0000
1000
0000
0000
0000
,
0010
0000
0000
1000
0000
0000
0000
0000
0000
0000
0100
0000
0001
0000
0000
0000
,
0100
0000
0000
1000
0000
0000
0000
0000
0000
0000
0000
0000
0001
0000
0000
0000
,
0100
0000
0000
0001
0000
0000
0000
0000
0010
0000
0000
0001
0000
0000
1000
0000
,
0010
0000
0000
1000
0000
0000
0000
0000
0000
0000
0000
0000
0001
0000
0000
0000
,
0010
0000
0000
0001
0000
0000
0000
0000
0000
0000
0100
0000
1000
0000
0000
0000
,
0100
0000
0000
0001
0000
0000
0000
0000
0000
0000
0000
0000
1000
0000
0000
0000
,
0100
0000
0000
1000
0000
0000
0000
0000
0010
0000
0000
1000
0000
0000
0010
0000
,
0200
0000
0000
0002
0000
0000
0000
0000
0000
0000
0000
0000
0303
0000
0000
0000
,
0010
0000
0001
0000
0100
0010
1000
0000
,
0200
0000
0000
2000
0000
0000
0000
0000
0000
0000
0000
0000
3300
0000
0000
0000
,
0010
0000
0000
1010
0000
0000
0000
0000
0100
0000
0000
0101
0000
0000
0000
0000
,
0020
0000
0000
0002
0000
0000
0000
0000
0000
0000
0000
0000
0033
0000
0000
0000
,
0100
0000
0001
0000
0010
0100
1000
0000
,
0020
0000
0000
2000
0000
0000
0000
0000
0000
0000
0000
0000
3030
0000
0000
0000
,
1000
0000
0000
1100
0000
0000
0000
0000
0001
0000
0000
0011
0000
0000
0000
0000
,
0200
0000
0000
2000
0000
0000
0000
0000
0000
0000
0000
0000
3300
0000
0000
0000
,
0010
0000
1000
0000
0100
0010
0001
0000
,
0200
0000
0000
0002
0000
0000
0000
0000
0000
0000
0000
0000
0303
0000
0000
0000
,
0010
0000
0000
0011
0000
0000
0000
0000
0100
0000
0000
1100
0000
0000
0000
0000
,
0020
0000
0000
2000
0000
0000
0000
0000
0000
0000
0000
0000
3030
0000
0000
0000
,
0100
0000
1000
0000
0010
0100
0001
0000
,
0020
0000
0000
0002
0000
0000
0000
0000
0000
0000
0000
0000
0033
0000
0000
0000
,
0001
0000
0000
0101
0000
0000
0000
0000
1000
0000
0000
1010
0000
0000
0000
0000
,
1000
0000
0100
0000
0001
0100
1000
0000
,
0100
1000
0100
1000
,
0010
1000
0010
1000
,
0001
0100
0001
0100
,
0001
0000
0010
0000
1000
0010
0001
0000
,
0100
1000
0100
1000
,
0100
0001
0100
0001
,
1000
0000
0001
0010
1000
0010
0001
0000
,
0200
0000
0000
0000
0000
0001
0301
0000
,
1000
0010
1000
0000
0100
1000
0100
0000
,
2000
0000
0000
0000
0000
0100
3100
0000
,
0010
0001
0010
0000
0001
0100
0001
0000
,
0020
0000
0000
0000
0000
1000
1030
0000
,
0010
0001
0100
0000
0001
1000
0100
0000
,
0022
0000
0000
0000
0033
0000
0100
0001
,
1000
0010
1000
0000
0010
1000
0100
1000
,
0200
0000
0000
0000
0000
1000
1300
0000
,
0001
0010
0001
0000
0100
0001
0100
0000
,
0002
0000
0000
0000
0000
0100
0103
0000
,
0010
1000
0010
0000
1000
0100
1000
0000
,
0020
0000
0000
0000
0000
0001
0031
0000
,
0010
1000
0100
0000
1000
0001
0100
0000
,
2020
0000
0000
0000
3030
0000
0100
1000
,
0001
0010
0001
0000
0010
0001
0100
0001
,
0200
0000
0000
0002
0000
0000
0000
0000
0303
0000
1000
0000
0010
0000
1000
0000
,
0200
0000
0000
2000
0000
0000
0000
0000
3300
0000
0001
0000
0010
0000
0001
0000
,
2000
0000
0000
0020
0000
0000
0000
0000
3030
0000
0100
0000
0001
0000
0100
0000
,
0002
0000
0000
0020
0033
0000
0000
0000
0002
0000
0000
0200
0303
0000
0000
0000
,
0020
0000
0000
2000
0000
0000
0000
0000
3030
0000
0001
0000
0100
0000
0001
0000
,
0020
0000
0000
0002
0000
0000
0000
0000
0033
0000
1000
0000
0100
0000
1000
0000
,
0002
0000
0000
2000
0000
0000
0000
0000
0000
0000
0000
0000
3003
0000
0000
0000
,
0200
0000
0000
2000
3300
0000
0000
0000
0002
0000
0000
0020
0033
0000
0001
0000
,
0202
0000
0000
0303
,
;

//---------------dance-single - ----------------
#NOTES:
     dance-single:
     :
     Hard:
     12:
     0.523,0.498,0.000,0.027,0.352: // measure 1
0000
0000
0000
0000
,  // measure 2
0000
0000
0000
0000
,  // measure 3
0000
0000
0000
0000
,  // measure 4
0000
0000
0000
0000
,  // measure 5
0000
0000
0000
0000
,  // measure 6
1000
0000
0000
1000
0000
0000
0000
0000
0001
0000
0000
0000
1000
0000
0000
0000
,  // measure 7
0001
0000
0000
0001
0000
0000
0000
0000
0100
0000
0000
0000
0010
0000
0000
0000
,  // measure 8
1000
0000
0000
1000
0000
0000
0000
0000
0001
0000
0000
0000
0100
0000
0000
0000
,  // measure 9
0010
0000
0000
0010
0000
0000
1000
0000
0001
0000
0000
0001
0000
0000
0100
0000
,  // measure 10
1000
0000
0000
0001
0000
0000
0100
0000
0000
0000
0010
0000
1000
0001
0000
0000
,  // measure 11
0010
0000
0000
0001
0000
0000
1000
0000
0100
0000
1000
0000
0001
0000
0000
0000
,  // measure 12
0100
0000
0000
0010
0000
0000
1000
0000
0000
0000
0001
0000
1000
0001
0000
0000
,  // measure 13
1000
0000
0000
0010
0000
0000
1000
0000
0001
0000
0000
0010
0000
0000
0001
0000
,  // measure 14
0010
0000
0000
0100
0000
0000
1000
0000
0000
0000
0001
0000
1000
0001
0000
0000
,  // measure 15
0100
0000
0000
0001
0000
0000
0100
0000
0010
0000
1000
0000
0001
0000
1000
0000
,  // measure 16
0001
0000
0000
0010
0000
0000
0000
0000
0000
0000
0001
0000
1000
0001
0000
0000
,  // measure 17
1000
0000
0000
0010
0000
0000
1000
0000
0001
0000
0000
0010
0000
0000
0001
0000
,  // measure 18
0010
0000
0000
0010
0100
0000
0000
0000
1000
0000
0001
0000
0100
0000
0010
0000
,  // measure 19
1000
0000
0000
1000
0001
0000
0000
0000
1000
0000
0100
0000
0010
0000
0001
0000
,  // measure 20
0100
0000
0000
0100
0001
0000
0000
0000
1000
0000
0100
0000
0010
0000
0001
0000
,  // measure 21
1000
0000
0000
1000
0000
0000
0001
0000
0010
0000
0000
0010
0000
0000
0001
0000
,  // measure 22
0100
0000
0000
0100
0001
0000
0000
0000
1000
0000
1000
0000
0001
0000
1000
0000
,  // measure 23
0001
0000
0000
0001
1000
0000
0000
0000
0100
0000
0010
0000
0001
0000
1000
0000
,  // measure 24
0010
0000
0000
0010
1000
0000
0000
0000
0001
0000
0100
0000
0010
0000
0010
0000
,  // measure 25
1000
0000
0000
1000
0000
0000
0000
0000
0010
0000
0000
0010
1000
0000
0010
0000
,  // measure 26
0100
0000
0000
0001
0100
0000
0000
0000
0010
0000
1000
0000
0100
0000
0010
0000
,  // measure 27
0001
0000
0000
1000
0001
0000
0000
0000
0100
0000
0010
0000
1000
0000
0001
0000
,  // measure 28
0010
0000
0000
0100
0010
0000
0000
0000
0001
0000
0100
0000
0010
0000
1000
0000
,  // measure 29
0001
0000
0000
1000
0001
0000
0100
0000
0010
0000
0000
0100
0001
0000
1000
0000
,  // measure 30
0100
0000
0000
1000
0100
0000
0000
0000
1000
0000
0100
0000
0010
0000
0001
0000
,  // measure 31
1000
0000
0000
0010
1000
0000
0000
0000
0001
0000
0100
0000
0010
0000
1000
0000
,  // measure 32
0001
0000
0000
0010
0001
0000
1000
0000
0001
0000
0000
1000
0100
0000
1000
0000
,  // measure 33
0010
0000
0000
0100
0010
0000
0100
0000
0001
0000
0000
1000
0100
0000
0010
0000
,  // measure 34
2000
0000
0000
3000
,  // measure 35
1000
0000
0100
0000
0010
0000
0001
0000
1000
0001
0000
0000
0100
0000
0010
0000
,  // measure 36
1000
0000
0001
0000
0010
0000
0100
0000
1000
0001
0000
0000
1000
0000
0001
0000
,  // measure 37
0100
0000
0010
0000
1000
0000
0001
0000
0010
0001
0000
0000
1000
0000
0001
0000
,  // measure 38
1000
0000
0100
0000
0010
0000
0001
0000
1000
0001
0000
0000
0100
0000
0010
0000
,  // measure 39
1000
0000
0001
0000
0010
0000
0100
0000
1000
0001
0000
0000
0100
0000
0010
0000
,  // measure 40
1000
0000
0100
0000
0010
0000
0001
0000
0100
0001
0000
0000
1000
0000
0001
0000
,  // measure 41
0010
0000
0100
0000
1000
0000
0001
0000
0100
0010
0000
0000
1000
0000
0001
0000
,  // measure 42
0100
0000
0000
0100
0000
0000
0001
0000
0010
0000
0100
0000
1000
0000
0001
0000
,  // measure 43
1000
0000
0000
1000
0000
0000
0001
0000
0010
0000
0100
0000
1000
0000
0001
0000
,  // measure 44
0010
0000
0000
0010
0000
0000
0001
0000
1000
0000
1000
0000
0001
0000
0001
0000
,  // measure 45
0100
0000
0000
0100
0000
0000
0010
0000
1000
0000
0000
1000
0000
0000
0001
0000
,  // measure 46
0010
0000
0010
0001
1000
0001
0100
0000
,  // measure 47
1000
0000
0001
0001
0100
0010
1000
0001
,  // measure 48
0200
0001
1000
0300
,  // measure 49
0002
0000
0000
0000
0003
0000
0000
0000
1000
0000
0001
1000
0001
0000
1000
0001
,  // measure 50
1000
0000
0000
0010
0100
0000
0001
0000
1000
0000
0100
0000
0010
0000
0001
0000
,  // measure 51
1000
0000
0000
0100
0010
0000
0001
0000
0100
0000
0000
0010
1000
0000
0001
0000
,  // measure 52
1000
0000
0000
0001
0100
0000
0001
0000
1000
0000
0100
0000
0010
0000
0001
0000
,  // measure 53
1000
0000
0000
0100
1000
0000
0001
0000
0100
0000
0000
0010
1000
0000
0001
0000
,  // measure 54
0010
0000
0000
0001
1000
0000
0001
0000
0100
0000
0010
0000
1000
0000
0001
0000
,  // measure 55
0010
0000
0000
0100
1000
0000
0001
0000
0100
0000
0000
0010
1000
0000
0001
0000
,  // measure 56
1000
0000
0000
0100
0010
0000
0001
0000
1000
0000
0001
0000
0100
0000
0010
0000
,  // measure 57
1000
0000
0000
0001
0010
0000
0001
0000
1000
0000
0100
1000
0001
0000
1000
0001
,  // measure 58
1000
0000
0000
0100
0000
0000
0000
0000
0100
0000
0010
0000
1000
0000
0100
0000
,  // measure 59
0010
0000
0000
0001
0000
0000
0000
0000
0100
0000
0010
0000
1000
0000
0001
0000
,  // measure 60
1000
0000
0000
0100
0000
0000
0000
0000
0100
0000
0001
0000
1000
0000
0001
0000
,  // measure 61
0010
0000
0000
0001
0000
0000
0000
0000
0100
0000
0000
0010
1000
0000
0001
0000
,  // measure 62
1000
0000
0000
0100
0000
0000
0000
0000
1000
0000
0001
0000
0100
0000
0010
0000
,  // measure 63
1000
0000
0000
0001
0000
0000
0000
0000
1000
0000
0100
0000
1000
0000
0001
0000
,  // measure 64
0010
0000
0000
0100
0000
0000
0000
0000
1000
0000
0001
0000
0100
0000
0001
0000
,  // measure 65
1000
0000
0000
0100
0010
0000
0001
0000
1000
0000
0000
0001
1000
0000
0001
1000
;

//---------------dance-double - ----------------
#NOTES:
     dance-double:
     :
     Easy:
     6:
     0.201,0.262,0.144,0.009,0.000:
00000000
00000000
00000000
00000000
,
00000000
00000000
00000000
00000000
,
00000000
00000000
00000000
00000000
,
00000000
00000000
00000000
00000000
,
00000000
00000000
00000000
00000000
,
10100000
00000000
00000000
00000000
,
10100000
00000000
00000000
00000000
,
01010000
00000000
00000000
00000000
,
00010000
00000000
00001000
00000000
,
00001010
00000000
00000000
00000000
,
00000101
00000000
00000000
00000000
,
00001010
00000000
00000000
00000000
,
00001000
00000000
00010000
00000000
,
00110000
00000000
00000000
00000000
,
00110000
00000000
00000000
00000000
,
11000000
00000000
00000000
00000000
,
00010000
00000000
00001000
00000000
,
00000010
00001000
00000100
00000001
,
00001000
00000000
00000100
00000000
,
00000010
00001000
00000001
00000100
,
00000001
00000000
00001000
00000000
,
00010000
00100000
01000000
10000000
,
00010000
00000000
01000000
00000000
,
00100000
00000000
10000000
00000000
,
00010000
00000000
00100000
00000000
,
00010000
00000000
00001000
00000100
,
00001000
00000000
00000010
00000010
,
00000001
00000000
00000010
00000001
,
00001000
00000000
00000010
00001000
,
00010000
00000000
00100000
00010000
,
10000000
00000000
01000000
10000000
,
00010000
00000000
00100000
00010000
,
00001000
00000000
00000100
00000100
,
00000000
00000000
00000000
00000000
,
00000010
00001000
00000001
00000000
,
00000010
00001000
00000010
00000000
,
00000100
00000001
00000100
00000000
,
00000010
00001000
00000010
00000000
,
00001000
00010000
01000000
01000000
,
00100000
00100000
00010000
00010000
,
10000000
01000000
00010000
01000000
,
00020000
00000000
00000000
00030000
,
00001000
00000010
00000000
00000000
,
00000100
00000001
00000000
00000000
,
00001000
00000000
00000100
00000000
,
00001000
00010000
01000000
00000000
,
00010000
00100000
00010000
00000000
,
01000000
00000000
00010000
00000000
,
00100000
00000000
00100000
00000000
,
10000000
00100000
10000000
00000000
,
01000000
00010000
00001000
00000000
,
00000100
00000001
00000001
00000000
,
00000100
00000000
00000100
00000000
,
00000001
00000010
00000001
00000000
,
00001000
00000100
00001000
00000000
,
00010000
00000000
01000000
00000000
,
00100000
00000000
10000000
00000000
,
10100000
00000000
10000000
00000000
,
10100000
00000000
00100000
00000000
,
01010000
00000000
00010000
00000000
,
00001000
00000000
00000100
00000000
,
00001010
00000000
00000010
00000000
,
00001010
00000000
00001000
00000000
,
00001000
00000000
00010000
00000000
,
00110000
00000000
00110000
00000000
,
;

//---------------dance-double - ----------------
#NOTES:
     dance-double:
     :
     Medium:
     9:
     0.406,0.474,0.000,0.469,0.167:
00000000
00000000
00000000
00000000
,
00000000
00000000
00000000
00000000
,
00000000
00000000
00000000
00000000
,
00000000
00000000
00000000
00000000
,
00000000
00000000
00000000
00000000
,
10000000
00000000
00000000
01000000
00000000
00000000
00000000
00000000
00000000
00000000
00000000
00000000
00000000
00000000
00000000
00000000
,
00010000
00000000
00000000
00001000
00000000
00000000
00000000
00000000
00000000
00000000
00000100
00000000
00000001
00000000
00000000
00000000
,
00000010
00000000
00000000
00001000
00000000
00000000
00000000
00000000
00000000
00000000
00000000
00000000
00000000
00000000
00000000
00000000
,
00010000
00000000
00000000
00100000
00000000
00000000
00000000
00000000
00010000
00000000
00000000
00001000
00000000
00000000
00000000
00000000
,
00010000
00000000
00000000
01000000
00000000
00000000
00000000
00000000
00000000
00000000
10000000
00000000
10000000
00000000
00000000
00000000
,
00100000
00000000
00000000
10000000
00000000
00000000
00000000
00000000
00000000
00000000
00000000
00000000
00100000
00000000
00000000
00000000
,
10000000
00000000
00000000
01000000
00000000
00000000
00000000
00000000
00000000
00000000
00100000
00000000
00100000
00000000
00000000
00000000
,
00010000
00000000
00000000
00001000
00000000
00000000
00000000
00000000
00000010
00000000
00000000
00000001
00000000
00000000
00000000
00000000
,
00001000
00000000
00000000
00000100
00000000
00000000
00000000
00000000
00000000
00000000
00000001
00000000
00000001
00000000
00000000
00000000
,
00000010
00000000
00000000
00000001
00000000
00000000
00000000
00000000
00000000
00000000
00000000
00000000
00000010
00000000
00000000
00000000
,
00000001
00000000
00000000
00000100
00000000
00000000
00000000
00000000
00000000
00000000
00000010
00000000
00000010
00000000
00000000
00000000
,
00001000
00000000
00000000
00010000
00000000
00000000
00000000
00000000
00100000
00000000
00000000
00010000
00000000
00000000
01000000
00000000
,
10000000
01000000
00010000
00000000
00000000
00100000
00010000
00000000
,
00002000
00000000
00000000
00000020
00000000
00000000
00000000
00000000
00000000
00000000
00000000
00000000
00003030
00000000
00000000
00000000
,
00000001
00000010
00001000
00000000
00000000
00000100
00001000
00000000
,
00020000
00000000
00000000
00002000
00033000
00000000
00000000
00000000
00020000
00000000
00000000
00200000
00330000
00000000
00000000
00000000
,
00010000
01000000
10000000
00000000
00000000
01000000
00010000
00000000
,
00200000
00000000
00000000
20000000
30300000
00000000
00000000
00000000
00000000
00000000
00100000
00000000
00020000
00000000
02000000
00000000
,
00000000
00000000
03030000
00000000
00000000
00000000
00010000
00001000
,
00000200
00000000
00000000
00002000
00003300
00000000
00000000
00000000
00000200
00000000
00000000
00000002
00000303
00000000
00000000
00000000
,
00000001
00000100
00001000
00000000
00000000
00000010
00001000
00000000
,
00020000
00000000
00000000
00200000
00000000
00000000
00000000
00000000
00000000
00000000
00000000
00000000
00330000
00000000
00000000
00000000
,
10000000
00100000
00010000
00000000
00000000
01000000
00010000
00000000
,
00002000
00000000
00000000
00020000
00033000
00000000
00000000
00000000
00002000
00000000
00000000
00000020
00003030
00000000
00000000
00000000
,
00001000
00000100
00000001
00000000
00000000
00000100
00001000
00000000
,
00000020
00000000
00000000
00000002
00000033
00000000
00000000
00000000
00000000
00000000
00000010
00000000
00002000
00000000
00000200
00000000
,
00000000
00000000
00003300
00000000
00000000
00000000
00001000
00010000
,
02000000
00000000
00000000
00020000
03030000
00000000
00000000
00000000
00200000
00000000
00000000
20000000
30300000
00000000
00000000
00000000
,
00200000
00000000
00020000
00330000
,
10000000
01000000
10000000
01000000
,
00010000
00000000
01000000
00000000
00010000
00001000
00010000
00000000
,
00001000
00000100
00001000
00000100
,
00000001
00000000
00000010
00000000
00000001
00000010
00001000
00000000
,
00000010
00001000
00000010
00001000
,
00010000
00000000
00001000
00000000
00010000
00001000
00010000
00000000
,
00100000
00000000
00010000
00000000
00100000
10000000
01000000
10000000
,
01000000
10000000
01000000
00010000
00000000
00100000
00010000
00000000
,
00001000
00000000
00010000
00000000
00001000
00000100
00000001
00000000
,
00000010
00000001
00000100
00001000
00000000
00000100
00000001
00000000
,
00000010
00001000
00010000
00001000
,
00010000
00100000
10000000
01000000
00000000
00010000
01000000
00000000
,
00010000
00000000
00001000
00000000
00010000
00001000
00000010
00001000
,
00000010
00000000
00000001
00000000
00000100
00000000
00001000
00000100
,
00000001
00000000
00000010
00000000
00001000
00000010
00000001
00000000
,
00000100
00000001
00000100
00001000
00000000
00000010
00001000
00000000
,
00010000
00000000
00001000
00000000
00010000
01000000
10000000
00000000
,
00100000
10000000
01000000
00010000
00000000
01000000
10000000
00000000
,
00100000
00010000
00001000
00010000
,
00001000
00000010
00000001
00000100
00000000
00001000
00000100
00000000
,
00001000
00000000
00010000
00000000
00001000
00010000
00100000
00010000
,
00100000
00000000
10000000
00000000
01000000
00000000
00010000
01000000
,
10000000
00000000
00100000
00000000
00010000
00100000
10000000
00000000
,
02000000
00000000
00000000
20000000
00000000
00000000
00000000
00000000
33000000
00000000
00000000
00000000
01000000
00000000
00010000
00000000
,
00002000
00000000
00000000
00020000
00000000
00000000
00000000
00000000
00033000
00000000
00000000
00000000
00001000
00000000
00000100
00000000
,
00000002
00000000
00000000
00000020
00000000
00000000
00000000
00000000
00000033
00000000
00000000
00000000
00001000
00000000
00000010
00000000
,
00000002
00000000
00000000
00000200
00000303
00000000
00000000
00000000
00000020
00000000
00000000
00002000
00003030
00000000
00000001
00000000
,
00000200
00000000
00000000
00000002
00000000
00000000
00000000
00000000
00000303
00000000
00000000
00000000
00000100
00000000
00001000
00000000
,
00020000
00000000
00000000
00002000
00000000
00000000
00000000
00000000
00033000
00000000
00000000
00000000
00010000
00000000
01000000
00000000
,
20000000
00000000
00000000
00200000
00000000
00000000
00000000
00000000
30300000
00000000
00000000
00000000
00010000
00000000
00100000
00000000
,
20000000
00000000
00000000
02000000
33000000
00000000
00000000
00000000
00200000
00000000
00000000
00020000
00330000
00000000
20000000
00000000
,
00200000
00000000
00000000
30300000
,
;

//---------------dance-double - ----------------
#NOTES:
     dance-double:
     :
     Hard:
     12:
     0.523,0.498,0.000,0.063,0.329:
00000000
00000000
00000000
00000000
,
00000000
00000000
00000000
00000000
,
00000000
00000000
00000000
00000000
,
00000000
00000000
00000000
00000000
,
00000000
00000000
00000000
00000000
,
00100000
00000000
00000000
00100000
00000000
00000000
00000000
00000000
01000000
00000000
00000000
00000000
00010000
00000000
00000000
00000000
,
00001000
00000000
00000000
00001000
00000000
00000000
00000000
00000000
00000100
00000000
00000000
00000000
00000001
00000000
00000000
00000000
,
00000010
00000000
00000000
00000010
00000000
00000000
00000000
00000000
00000100
00000000
00000000
00000000
00001000
00000000
00000000
00000000
,
00010000
00000000
00000000
00010000
00000000
00000000
00001000
00000000
00100000
00000000
00000000
00100000
00000000
00000000
00010000
00000000
,
10000000
00000000
00000000
20000000
00000000
00000000
00000000
00000000
30000000
00000000
01000000
00000000
00010000
00001000
00000000
00000000
,
00000100
00000000
00000000
00000100
00000000
00000000
00000000
00000000
00001000
00000000
00000000
00000000
00000100
00000000
00000000
00000000
,
00010000
00000000
00000000
00020000
00000000
00000000
00000000
00000000
00030000
00000000
01000000
00000000
10000000
00010000
00000000
00000000
,
10000000
00000000
00000000
10000000
00000000
00000000
01000000
00000000
00010000
00000000
00000000
00010000
00000000
00000000
00001000
00000000
,
00000100
00000000
00000000
00000200
00000000
00000000
00000000
00000000
00000300
00000000
00000001
00000000
00001000
00000001
00000000
00000000
,
00001000
00000000
00000000
00001000
00000000
00000000
00000000
00000000
00000100
00000000
00000000
00000000
00001000
00000000
00000000
00000000
,
00010000
00000000
00000000
00020000
00000000
00000000
00000000
00000000
00030000
00000000
00001000
00000000
00100000
00010000
00000000
00000000
,
10000000
00000000
00000000
10000000
00000000
00000000
01000000
00000000
00010000
00000000
00000000
00010000
00000000
00000000
00001000
00000000
,
00000100
00000000
00000000
00001000
00000100
00000000
00000000
00000000
00000001
00000000
00001000
00000000
00000010
00000000
00000100
00000000
,
00001000
00000000
00000000
00010000
00001000
00000000
00000000
00000000
00010000
00000000
01000000
00000000
10000000
00000000
00010000
00000000
,
10000000
00000000
00000000
01000000
10000000
00000000
00000000
00000000
01000000
00000000
00010000
00000000
00001000
00000000
00000100
00000000
,
00000001
00000000
00000000
00000100
00000001
00000000
00000100
00000000
00001000
00000000
00000000
00010000
00001000
00000000
00010000
00000000
,
01000000
00000000
00000000
10000000
01000000
00000000
00000000
00000000
00100000
00000000
00010000
00000000
01000000
00000000
00010000
00000000
,
01000000
00000000
00000000
00001000
00010000
00000000
00001000
00000000
00000100
00000000
00000001
00000000
00000010
00000000
00000001
00000000
,
00001000
00000000
00000000
00000001
00001000
00000000
00000000
00000000
00000010
00000000
00000100
00000000
00001000
00000000
00010000
00000000
,
01000000
00000000
00000000
10000000
00010000
00000000
01000000
00000000
00100000
00000000
00000000
01000000
00010000
00000000
10000000
00000000
,
01000000
00000000
00000000
00010000
00001000
00000000
00000000
00000000
00000100
00000000
00000000
00000000
00000001
00000000
00000000
00000000
,
00001000
00000000
00000000
00000001
00001000
00000000
00000010
00000000
00000100
00000000
00001000
00000000
00010000
00000000
00000000
00000000
,
01000000
00000000
00000000
10000000
00010000
00000000
00000000
00000000
00100000
00000000
00000000
00000000
01000000
00000000
00100000
00000000
,
01000000
00000000
00000000
00010000
00001000
00000000
00000100
00000000
00000001
00000000
00000000
00001000
00000010
00000000
00000100
00000000
,
00001000
00000000
00000000
00010000
00001000
00000000
00000000
00000000
00100000
00000000
01000000
00000000
10000000
00000000
00000000
00000000
,
00010000
00000000
00000000
10000000
00010000
00000000
00000000
00000000
00000000
00000000
00100000
00000000
01000000
00000000
00100000
00000000
,
01000000
00000000
00000000
00010000
00001000
00000000
00000000
00000000
00000100
00000000
00000001
00000000
00000010
00000000
00000001
00000000
,
00001000
00000000
00000000
00000001
00000000
00000000
00000100
00000000
00001000
00000000
00000000
00010000
00000000
00000000
01000000
00000000
,
20000000
00000000
00000000
00000000
30000000
00000000
00000000
00000000
02000000
00000000
00000000
00000000
00000000
03000000
00000000
00000000
,
00010000
00000000
00001000
00000000
00000100
00000000
00000001
00000000
00001000
00000001
00000000
00000000
00001000
00000000
00000001
00000000
,
00000100
00000000
00001000
00000000
00010000
00000000
01000000
00000000
10000000
00010000
00000000
00000000
10000000
00000000
00010000
00000000
,
01000000
00000000
00100000
00000000
00010000
00000000
00001000
00000000
00000100
00001000
00000000
00000000
00000100
00000000
00000001
00000000
,
00000010
00000000
00000100
00000000
00001000
00000000
00000001
00000000
00000100
00001000
00000000
00000000
00010000
00000000
01000000
00000000
,
10000000
00000000
00010000
00000000
01000000
00000000
00100000
00000000
10000000
00010000
00000000
00000000
00100000
00000000
01000000
00000000
,
00010000
00000000
00001000
00000000
00000100
00000000
00000001
00000000
00001000
00000001
00000000
00000000
00000100
00000000
00000010
00000000
,
00000100
00001000
00010000
01000000
10000000
00010000
00100000
01000000
,
00010000
00000000
00000000
00001000
00010000
00000000
00000010
00000000
00001000
00000000
00000001
00000000
00000100
00000000
00000000
00000000
,
00001000
00000000
00000000
00010000
00001000
00000000
01000000
00000000
00010000
00000000
10000000
00000000
01000000
00000000
00000000
00000000
,
00010000
00000000
00000000
00001000
00010000
00000000
00000100
00000000
00000010
00000000
00000001
00000000
00000100
00000000
00000020
00000000
,
00000100
00001000
00000100
00001030
,
00000100
00000000
00000000
00001000
00010000
00000000
01000000
00000000
10000000
00000000
00010000
00000000
00100000
00000000
00000000
00000000
,
01000000
00010000
00001000
00000010
00000001
00000100
00000010
00000000
,
00000100
00000000
00000000
00001000
00010000
00000000
00001000
00000000
00100000
00000000
00010000
00000000
10000000
00000000
01000000
00000000
,
00010000
00000000
00000000
00001000
00010000
00000000
00000100
00000000
00000010
00000000
00000001
00000000
00000010
00000000
00000001
00000000
,
00000100
00000000
00000000
00001000
00000100
00000000
00001000
00000000
00010000
00000000
01000000
00000000
10000000
00000000
00010000
00000000
,
00100000
00000000
00000000
01000000
00100000
00000000
01000000
00000000
00010000
00000000
00000000
00001000
00010000
00000000
00000100
00000000
,
00001000
00000000
00000000
00000001
00000100
00000000
00000001
00000000
00000010
00000000
00000100
00000000
00001000
00000000
00010000
00000000
,
01000000
00000000
00000000
00010000
01000000
00000000
00100000
00000000
10000000
00000000
00000000
00010000
10000000
00000000
01000000
00000000
,
00010000
00000000
00000000
00001000
00000100
00000000
00000001
00000000
00000010
00000000
00000001
00000000
00001000
00000000
00000010
00000000
,
00000100
00000000
00000000
00001000
00010000
00000000
00001000
00000000
00100000
00000000
00000000
00010000
10000000
00000000
01000000
00000000
,
00010000
00000000
00000000
00001000
00010000
00000000
00001000
00000000
00000010
00000000
00000001
00000000
00000100
00000000
00000010
00000000
,
00001000
00000000
00000000
00000100
00001000
00000000
00000001
00000000
00000100
00000000
00000000
00001000
00010000
00000000
00010000
00000000
,
00100000
00000000
00000000
00010000
00000000
00000000
00000000
00000000
10000000
00000000
01000000
00000000
00100000
00000000
00010000
00000000
,
01000000
00000000
00000000
00010000
00000000
00000000
00000000
00000000
00001000
00000000
00000100
00000000
00000010
00000000
00000001
00000000
,
00000100
00000000
00000000
00001000
00000000
00000000
00000000
00000000
00010000
00000000
01000000
00000000
10000000
00000000
00010000
00000000
,
00100000
00000000
00000000
00010000
00000000
00000000
00100000
00000000
00001000
00000000
00000000
00010000
00000000
00000000
00001000
00000000
,
00000100
00000000
00000000
00000001
00000000
00000000
00001000
00000000
00000001
00000000
00000100
00000000
00000010
00000000
00001000
00000000
,
00000010
00000000
00000000
00000100
00000000
00000000
00001000
00000000
00010000
00000000
01000000
00000000
10000000
00000000
00010000
00000000
,
00100000
00000000
00000000
00010000
00000000
00000000
00100000
00000000
00010000
00000000
00001000
00000000
00000100
00000000
00000001
00000000
,
00001000
00000000
00000000
00000001
00000000
00000000
00000100
00000000
00001000
00000000
00010000
00000000
00100000
00000000
00010000
00100000
,
;
