#TITLE:Take A Step Forward;
#SUBTITLE:Full Song;
#ARTIST:TAG feat. Sydney Powers;
#TITLETRANSLIT:;
#SUBTITLETRANSLIT:;
#ARTISTTRANSLIT:;
#CREDIT:;
#BANNER:Take A Step Forward (Full Song).png;
#BACKGROUND:Take A Step Forward (Full Song)-bg.png;
#LYRICSPATH:;
#CDTITLE:./CDTITLES/DanceDanceRevolution II.png;
#MUSIC:Take A Step Forward (Full Song).ogg;
#OFFSET:0.000;
#SAMPLESTART:54.160;
#SAMPLELENGTH:15.000;
#SELECTABLE:YES;
#DISPLAYBPM:145.000;
#BPMS:0.000=144.997;
#STOPS:;
#BGCHANGES:;

//---------------dance-single - ----------------
#NOTES:
     dance-single:
     :
     Beginner:
     2:
     0.128,0.172,0.013,0.111,0.000:
0000
0000
0000
0000
,
0000
0000
0000
0000
,
0000
0000
0000
0000
,
0000
0000
0000
0000
,
0000
0000
0000
0000
,
0000
0000
0000
0000
,
0000
0000
0000
0000
,
0000
0000
0000
0000
,
0000
0000
0000
0000
,
0001
0000
0000
0000
,
0010
0000
0000
0000
,
1000
0000
0000
0000
,
0100
0000
0000
0000
,
0001
0000
0001
0000
,
0010
0000
0010
0000
,
2000
0000
3000
0000
,
0200
0000
0300
0000
,
0001
0001
0000
0000
,
0010
0010
0000
0000
,
1000
1000
0000
0000
,
0100
0000
0100
0000
,
0010
0010
0000
0000
,
0001
0001
0000
0000
,
0100
0100
0000
0000
,
0010
0000
0010
0000
,
2000
0000
3000
0000
,
0002
0000
0003
0000
,
2000
0000
3000
0000
,
0002
0000
0003
0000
,
0001
0001
0000
0000
,
0010
0010
0000
0000
,
1000
0000
0001
0000
,
0000
0000
0000
0000
,
0001
0000
0001
0000
,
0010
0000
0010
0000
,
1000
0000
0000
0000
,
0001
0000
0000
0000
,
0010
0000
0010
0000
,
0100
0000
0100
0000
,
2000
0000
3000
0000
,
0002
0000
0003
0000
,
1001
0000
0000
0000
,
0000
0000
0000
0000
,
0100
0000
0000
0000
,
0000
0000
0000
0000
,
0010
0000
0010
0000
,
0001
0000
0001
0000
,
0100
0000
0100
0000
,
1000
0000
1000
0000
,
1000
1000
0000
0000
,
0010
0010
0000
0000
,
0001
0001
0000
0000
,
0100
0000
0100
0000
,
0010
0010
0000
0000
,
1000
1000
0000
0000
,
0100
0100
0000
0000
,
0010
0000
0010
0000
,
0002
0000
0003
0000
,
2000
0000
3000
0000
,
0002
0000
0003
0000
,
2000
0000
3000
0000
,
1000
1000
0000
0000
,
0010
0010
0000
0000
,
0001
0000
1000
0000
,
0000
0000
0000
0000
,
1000
0000
1000
0000
,
0010
0000
0010
0000
,
0001
0000
0000
0000
,
1000
0000
0000
0000
,
0010
0000
0010
0000
,
0100
0000
0100
0000
,
0002
0000
0003
0000
,
2000
0000
3000
0000
,
1001
0000
0000
0000
,
0000
0000
0000
0000
,
0100
0000
0000
0000
,
0000
0000
0000
0000
,
0010
0000
0010
0000
,
0001
0000
0001
0000
,
0100
0000
0100
0000
,
1000
0000
1000
0000
,
1001
0000
0000
0000
,
0000
0000
0000
0000
,
0100
0000
0000
0000
,
0000
0000
0000
0000
,
0010
0000
0010
0000
,
0001
0000
0001
0000
,
0100
0000
0100
0000
,
1000
0000
1000
0000
,
0002
0000
0003
0000
,
0000
0000
0000
0000
,
0020
0000
0030
0000
,
0000
0000
0000
0000
,
2000
0000
3000
0000
,
0000
0000
0000
0000
,
0200
0000
0000
0300
,
0000
0000
0000
0000
,
0002
0000
0003
0000
,
0001
0000
0010
0000
,
0020
0000
0030
0000
,
0010
0000
1000
0000
,
2000
0000
3000
0000
,
1000
0000
0100
0000
,
0200
0000
0000
0300
,
0000
0000
0000
0000
,
0001
0000
0001
0000
,
0100
0000
0100
0000
,
0001
0000
0000
0000
,
1000
0000
0000
0000
,
0100
0000
0100
0000
,
0001
0000
0001
0001
,
0001
0000
0000
0000
,
1000
0000
0000
0000
,
0001
0000
0001
0000
,
0100
0000
0100
0000
,
1000
0000
0001
0000
,
1000
0000
0001
0000
,
0010
0000
0010
0000
,
1000
0000
1000
1000
,
2000
0000
3000
0000
,
0002
0000
0003
0000
,
1000
0000
0010
0000
,
0100
0000
0001
0000
,
0010
0000
0100
0000
,
1000
1000
1000
0000
,
0001
0000
0100
0000
,
1000
0000
0100
0000
,
0010
0000
0000
0000
,
2000
0000
0000
0000
,
3001
0000
0000
0000
,
;

//---------------dance-single - ----------------
#NOTES:
     dance-single:
     :
     Easy:
     7:
     0.309,0.374,0.075,0.386,0.000:
0000
0000
0000
0000
,
0000
0000
0000
0000
,
0000
0000
0000
0000
,
0000
0000
0000
0000
,
0000
0000
0000
0000
,
0000
0000
0000
0000
,
0000
0000
0000
0000
,
0000
0000
0000
0000
,
0000
0000
0000
0000
,
0002
0000
0000
0003
,
2000
0000
0000
3000
,
0100
0000
1000
0000
,
0100
0000
0001
0000
,
0010
0000
1000
1000
,
0100
0000
0001
0001
,
0100
0000
1000
1000
,
0100
0001
0010
1000
,
0010
1000
0020
0030
,
0100
0001
0200
0300
,
0010
0001
0020
0030
,
1000
0100
0001
0010
,
1000
0100
1000
1000
,
0100
0001
0100
0100
,
0001
0010
0001
0001
,
0010
1000
1001
0001
,
2000
0000
0100
3100
,
0200
0000
0301
0100
,
2000
3100
0002
0103
,
1000
0200
0000
0300
,
0010
0001
0100
1000
,
0100
0001
0010
1000
,
0020
0000
0002
0033
,
1000
0100
0010
0001
,
1000
0000
1010
0000
,
0100
0001
0101
0101
,
2000
0000
0010
3001
,
0200
0000
0001
0310
,
1000
0100
0001
0100
,
1000
0010
0100
0001
,
0200
0000
0001
0301
,
0010
0001
0100
1000
,
0200
0000
0301
0010
,
0002
0000
0013
1000
,
0020
0000
1030
0100
,
0002
0000
1003
0001
,
1000
2000
3100
0001
,
0100
0200
0301
0010
,
0001
0002
0013
1000
,
0001
1000
0001
1001
,
0010
0001
0020
0030
,
0100
1000
0200
0300
,
0010
1000
0020
0030
,
0001
0100
1000
0010
,
0001
0100
0001
0001
,
0100
1000
0100
0100
,
1000
0010
1000
1000
,
0010
0001
1001
1000
,
0002
0000
0100
0103
,
0200
0000
1300
0100
,
0002
0103
2000
3100
,
0001
0200
0000
0300
,
0010
1000
0100
0001
,
0100
1000
0010
0001
,
0020
0000
2000
3030
,
0001
0100
0010
1000
,
0001
0000
0011
0000
,
0100
1000
1100
1100
,
0002
0000
0010
1003
,
0200
0000
1000
0310
,
0001
0100
1000
0100
,
0001
0010
0100
1000
,
0200
0000
1000
1300
,
0010
1000
0100
0001
,
0200
0000
1300
0010
,
2000
0000
3010
0001
,
0020
0000
0031
0100
,
2000
0000
3001
1000
,
0001
0002
0103
1000
,
0100
0200
1300
0010
,
1000
2000
3010
0001
,
1000
0001
1000
1001
,
0200
0000
0301
0010
,
0002
0000
0013
1000
,
0020
0000
1030
0100
,
0002
0000
1003
0001
,
1000
2000
3100
0001
,
0100
0200
0301
0010
,
0001
0002
0013
1000
,
0001
1000
0001
1001
,
1000
0000
1000
0100
,
1000
0000
0001
0100
,
0010
0000
0010
0100
,
0002
0003
2000
3000
,
0100
0000
0010
0001
,
0100
0000
0010
1000
,
0100
0000
1000
0001
,
0200
0300
0020
0030
,
0001
0000
0001
0100
,
0001
0000
1000
0100
,
0010
0000
0010
0100
,
2000
3000
0002
0003
,
0100
0000
0010
1000
,
0100
0000
0010
0001
,
0100
0000
0001
1000
,
0200
0000
0000
0300
,
2002
0003
0200
3000
,
0002
0300
0200
0003
,
1000
1300
0010
0001
,
0010
1000
0001
1000
,
0001
0002
0013
0020
,
1030
2000
3100
0200
,
0302
0000
0100
0103
,
0202
0303
2020
3030
,
0020
0030
2000
3000
,
0200
0301
0200
1300
,
0200
0300
1000
1000
,
0010
0010
0001
0001
,
0010
1000
0100
0001
,
0100
1000
0010
0001
,
0020
0030
1000
0100
,
0010
0001
1000
0100
,
2000
0000
3020
0000
,
0230
0000
0302
0103
,
0020
0000
2030
0000
,
3002
0100
0103
0000
,
2001
0000
3100
0000
,
1002
0000
0103
0000
,
0010
0000
0000
0000
,
0010
1000
0001
0100
,
2002
0000
0000
3003
,
;

//---------------dance-single - ----------------
#NOTES:
     dance-single:
     :
     Medium:
     9:
     0.341,0.344,0.009,0.257,0.060:
0000
0000
0000
0000
,
0000
0000
0000
0000
,
0000
0000
0000
0000
,
0000
0000
0000
0000
,
0000
0000
0000
0000
,
0000
0000
0000
0000
,
0000
0000
0000
0000
,
0000
0000
0000
0000
,
0000
0000
0000
0000
,
0020
0000
0000
0000
,
2000
0000
0000
0030
,
0200
3000
0002
0300
,
0020
0003
0002
0030
,
0020
0000
0003
0000
1030
0010
0000
0000
,
0002
0000
0000
0000
0103
0001
0000
0010
,
0200
0000
0000
0000
,
0300
0000
0000
0000
,
1000
0100
0001
0000
0010
0000
0001
0000
,
0100
0000
0010
1000
0100
0000
0001
0000
,
0100
1000
0010
0001
,
0200
0000
2000
3300
,
0001
0100
1000
0000
0010
0000
1000
0000
,
0100
0000
0010
0001
0100
0000
1000
0000
,
0100
0001
0010
1000
,
0020
0000
0031
0100
,
2020
0000
3030
0001
,
2000
0000
0000
3100
1000
0000
0010
0000
,
0001
0100
0001
0010
,
1000
0100
0001
0000
0000
0000
0100
0000
,
0010
0001
0010
0000
0100
1000
0100
0000
,
1000
0010
1000
0000
0001
0100
0001
0000
,
0020
0000
0000
0230
2000
0000
0000
0000
,
0300
0000
0010
0000
3010
0000
0001
0010
,
1000
0000
0000
0100
0000
0000
0010
0000
0001
0000
0000
0100
0000
0000
0010
0000
,
1000
0000
0000
0001
0000
0000
0010
0000
0100
0000
0000
0000
1000
0000
0000
0000
,
0010
0000
1000
1000
,
0200
0001
0010
1300
,
0001
0000
0000
0100
0000
0000
0010
0000
1000
0000
0000
0100
0000
0000
0010
0000
,
0001
0000
0000
1000
0000
0000
0010
0000
0100
0000
0000
0000
0001
0000
0000
0000
,
0020
0000
0000
0000
0000
0030
1000
0010
,
0001
0001
0200
0000
,
0302
0000
0000
0103
0001
0000
0000
0000
,
1000
0100
0000
0000
1000
0010
0000
0000
,
0200
0000
0000
0301
0100
0000
0000
0000
,
0001
0010
0000
0000
0100
1000
0010
0000
,
2000
0000
0000
3100
1000
0000
0000
0000
,
0001
0100
0000
0000
0001
0010
0000
0000
,
0200
0000
0000
1300
0100
0000
0000
0000
,
1000
0010
0000
0000
0100
0001
0010
0000
,
0001
0100
1000
0000
0010
0000
1000
0000
,
0100
0000
0010
0001
0100
0000
1000
0000
,
0100
0001
0010
1000
,
0200
0000
0002
0303
,
1000
0100
0001
0000
0010
0000
0001
0000
,
0100
0000
0010
1000
0100
0000
0001
0000
,
0100
1000
0010
0001
,
0020
0000
1030
0100
,
0022
0000
0033
1000
,
0002
0000
0000
0103
0001
0000
0010
0000
,
1000
0100
1000
0010
,
0001
0100
1000
0000
0000
0000
0100
0000
,
0010
1000
0010
0000
0100
0001
0100
0000
,
0001
0010
0001
0000
1000
0100
1000
0000
,
0020
0000
0000
0230
0002
0000
0000
0000
,
0300
0000
0010
0000
0013
0000
1000
0010
,
0001
0000
0000
0100
0000
0000
0010
0000
1000
0000
0000
0100
0000
0000
0010
0000
,
0001
0000
0000
1000
0000
0000
0010
0000
0100
0000
0000
0000
0001
0000
0000
0000
,
0010
0000
0001
0001
,
0200
1000
0010
0301
,
1000
0000
0000
0100
0000
0000
0010
0000
0001
0000
0000
0100
0000
0000
0010
0000
,
1000
0000
0000
0001
0000
0000
0010
0000
0100
0000
0000
0000
1000
0000
0000
0000
,
0020
0000
0000
0000
0000
0030
0001
0010
,
1000
1000
0200
0000
,
2300
0000
0000
3100
1000
0000
0000
0000
,
0001
0100
0000
0000
0001
0010
0000
0000
,
0200
0000
0000
1300
0100
0000
0000
0000
,
1000
0010
0000
0000
0100
0001
0010
0000
,
0002
0000
0000
0103
0001
0000
0000
0000
,
1000
0100
0000
0000
1000
0010
0000
0000
,
0200
0000
0000
0301
0100
0000
0000
0000
,
0001
0010
0000
0000
0100
1000
0010
0000
,
2000
0000
0000
3100
1000
0000
0000
0000
,
0001
0100
0000
0000
0001
0010
0000
0000
,
0200
0000
0000
1300
0100
0000
0000
0000
,
1000
0010
0000
0000
0100
0001
0010
0000
,
0002
0000
0000
0103
0001
0000
0000
0000
,
1000
0100
0000
0000
1000
0010
0000
0000
,
0200
0000
0000
0301
0100
0000
0000
0000
,
0001
0010
0001
0000
1000
0010
1000
0000
,
0001
0001
0001
0100
,
1000
1000
1000
0010
,
0100
0100
0100
1000
,
0001
0010
0100
1000
,
0001
0010
0001
0100
,
1000
0100
1000
0010
,
0100
0001
0100
1000
,
0001
0000
0010
0000
0100
1000
0001
0000
,
1000
1000
1000
0100
,
0001
0001
0001
0010
,
0100
0100
0100
0001
,
1000
0010
0100
0001
,
1000
0010
1000
0100
,
0001
0100
0001
0010
,
0100
1000
0100
0001
,
0200
0000
0000
0300
,
1000
0000
0000
0100
0000
0000
0010
0000
0001
0000
0000
0100
0000
0000
0010
0000
,
1000
0000
0000
0001
0000
0000
0010
0000
0100
0000
0000
0000
1000
0000
0000
0000
,
0010
0000
1000
1000
,
0200
0001
0010
1300
,
0001
0000
0000
0100
0000
0000
0010
0000
1000
0000
0000
0100
0000
0000
0010
0000
,
0001
0000
0000
1000
0000
0000
0010
0000
0100
0000
0000
0000
0001
0000
0000
0000
,
0020
0000
0000
0000
,
2000
0000
0030
0000
3100
0000
1000
0010
,
0001
0000
0000
0100
0000
0000
0010
0000
1000
0000
0000
0100
0000
0000
0010
0000
,
0001
0000
0000
1000
0000
0000
0010
0000
0100
0000
0000
0000
0100
0000
0000
0000
,
0010
0000
0000
0000
1000
0000
0100
0001
,
0200
1000
0010
0301
,
1000
0000
0000
0100
0000
0000
0010
0000
0001
0000
0000
0100
0000
0000
0010
0000
,
1000
0000
0000
0001
0000
0000
0010
0000
0100
0000
0000
1000
0000
0000
0010
0000
,
0002
0000
0000
0013
,
1000
0000
0000
0000
0100
0000
0000
0000
1000
0000
0000
0010
0000
0000
0001
0000
,
0020
0100
1030
0100
,
0002
0000
0010
0000
1003
0100
1000
0100
,
1000
0010
0001
0100
,
0020
1000
0001
0130
,
2000
0100
3002
0010
,
2003
0010
3002
0100
,
1003
0000
0000
0000
0100
0000
0010
0100
,
0001
0000
0000
0000
0100
0000
0000
0000
0001
0000
0000
0010
0000
0000
1000
0000
,
0100
0000
0000
0000
,
;

//---------------dance-single - ----------------
#NOTES:
     dance-single:
     :
     Hard:
     11:
     0.464,0.490,0.164,0.147,0.004: // measure 1
0000
0000
0000
0000
,  // measure 2
0000
0000
0000
0000
,  // measure 3
0000
0000
0000
0000
,  // measure 4
0000
0000
0000
0000
,  // measure 5
0000
0000
0000
0000
,  // measure 6
0000
0000
0000
0000
,  // measure 7
0000
0000
0000
0000
,  // measure 8
0000
0000
0000
0000
,  // measure 9
0000
0000
0000
0000
,  // measure 10
1000
0001
0010
0001
0000
1000
0100
0001
,  // measure 11
0010
0001
0100
1000
0000
0100
1000
0000
,  // measure 12
0100
1000
0010
0100
0000
1000
0100
0001
,  // measure 13
1000
0100
0010
0001
0000
1000
0100
0000
,  // measure 14
1000
0010
0100
1000
0000
0100
0010
0000
,  // measure 15
0100
0001
0010
1000
0000
0100
0010
0000
,  // measure 16
0100
0010
1000
0001
0000
0100
1000
0000
,  // measure 17
0100
1000
0010
0001
0000
0100
1000
0000
,  // measure 18
0110
0000
0001
1000
0100
0010
1000
0000
,  // measure 19
0010
0000
0100
0010
1000
0001
0100
0000
,  // measure 20
0010
0000
0100
0000
0010
0100
0010
1000
,  // measure 21
0100
0000
0010
1000
0012
0000
0103
0000
,  // measure 22
1010
0000
0100
0001
0010
0001
1000
0000
,  // measure 23
0100
0000
0010
1000
0100
0001
0010
0000
,  // measure 24
1000
0000
0010
0100
1000
0001
0100
0000
,  // measure 25
1000
0000
0010
0000
0100
0001
0010
0100
,  // measure 26
1000
0000
0010
1000
0010
0100
1000
0000
,  // measure 27
0100
0010
0100
0010
1000
0001
0100
0000
,  // measure 28
0010
0001
0100
1000
0100
0010
1000
0000
,  // measure 29
0100
0010
0100
1000
0010
0001
0100
0000
,  // measure 30
1000
0001
0010
0100
1000
0001
0010
0000
,  // measure 31
0100
0010
1000
0001
0100
0001
0010
0100
,  // measure 32
2020
0000
3030
0000
0100
0000
0010
0001
,  // measure 33
2020
0000
0000
0000
0000
3030
0100
0001
,  // measure 34
1000
0000
0100
0000
0010
0001
1000
0010
,  // measure 35
1000
0010
0011
1010
,  // measure 36
2200
0000
3300
0000
0100
0010
1000
0000
,  // measure 37
0100
0000
0010
1000
0100
0001
0010
0000
,  // measure 38
0100
0000
0001
0010
1000
0000
0100
0010
,  // measure 39
1000
0000
0010
0001
0100
0000
0010
1000
,  // measure 40
0202
0000
0303
0000
0000
0000
1000
0001
,  // measure 41
0010
0000
1000
0000
0010
0000
0100
0001
,  // measure 42
0220
0000
0000
0330
,  // measure 43
2002
0000
0000
3003
,  // measure 44
0100
0010
0001
0100
,  // measure 45
1000
0000
0010
0000
0100
0000
0010
0100
,  // measure 46
1000
0001
0010
1000
0100
0010
1000
0000
,  // measure 47
0010
0001
1000
0010
0100
0000
0010
0000
,  // measure 48
1000
0010
0100
0001
0010
1000
0100
0000
,  // measure 49
0010
1000
0100
0001
0010
1000
0100
0000
,  // measure 50
0110
0000
1000
0001
0100
0010
0001
0000
,  // measure 51
0010
0000
0100
0010
0001
1000
0100
0000
,  // measure 52
0010
0000
0100
0000
0010
0100
0010
0001
,  // measure 53
0100
0000
0010
0001
2010
0000
3100
0000
,  // measure 54
0011
0000
0100
1000
0010
1000
0001
0000
,  // measure 55
0100
0000
0010
0001
0100
1000
0010
0000
,  // measure 56
0001
0000
0010
0100
0001
1000
0100
0000
,  // measure 57
0001
0000
0010
0000
0100
1000
0010
0100
,  // measure 58
0001
0000
0010
0001
0010
0100
0001
0000
,  // measure 59
0100
0010
0100
0010
0001
1000
0100
0000
,  // measure 60
0010
1000
0100
0001
0100
0010
0001
0000
,  // measure 61
0100
0010
0100
0001
0010
1000
0100
0000
,  // measure 62
0001
1000
0010
0100
0001
1000
0010
0000
,  // measure 63
0100
0010
0001
1000
0100
1000
0010
0100
,  // measure 64
0022
0000
0033
0000
0100
0000
0010
1000
,  // measure 65
0022
0000
0000
0000
0000
0033
0100
1000
,  // measure 66
0001
0000
0100
0000
0010
1000
0001
0010
,  // measure 67
0001
0010
1010
0011
,  // measure 68
0202
0000
0303
0000
0100
0010
0001
0000
,  // measure 69
0100
0000
0010
0001
0100
1000
0010
0000
,  // measure 70
0100
0000
1000
0010
0001
0000
0100
0010
,  // measure 71
0001
0000
0010
1000
0100
0000
0010
0001
,  // measure 72
2200
0000
3300
0000
0000
0000
0001
1000
,  // measure 73
0010
0000
0001
0000
0010
0000
0100
1000
,  // measure 74
0220
0000
0000
0330
,  // measure 75
2002
0000
0000
3003
,  // measure 76
0100
0010
0001
0100
,  // measure 77
1000
0000
0010
0000
0100
0000
0010
0100
,  // measure 78
1000
0001
0010
1000
0100
0010
1000
0000
,  // measure 79
0010
0001
1000
0010
0100
0000
0010
0000
,  // measure 80
1000
0010
0100
0001
0010
1000
0100
0000
,  // measure 81
0010
1000
0100
0001
0010
1000
0100
0000
,  // measure 82
0010
0001
0100
0000
0010
0001
1000
0000
,  // measure 83
0010
1000
0100
0000
0010
0001
0100
0000
,  // measure 84
0010
1000
0100
0001
1000
0000
0010
0000
,  // measure 85
0100
1000
0010
0001
1000
0000
0100
0000
,  // measure 86
0010
1000
0100
0000
0010
1000
0001
0000
,  // measure 87
0010
0001
0100
0000
0010
1000
0100
0000
,  // measure 88
0010
0001
0100
1000
0001
0000
0010
0000
,  // measure 89
0100
0000
0001
0000
0010
0000
1000
0000
0001
0000
0000
1000
0000
0000
0110
0000
,  // measure 90
0001
0010
0001
0010
,  // measure 91
0100
0010
0100
0001
,  // measure 92
0100
1000
0010
0100
,  // measure 93
0001
0010
0100
1000
0010
0100
0001
0000
,  // measure 94
0100
0000
0010
0000
1000
0000
0010
1000
,  // measure 95
0100
0000
0010
0000
0100
0000
1000
0001
,  // measure 96
0100
0000
0001
0000
0010
1000
0100
0010
,  // measure 97
1000
0000
0000
0000
0100
0000
0001
0000
0010
0000
0000
1000
0000
0000
0100
0000
,  // measure 98
1000
0010
1000
0010
,  // measure 99
0100
0010
0100
1000
,  // measure 100
0100
0001
0010
0100
,  // measure 101
1000
0010
0100
0001
0010
0100
1000
0000
,  // measure 102
0100
0000
0010
0000
0001
0000
0010
0001
,  // measure 103
0100
0000
0010
0000
0100
0000
0001
1000
,  // measure 104
0100
0000
1000
0000
0010
0001
0100
1000
,  // measure 105
0020
0000
0000
0000
0000
0000
0130
1000
,  // measure 106
0001
0100
0010
0000
0001
1000
0010
0000
,  // measure 107
0100
1000
0010
0000
0101
0000
1100
0000
,  // measure 108
0220
0000
0330
0001
0010
1000
0100
0001
,  // measure 109
0010
0000
1000
0010
0001
1000
0100
0000
,  // measure 110
0010
0000
1000
0100
0010
0000
0001
1000
,  // measure 111
0100
0000
0010
1000
0001
0000
0100
1000
,  // measure 112
0010
0000
0001
0100
0010
0000
0001
0000
,  // measure 113
0010
0000
0100
0010
1000
0000
0001
0100
,  // measure 114
0010
0000
0001
1000
0100
0000
0010
0001
,  // measure 115
0100
1000
0101
0110
,  // measure 116
2020
0000
3030
1000
0010
0001
0100
0010
,  // measure 117
1000
0000
0100
0010
0001
1000
0100
0000
,  // measure 118
0010
0000
1000
0001
0010
0000
0100
1000
,  // measure 119
0001
0000
0010
1000
0100
0000
0010
0001
,  // measure 120
0100
0000
1000
0000
0100
0000
0010
0100
,  // measure 121
0001
0010
0100
1000
0010
0000
0100
0000
,  // measure 122
1010
0000
0100
0000
1000
0100
0010
0000
,  // measure 123
1100
0000
0010
0000
0001
0010
0001
0100
,  // measure 124
0010
1000
0100
0000
0001
0100
1000
0000
,  // measure 125
0001
0010
1000
0010
0001
0000
0100
0000
,  // measure 126
1010
0100
0011
0100
,  // measure 127
1010
0001
0011
1000
,  // measure 128
0110
0000
0000
1000
0100
0001
0010
0100
,  // measure 129
1000
0010
0100
0001
0010
0000
0100
0000
,  // measure 130
2020
0000
0000
3030
;
