#TITLE:Surrender (PureFocus remix);
#SUBTITLE:Full Song;
#ARTIST:U1 ft. Becca Hossany;
#TITLETRANSLIT:;
#SUBTITLETRANSLIT:;
#ARTISTTRANSLIT:;
#CREDIT:;
#BANNER:Surrender (PureFocus remix) (Full Song).png;
#BACKGROUND:Surrender (PureFocus remix) (Full Song)-bg.png;
#LYRICSPATH:;
#CDTITLE:./CDTITLES/DanceDanceRevolution II.png;
#MUSIC:Surrender (PureFocus remix) (Full Song).ogg;
#OFFSET:0.000;
#SAMPLESTART:60.840;
#SAMPLELENGTH:15.000;
#SELECTABLE:YES;
#DISPLAYBPM:130.000;
#BPMS:0.000=130.203;
#STOPS:;
#BGCHANGES:;

//---------------dance-single - ----------------
#NOTES:
     dance-single:
     :
     Beginner:
     2:
     0.114,0.160,0.019,0.066,0.000:
0000
0000
0000
0000
,
0000
0000
0000
0000
,
0000
0000
0000
0000
,
0000
0000
0000
0000
,
0000
0000
0000
0000
,
1000
0000
0000
0000
,
0001
0000
0000
0000
,
1000
0000
0000
0000
,
0001
0000
0000
0000
,
1001
0000
0000
0000
,
0000
0000
0000
0000
,
1001
0000
0000
0000
,
0000
0000
0000
0000
,
1001
0000
0000
0000
,
0000
0000
0000
0000
,
1001
0000
0000
0000
,
0000
0000
0000
0000
,
0001
0000
0000
0000
,
0010
0000
0000
0000
,
0001
0000
0000
0000
,
0200
0000
0300
0000
,
1000
0000
0000
0000
,
0010
0000
0000
0000
,
1000
0000
0000
0000
,
0200
0000
0300
0000
,
0001
0000
0100
0000
,
0001
0000
0100
0000
,
0001
0000
0100
0000
,
0002
0000
0003
0000
,
1000
0000
0100
0000
,
1000
0000
0100
0000
,
1000
0000
0100
0000
,
0200
0000
0300
0000
,
0001
0000
0001
0000
,
0100
0000
0100
0000
,
1000
0000
1000
0000
,
0001
1000
0001
0000
,
0001
0000
0001
0000
,
0100
0000
0100
0000
,
1000
0000
1000
0000
,
1000
0001
1000
0000
,
0000
0000
0000
0000
,
0000
0000
0000
0000
,
0000
0000
0000
0000
,
0000
0000
0000
0000
,
0100
0000
0000
0000
,
0000
0000
0000
0000
,
0100
0000
0000
0000
,
0000
0000
0000
0000
,
0001
0000
0000
0000
,
0010
0000
0000
0000
,
0001
0000
0000
0000
,
0200
0000
0300
0000
,
1000
0000
0000
0000
,
0010
0000
0000
0000
,
1000
0000
0000
0000
,
0200
0000
0300
0000
,
0001
0000
0100
0000
,
0001
0000
0100
0000
,
0001
0000
0100
0000
,
0002
0000
0003
0000
,
1000
0000
0100
0000
,
1000
0000
0100
0000
,
1000
0000
0100
0000
,
0200
0000
0300
0000
,
0001
0000
0001
0000
,
0100
0000
0100
0000
,
1000
0000
1000
0000
,
0001
1000
0001
0000
,
0001
0000
0001
0000
,
0100
0000
0100
0000
,
1000
0000
1000
0000
,
1000
0001
1000
0000
,
0002
0000
0003
0000
,
0000
0000
0000
0000
,
2000
0000
3000
0000
,
0000
0000
0000
0000
,
0200
0000
0300
0000
,
0000
0000
0000
0000
,
0020
0000
0030
0000
,
0000
0000
0000
0000
,
0001
0000
0000
0000
,
0000
0000
0000
0000
,
0001
0000
0000
0000
,
0000
0000
0000
0000
,
1000
0000
0000
0000
,
0000
0000
0000
0000
,
1000
0000
0000
0000
,
0001
0000
1000
0000
,
1000
0000
0100
0000
,
1000
0000
0100
0000
,
1000
0000
0100
0000
,
2000
0000
3000
0000
,
0001
0000
0100
0000
,
0001
0000
0100
0000
,
0001
0000
0100
0000
,
0200
0000
0300
0000
,
1000
0000
1000
0000
,
0100
0000
0100
0000
,
0001
0000
0001
0000
,
1000
0001
1000
0000
,
1000
0000
1000
0000
,
0100
0000
0100
0000
,
0001
0000
0001
0000
,
0001
1000
0001
0000
,
1000
0000
1000
0000
,
0100
0000
0100
0000
,
0001
0000
0001
0000
,
1000
0001
1000
0000
,
1000
0000
1000
0000
,
0100
0000
0100
0000
,
0001
0000
0001
0000
,
0001
1000
0001
0000
,
;

//---------------dance-single - ----------------
#NOTES:
     dance-single:
     :
     Easy:
     5:
     0.210,0.240,0.180,0.090,0.000:
0000
0000
0000
0000
,
0000
0000
0000
0000
,
0000
0000
0000
0000
,
0000
0000
0000
0000
,
0000
0000
0000
0000
,
1001
0000
0100
0000
,
1001
0000
0000
0000
,
1001
0000
0100
0000
,
1001
0000
0000
0000
,
1001
1000
1000
0001
,
0001
0001
0100
0000
,
1001
0001
0001
1000
,
1000
1000
0100
0000
,
1001
1000
1000
0001
,
0001
0001
0100
0000
,
1001
1000
0002
0003
,
2000
3000
0002
0003
,
0100
0000
0010
0000
,
0010
0010
0010
0000
,
0100
0000
0010
0000
,
0010
1000
0001
0000
,
1000
0100
0001
0000
,
0001
0001
0100
0000
,
0001
0001
1000
0100
,
0002
0000
0003
0000
,
1000
0010
1010
0000
,
1000
0010
1010
0000
,
1000
0010
1010
0000
,
2000
0000
3000
0000
,
0001
0100
0101
0000
,
0001
0100
0101
0000
,
0001
0100
0101
0000
,
0200
0000
0300
0000
,
1000
0010
1000
0000
,
0100
0010
0100
0000
,
0001
0010
0001
0000
,
1000
0001
1001
0000
,
1000
0010
1000
0000
,
0100
0010
0101
0000
,
0001
0010
0001
0000
,
0001
1000
0001
1001
,
0000
0000
0000
0000
,
0000
0000
0000
0000
,
0000
0000
0000
0000
,
0000
0000
0000
0000
,
0100
0000
0000
0000
,
0000
0000
0000
0000
,
0100
0000
0000
0000
,
0000
0000
0000
0000
,
0100
0000
0010
0000
,
0010
0010
0010
0000
,
0100
0000
0010
0000
,
0010
0001
1000
0000
,
0001
0100
1000
0000
,
1000
1000
0100
0000
,
1000
1000
0001
0100
,
2000
0000
3000
0000
,
0001
0010
0011
0000
,
0001
0010
0011
0000
,
0001
0010
0011
0000
,
0002
0000
0003
0000
,
1000
0100
1100
0000
,
1000
0100
1100
0000
,
1000
0100
1100
0000
,
0200
0000
0300
0000
,
0001
0010
0001
0000
,
0100
0010
0100
0000
,
1000
0010
1000
0000
,
0001
1000
1001
0000
,
0001
0010
0001
0000
,
0100
0010
1100
0000
,
1000
0010
1000
0000
,
1000
0001
1000
1001
,
2000
3000
0000
0000
,
0020
0030
0000
0000
,
2000
3000
0000
0000
,
0200
0300
0010
0100
,
2000
3000
0000
0000
,
0020
0030
0000
0000
,
2000
3000
0000
0000
,
0002
0000
1003
0000
,
0010
0000
0000
0000
,
0000
0000
0000
0000
,
0010
0000
0000
0000
,
0000
0000
0000
0000
,
0100
0000
0000
0000
,
0000
0000
0000
0000
,
0100
0000
0000
0000
,
1000
0000
0001
0000
,
0001
0100
0101
0000
,
0001
0100
0101
0000
,
0001
0100
0101
0000
,
0002
0000
0003
0000
,
1000
0010
1010
0000
,
1000
0010
1010
0000
,
1000
0010
1010
0000
,
0020
0000
0030
0000
,
0001
0100
0001
0000
,
0010
0100
0010
0000
,
1000
0100
1000
0000
,
0001
1000
1001
0000
,
0001
0100
0001
0000
,
0010
0100
1010
0000
,
1000
0100
1000
0000
,
1000
0001
1000
1001
,
1000
0100
1000
0000
,
0010
0100
0010
0000
,
0001
0100
0001
0000
,
1000
0001
1001
0000
,
1000
0100
1000
0000
,
0010
0100
0011
0000
,
0001
0100
0001
0000
,
0001
1000
0001
1001
,
;

//---------------dance-single - ----------------
#NOTES:
     dance-single:
     :
     Medium:
     9:
     0.337,0.400,0.246,0.109,0.000:
0000
0000
0000
0000
,
0000
0000
0000
0000
,
0000
0000
0000
0000
,
0000
0000
0000
0000
,
0000
0000
0000
0000
,
1001
0000
0000
1000
0100
0000
0000
0000
,
1001
0000
0001
0010
0100
0000
0100
0000
,
1001
0000
0000
0001
0100
0000
0000
0000
,
1001
0000
1000
0010
0100
0000
0100
0000
,
1001
0000
0100
1000
0100
0000
0001
0000
,
0001
0010
0001
0000
0010
0000
0010
0000
,
1001
0000
0100
0001
0100
0000
1000
0000
,
1000
0010
1000
0000
0010
0000
0010
0000
,
1001
0000
0100
1000
0100
0000
0001
0000
,
0001
0010
0001
0000
0010
0000
0010
0000
,
1001
0000
0100
0001
0100
0000
1000
0000
,
0100
1000
0100
0000
0001
0100
0001
0000
,
0100
0100
0010
0100
,
0010
0001
0010
1000
,
0100
0100
0010
0100
,
0010
0000
1000
0000
0001
0001
0010
0000
,
1000
0100
0001
1000
,
0001
1000
0001
0000
0100
0000
0100
0000
,
0001
0100
0001
0000
1000
0000
0100
0000
,
0002
0100
0103
0000
,
1000
0000
0100
0000
1010
0100
1010
0000
,
0001
0000
0100
0000
0011
0100
0011
0000
,
1000
0000
0100
0000
1010
0100
1010
0000
,
0002
0003
2000
3000
,
0001
0000
0100
0000
0011
0100
0011
0000
,
1000
0000
0100
0000
1010
0100
1010
0000
,
0001
0000
0100
0000
0011
0100
0011
0000
,
0020
0030
0200
0300
,
0001
0000
0010
0000
0001
0000
0010
0001
,
1000
0000
0010
0000
1000
0000
0010
1000
,
0001
0000
0010
0000
0001
0000
0010
0001
,
1000
0000
0100
1000
0100
0000
1001
0000
,
1000
0000
0010
0000
1000
0000
0010
1000
,
0001
0000
0010
0000
0001
0000
0010
0001
,
1000
0000
0010
0000
1000
0000
0010
1000
,
0001
0000
0001
0100
0001
0000
1001
0000
,
0200
0000
0000
0000
,
0000
0300
0000
0000
,
0000
0000
0000
0000
,
0000
0000
0000
0000
,
1000
0000
0000
0000
,
0001
0000
0000
0000
,
1000
0000
0000
0000
,
0001
0000
0000
0000
,
0010
0010
0100
0010
,
0100
0001
0100
1000
,
0010
0010
0100
0010
,
0100
0000
1000
0000
0001
0001
0100
0000
,
1000
0010
0001
1000
,
0001
1000
0001
0000
0010
0000
0010
0000
,
0001
0010
0001
0000
1000
0000
0010
0000
,
0002
0010
0013
0000
,
1000
0000
0010
0000
1100
0010
1100
0000
,
0001
0000
0010
0000
0101
0010
0101
0000
,
1000
0000
0010
0000
1100
0010
1100
0000
,
0002
0003
2000
3000
,
0001
0000
0010
0000
0101
0010
0101
0000
,
1000
0000
0010
0000
1100
0010
1100
0000
,
0001
0000
0010
0000
0101
0010
0101
0000
,
0200
0300
0020
0030
,
0001
0000
0100
0000
0001
0000
0100
0001
,
1000
0000
0100
0000
1000
0000
0100
1000
,
0001
0000
0100
0000
0001
0000
0100
0001
,
1000
0000
0010
1000
0010
0000
1001
0000
,
1000
0000
0100
0000
1000
0000
0100
1000
,
0001
0000
0100
0000
0001
0000
0100
0001
,
1000
0000
0100
0000
1000
0000
0100
1000
,
0001
0000
0001
0010
0001
0000
1001
0000
,
2000
0000
3000
0100
,
0020
0000
0030
0100
,
2000
0000
3000
0100
,
0020
0000
1030
0001
,
0002
0000
0003
0100
,
0020
0000
0030
0100
,
0002
0000
0003
0100
,
0020
0000
1030
0001
,
0010
0000
0000
0000
0000
0000
0000
0100
,
0000
0010
0000
0000
0000
0000
0000
0000
,
0010
0000
0000
0000
0000
0000
0000
0100
,
0000
0010
0000
0000
0000
0000
0000
0000
,
0100
0000
0000
0000
0000
0000
0000
0010
,
0000
0100
0000
0000
0000
0000
0000
0000
,
0010
0000
0010
0000
,
0001
0000
1000
0000
,
0001
0000
0010
0000
0101
0010
0101
0000
,
1000
0000
0010
0000
1100
0010
1100
0000
,
0001
0000
0010
0000
0101
0010
0101
0000
,
2000
3000
0002
0003
,
1000
0000
0010
0000
1100
0010
1100
0000
,
0001
0000
0010
0000
0101
0010
0101
0000
,
1000
0000
0010
0000
1100
0010
1100
0000
,
0200
0300
0020
0030
,
1000
0000
0100
0000
1000
0000
0100
1000
,
0001
0000
0100
0000
0001
0000
0100
0001
,
1000
0000
0100
0000
1000
0000
0100
1000
,
0001
0000
0010
0001
0010
0000
1001
0000
,
0001
0000
0100
0000
0001
0000
0100
0001
,
1000
0000
0100
0000
1000
0000
0100
1000
,
0001
0000
0100
0000
0001
0000
0100
0001
,
1000
0000
1000
0010
1000
0000
1001
0000
,
0001
0000
0100
0000
0001
0000
0100
0001
,
1000
0000
0100
0000
1000
0000
0100
1000
,
0001
0000
0100
0000
0001
0000
0100
0001
,
1000
0000
0010
1000
0010
0000
1001
0000
,
1000
0000
0100
0000
1000
0000
0100
1000
,
0001
0000
0100
0000
0001
0000
0100
0001
,
1000
0000
0100
0000
1000
0000
0100
1000
,
0001
0000
0001
0010
0001
0000
1001
0000
,
;

//---------------dance-single - ----------------
#NOTES:
     dance-single:
     :
     Hard:
     13:
     0.563,0.667,0.511,0.161,0.390: // measure 1
0000
0000
0000
0000
,  // measure 2
0000
0000
0000
0000
,  // measure 3
0000
0000
0000
0000
,  // measure 4
0000
0000
0000
0000
,  // measure 5
0000
0000
0000
0000
,  // measure 6
1001
0000
1001
0000
1001
0100
0001
0000
,  // measure 7
1001
0000
1001
0010
0100
0000
1001
0000
,  // measure 8
1001
0000
1001
0000
1001
0100
1000
0000
,  // measure 9
1001
0000
1001
0000
0010
0100
0010
0000
,  // measure 10
1001
0000
0100
1000
0100
1000
0001
1001
,  // measure 11
0000
0010
0010
0100
0010
0100
1000
0000
,  // measure 12
1001
0000
0100
0001
0100
0001
1000
1001
,  // measure 13
0000
0010
0010
0100
0010
0100
0001
0000
,  // measure 14
1001
0000
0100
1000
0100
1000
0001
1001
,  // measure 15
0000
0010
0010
0100
0010
0100
1000
0000
,  // measure 16
1001
0000
0000
0000
1000
0000
0100
0000
0001
0000
0000
1000
0000
0000
0100
0000
,  // measure 17
0001
0000
0000
1000
0000
0000
0100
0000
0001
0000
0000
1000
0000
0000
0000
0000
,  // measure 18
0100
0000
0000
0000
0100
0000
0000
0000
0100
0000
0000
1000
0000
0000
0001
0000
,  // measure 19
0010
0000
0010
0000
0010
0100
0010
0000
,  // measure 20
0100
0000
0000
0000
0100
0000
0000
0000
0100
0000
0000
0001
0000
0000
1000
0000
,  // measure 21
0010
0100
1000
0100
0001
0010
0001
0000
,  // measure 22
1000
0000
0100
0000
1000
0000
0000
0000
0001
0000
0000
1000
0000
0000
0100
0000
,  // measure 23
0001
0010
0001
0100
0010
0000
0010
0000
,  // measure 24
0001
0100
0001
0000
1000
0000
0100
0000
,  // measure 25
0010
0001
1000
0100
0010
0100
1001
0000
,  // measure 26
1000
0100
0000
0000
1000
0100
0000
0000
0011
0000
0011
0000
0110
0000
1100
0000
,  // measure 27
0001
0100
0000
0000
0001
0100
0000
0000
1010
0000
1010
0000
0110
0000
0101
0000
,  // measure 28
1000
0100
0000
0000
1000
0100
0000
0000
0011
0000
0011
0000
0110
0000
1100
0000
,  // measure 29
2000
3200
0320
0031
,  // measure 30
0001
0100
0000
0000
0001
0100
0000
0000
1010
0000
1010
0000
0110
0000
0101
0000
,  // measure 31
1000
0100
0000
0000
1000
0100
0000
0000
0011
0000
0011
0000
0110
0000
1100
0000
,  // measure 32
0001
0100
0000
0000
0001
0100
0000
0000
1010
0000
1010
0000
0110
0000
0101
0000
,  // measure 33
0002
0203
0320
1030
,  // measure 34
1000
0010
0000
0000
0001
0010
0000
0000
0001
0100
0000
0100
0010
0000
1000
0000
,  // measure 35
0001
0010
0000
0000
1000
0010
0000
0000
1000
0100
0000
0100
0010
0000
0001
0000
,  // measure 36
1000
0010
0000
0000
0001
0010
0000
0000
0001
0100
0000
0100
0010
0000
1000
0000
,  // measure 37
0001
0000
0000
0010
0100
0000
0010
0000
0001
0100
0001
0000
1001
0000
0000
0000
,  // measure 38
0001
0010
0000
0000
1000
0010
0000
0000
1000
0100
0000
0100
0010
0000
0001
0000
,  // measure 39
1000
0010
0000
0000
0001
0010
0000
0000
0001
0100
0000
0100
0010
0000
1000
0000
,  // measure 40
0001
0010
0000
0000
1000
0010
0000
0000
1000
0100
0000
0100
0010
0000
0001
0000
,  // measure 41
1000
0100
1000
0000
0010
0100
0010
0000
0001
0010
0001
0000
1001
0000
0000
0000
,  // measure 42
0100
0000
0000
0000
,  // measure 43
0010
0000
0000
0000
,  // measure 44
0100
0000
0000
0000
,  // measure 45
0010
0000
0000
0000
,  // measure 46
1000
1000
1000
1000
,  // measure 47
0001
0000
0001
0000
0001
0001
0001
0000
,  // measure 48
1000
1000
1000
1000
,  // measure 49
0000
0000
0000
0000
,  // measure 50
0100
0000
0000
0000
0100
0000
0000
0000
0100
0000
0000
0001
0000
0000
1000
0000
,  // measure 51
0010
0000
0010
0000
0010
0100
0010
0000
,  // measure 52
0100
0000
0000
0000
0100
0000
0000
0000
0100
0000
0000
1000
0000
0000
0001
0000
,  // measure 53
0010
0100
0001
0100
1000
0010
1000
0000
,  // measure 54
0001
0000
0100
0000
0001
0000
0000
0000
1000
0000
0000
0001
0000
0000
0100
0000
,  // measure 55
1000
0010
1000
0100
0010
0000
0010
0000
,  // measure 56
1000
0100
1000
0000
0001
0000
0100
0000
,  // measure 57
0010
1000
0001
0100
0010
0100
1001
0000
,  // measure 58
0001
0100
0000
0000
0001
0100
0000
0000
1100
0000
1100
0000
0110
0000
0101
0000
,  // measure 59
1000
0100
0000
0000
1000
0100
0000
0000
0011
0000
0011
0000
0110
0000
1100
0000
,  // measure 60
0001
0100
0000
0000
0001
0100
0000
0000
1010
0000
1010
0000
0110
0000
0101
0000
,  // measure 61
0002
0203
0320
1030
,  // measure 62
1000
0100
0000
0000
1000
0100
0000
0000
0011
0000
0011
0000
0110
0000
1100
0000
,  // measure 63
0001
0100
0000
0000
0001
0100
0000
0000
1010
0000
1010
0000
0110
0000
0101
0000
,  // measure 64
1000
0100
0000
0000
1000
0100
0000
0000
0011
0000
0011
0000
0110
0000
1100
0000
,  // measure 65
2000
3200
0320
0031
,  // measure 66
0001
0010
0000
0000
1000
0010
0000
0000
1000
0100
0000
0100
0010
0000
0001
0000
,  // measure 67
1000
0010
0000
0000
0001
0010
0000
0000
0001
0100
0000
0100
0010
0000
1000
0000
,  // measure 68
0001
0010
0000
0000
1000
0010
0000
0000
1000
0100
0000
0100
0010
0000
0001
0000
,  // measure 69
1000
0000
0000
0010
0100
0000
0010
0000
1000
0100
1000
0000
1001
0000
0000
0000
,  // measure 70
1000
0010
0000
0000
0001
0010
0000
0000
0001
0100
0000
0100
0010
0000
1000
0000
,  // measure 71
0001
0010
0000
0000
1000
0010
0000
0000
1000
0100
0000
0100
0010
0000
0001
0000
,  // measure 72
1000
0010
0000
0000
0001
0010
0000
0000
0001
0100
0000
0100
0010
0000
1000
0000
,  // measure 73
0001
0100
0001
0000
0010
0100
0010
0000
1000
0010
1000
0000
1001
0000
0000
0000
,  // measure 74
2200
0000
0000
0000
0000
0300
3100
1000
,  // measure 75
0220
0000
0000
0000
0000
0030
0310
0000
,  // measure 76
0202
0000
0000
0000
0000
0003
0301
0100
,  // measure 77
2002
0000
0000
0003
0001
3001
1000
0000
,  // measure 78
2200
0000
0000
0000
0000
0300
3100
1000
,  // measure 79
0220
0000
0000
0000
0000
0030
0310
0000
,  // measure 80
0202
0000
0000
0000
0000
0003
0301
0100
,  // measure 81
2002
0000
0000
0003
0001
3001
1000
0000
,  // measure 82
0010
0000
0000
1000
0001
0000
0000
0010
,  // measure 83
0000
0010
0000
0001
1000
0000
0000
0000
,  // measure 84
0010
0000
0000
1000
0001
0000
0000
0010
,  // measure 85
0000
0010
0000
0001
1000
0000
0000
0000
,  // measure 86
0001
0000
0000
0100
0010
0000
0000
1000
,  // measure 87
0000
0001
0000
0010
0100
0000
0000
0000
,  // measure 88
1000
0000
0000
0100
0010
0000
0000
0010
,  // measure 89
0001
0000
0000
0001
1000
0000
0000
0000
,  // measure 90
1000
0100
0000
0000
1000
0100
0000
0000
0101
0000
0101
0000
0110
0000
1100
0000
,  // measure 91
0001
0100
0000
0000
0001
0100
0000
0000
1010
0000
1010
0000
0110
0000
0101
0000
,  // measure 92
1000
0100
0000
0000
1000
0100
0000
0000
0011
0000
0011
0000
0110
0000
1100
0000
,  // measure 93
2000
3200
0320
0031
,  // measure 94
0001
0100
0000
0000
0001
0100
0000
0000
1010
0000
1010
0000
0110
0000
0101
0000
,  // measure 95
1000
0100
0000
0000
1000
0100
0000
0000
0011
0000
0011
0000
0110
0000
1100
0000
,  // measure 96
0001
0100
0000
0000
0001
0100
0000
0000
1010
0000
1010
0000
0110
0000
0101
0000
,  // measure 97
0002
0203
0320
1030
,  // measure 98
1000
0010
0000
0000
0001
0010
0000
0000
0001
0100
0000
0100
0010
0000
1000
0000
,  // measure 99
0001
0010
0000
0000
1000
0010
0000
0000
1000
0100
0000
0100
0010
0000
0001
0000
,  // measure 100
1000
0010
0000
0000
0001
0010
0000
0000
0001
0100
0000
0100
0010
0000
1000
0000
,  // measure 101
0001
0000
0000
0010
0100
0000
0010
0000
0001
0100
0001
0000
1001
0000
0000
0000
,  // measure 102
0001
0010
0000
0000
1000
0010
0000
0000
1000
0100
0000
0100
0010
0000
0001
0000
,  // measure 103
1000
0010
0000
0000
0001
0010
0000
0000
0001
0100
0000
0100
0010
0000
1000
0000
,  // measure 104
0001
0010
0000
0000
1000
0010
0000
0000
1000
0100
0000
0100
0010
0000
0001
0000
,  // measure 105
1000
0100
1000
0100
1000
0100
1000
0100
1000
0100
1000
0000
1001
0000
0000
0000
,  // measure 106
0001
0010
0000
0000
1000
0010
0000
0000
1000
0100
0000
0100
0010
0000
0001
0000
,  // measure 107
1000
0010
0000
0000
0001
0010
0000
0000
0001
0100
0000
0100
0010
0000
1000
0000
,  // measure 108
0001
0010
0000
0000
1000
0010
0000
0000
1000
0100
0000
0100
0010
0000
0001
0000
,  // measure 109
1000
0000
0000
0010
0100
0000
0010
0000
1000
0100
1000
0000
1001
0000
0000
0000
,  // measure 110
1000
0010
0000
0000
0001
0010
0000
0000
0001
0100
0000
0100
0010
0000
1000
0000
,  // measure 111
0001
0010
0000
0000
1000
0010
0000
0000
1000
0100
0000
0100
0010
0000
0001
0000
,  // measure 112
1000
0010
0000
0000
0001
0010
0000
0000
0001
0100
0000
0100
0010
0000
1000
0000
,  // measure 113
0001
0100
0001
0100
0001
0100
0001
0100
0001
0100
0001
0000
1001
0000
0000
0000
;
