#TITLE:Strip Me;
#SUBTITLE:Short Song;
#ARTIST:Natasha Bedingfield;
#TITLETRANSLIT:;
#SUBTITLETRANSLIT:;
#ARTISTTRANSLIT:;
#CREDIT:;
#BANNER:Strip Me.png;
#BACKGROUND:Strip Me-bg.png;
#LYRICSPATH:;
#CDTITLE:./CDTITLES/DanceDanceRevolution II.png;
#MUSIC:../Strip Me (Full Song)/Strip Me (Full Song).ogg;
#OFFSET:0.000;
#SAMPLESTART:145.540;
#SAMPLELENGTH:15.000;
#SELECTABLE:YES;
#DISPLAYBPM:80.000;
#BPMS:0.000=80.000;
#STOPS:;
#BGCHANGES:;

//---------------dance-single - ----------------
#NOTES:
     dance-single:
     :
     Beginner:
     2:
     0.053,0.067,0.009,0.038,0.000:
0000
0000
0000
0000
,
0000
0000
0000
0000
,
0000
0000
0000
0000
,
0000
0000
0000
0000
,
0000
0000
0000
0000
,
0001
0000
0001
0000
,
0010
0000
1000
0000
,
1000
0000
1000
0000
,
0010
0000
0010
0000
,
1000
0000
0001
0000
,
1000
1000
1000
0000
,
0010
0000
0100
0000
,
0010
0010
0010
0000
,
2000
0000
0000
0000
,
0000
3000
0000
0000
,
0002
0000
0000
0000
,
0000
0003
0000
0000
,
1000
0001
1000
0000
,
0001
1000
0001
0000
,
1000
0001
1000
0000
,
0010
0100
0010
0000
,
1000
0000
0100
0000
,
0001
0000
0010
0000
,
1000
0000
0100
0000
,
2002
3003
0000
0000
,
0001
0000
0001
0000
,
0010
0000
1000
0000
,
1000
0000
1000
0000
,
0010
0000
0010
0000
,
2000
0000
0000
0000
,
0000
3000
0000
0000
,
0002
0000
0000
0000
,
0000
0003
0000
0000
,
1000
0001
1000
0000
,
0001
1000
0001
0000
,
1000
0001
1000
0000
,
0010
0100
0010
0000
,
1000
0000
0100
0000
,
0001
0000
0010
0000
,
1000
0000
0100
0000
,
2002
3003
0000
0000
,
1000
0000
0000
0000
,
;

//---------------dance-single - ----------------
#NOTES:
     dance-single:
     :
     Easy:
     4:
     0.077,0.087,0.019,0.075,0.000: // measure 1
0000
0000
0000
0000
,  // measure 2
0000
0000
0000
0000
,  // measure 3
0000
0000
0000
0000
,  // measure 4
0000
0000
0000
0000
,  // measure 5
0000
0000
0000
0000
,  // measure 6
1000
0100
1000
0100
,  // measure 7
0001
1000
1001
0000
,  // measure 8
0001
0100
0001
0100
,  // measure 9
0010
0100
0110
0000
,  // measure 10
1000
0100
0001
0100
,  // measure 11
1000
0010
0001
0000
,  // measure 12
0010
1000
0010
0001
,  // measure 13
0100
0001
1000
0000
,  // measure 14
0002
0000
0000
0000
,  // measure 15
0200
0000
0303
0000
,  // measure 16
2000
0000
0000
0000
,  // measure 17
0002
0000
3003
0000
,  // measure 18
1000
0010
0100
0001
,  // measure 19
1000
0010
0100
0000
,  // measure 20
1000
0010
0100
0001
,  // measure 21
1000
0001
1000
0000
,  // measure 22
0002
0000
0103
0000
,  // measure 23
0020
0000
1030
0000
,  // measure 24
2000
0000
3100
0000
,  // measure 25
0020
0000
0130
0000
,  // measure 26
0001
0100
0001
0100
,  // measure 27
1000
0001
1001
0000
,  // measure 28
1000
0100
1000
0100
,  // measure 29
0010
0100
0110
0000
,  // measure 30
2000
0000
0000
0000
,  // measure 31
0200
0000
3300
0000
,  // measure 32
0002
0000
0000
0000
,  // measure 33
2000
0000
3003
0000
,  // measure 34
0001
0010
0100
1000
,  // measure 35
0001
0010
0100
0000
,  // measure 36
0001
0010
0100
1000
,  // measure 37
0001
1000
0001
0000
,  // measure 38
2000
0000
3100
0000
,  // measure 39
0020
0000
0031
0000
,  // measure 40
0002
0000
0103
0000
,  // measure 41
0020
0000
0130
0000
,  // measure 42
1000
0000
0000
0000
;

//---------------dance-single - ----------------
#NOTES:
     dance-single:
     :
     Medium:
     6:
     0.132,0.144,0.066,0.056,0.000:
0000
0000
0000
0000
,
0000
0000
0000
0000
,
0000
0000
0000
0000
,
0000
0000
0000
0000
,
0000
0000
0000
0000
,
0001
0010
1000
0100
,
1000
0000
0100
0000
0001
0100
0110
0000
,
1000
0010
0001
0100
,
0010
0000
0001
0000
0100
0100
0110
0000
,
1000
0100
1000
0000
0001
0100
0001
0000
,
0010
0000
1000
0001
0010
0000
1001
0000
,
0010
0001
0010
0000
0100
1000
0100
0000
,
1000
0000
0100
0010
0100
0000
0110
0000
,
2000
0000
0100
0000
,
0010
0010
0100
3100
,
0002
0000
0100
0000
,
0010
0000
0010
0000
1000
1000
1003
0000
,
1000
0100
0001
0000
1000
0010
0001
0000
,
0100
0001
1000
0000
0001
1000
0010
0000
,
1000
0100
0001
0000
1000
0010
0001
0000
,
1000
1000
1100
0000
0010
0000
0000
0000
,
2000
0000
0100
0000
3010
1000
1100
0000
,
0020
0000
0001
0000
0130
0010
1010
0000
,
0002
0000
0010
0000
1003
0001
0011
0000
,
0200
0000
0010
0000
0301
0100
0010
1000
,
1000
0010
0001
0100
,
0001
0000
0100
0000
1000
0100
0110
0000
,
0001
0010
1000
0100
,
0010
0000
1000
0000
0100
0100
0110
0000
,
0002
0000
0100
0000
,
0010
0010
0100
0103
,
2000
0000
0100
0000
,
0010
0000
0010
0000
0001
0001
3001
0000
,
0001
0100
1000
0000
0001
0010
1000
0000
,
0100
1000
0001
0000
1000
0001
0010
0000
,
0001
0100
1000
0000
0001
0010
1000
0000
,
0001
0001
0101
0000
0010
0000
0000
0000
,
0002
0000
0100
0000
0013
0001
0101
0000
,
0020
0000
1000
0000
0130
0010
0011
0000
,
2000
0000
0010
0000
3001
1000
1010
0000
,
0200
0000
0010
0000
1300
0100
0010
0001
,
0100
0000
0000
0000
,
;

//---------------dance-single - ----------------
#NOTES:
     dance-single:
     :
     Hard:
     10:
     0.184,0.192,0.056,0.094,0.040:
0000
0000
0000
0000
,
0000
0000
0000
0000
,
0000
0000
0000
0000
,
0000
0000
0000
0000
,
0000
0000
0000
0000
,
1000
1000
0100
0000
0001
0010
0011
0000
,
1000
0010
0100
0001
0010
0100
0110
0000
,
0001
0001
0100
0000
1000
0010
1010
0000
,
0100
0010
0100
0000
0001
0000
1000
0000
0100
0010
0100
0000
0100
0000
0000
0000
,
1000
0100
1000
0100
0001
0100
0001
0100
,
1000
0010
0001
0100
1000
0001
1001
1000
,
0010
0001
0010
1000
0010
0001
0010
1000
,
0100
0001
0010
1000
0001
1000
1001
0000
,
0020
1000
0100
0001
,
0100
0000
1000
0000
0100
0100
0130
1000
,
0020
1000
0100
0001
,
1000
0000
0001
0000
0100
0100
0130
0000
,
1000
0100
0001
0001
1000
0010
0001
0001
,
0100
0001
1000
0010
0001
1000
0100
0110
,
0001
0100
1000
1000
0001
0010
1000
1000
,
0100
0010
1001
0000
0100
0000
0000
0000
,
0020
0000
0000
0000
2030
0000
0000
0000
3100
1000
0100
0000
1000
0000
1000
0000
,
0020
0000
0000
0000
0230
0000
0000
0000
0301
0100
0001
0000
0010
0000
0010
0000
,
0200
0000
0000
0000
0302
0000
0000
0000
0103
0001
0100
0000
1000
0000
1000
0000
,
0020
0000
0000
0000
0230
0000
0000
0000
1300
0100
0010
1000
0100
0010
0001
1000
,
0001
0001
0100
0000
1000
0010
1010
0000
,
0001
0010
0100
1000
0010
0100
0110
0000
,
1000
1000
0100
0000
0001
0010
0011
0000
,
0100
0010
0100
0000
1000
0000
0001
0000
0100
0000
0100
0000
0100
0000
0000
0000
,
0020
0001
0100
1000
,
0100
0000
0001
0000
0100
0100
0130
0001
,
0020
0001
0100
1000
,
0001
0000
1000
0000
0100
0100
0130
0000
,
0001
0100
1000
1000
0001
0010
1000
1000
,
0100
1000
0001
0010
1000
0001
0100
0110
,
1000
0100
0001
0001
1000
0010
0001
0001
,
0100
0010
1001
0000
0100
0000
0000
0000
,
0020
0000
0000
0000
0032
0000
0000
0000
0103
0001
0100
0000
0001
0000
0001
0000
,
0020
0000
0000
0000
0230
0000
0000
0000
1300
0100
1000
0000
0010
0000
0010
0000
,
0200
0000
0000
0000
2300
0000
0000
0000
3100
1000
0100
0000
0001
0000
0001
0000
,
0020
0000
0000
0000
0230
0000
0000
0000
0301
0100
0010
0001
0100
0010
1000
0001
,
0100
0000
0000
0000
,
;

//---------------dance-double - ----------------
#NOTES:
     dance-double:
     :
     Easy:
     4:
     0.090,0.088,0.009,0.056,0.000:
00000000
00000000
00000000
00000000
,
00000000
00000000
00000000
00000000
,
00000000
00000000
00000000
00000000
,
00000000
00000000
00000000
00000000
,
00000000
00000000
00000000
00000000
,
00010000
10000000
00010000
00100000
,
00001000
00010000
00000010
00000000
,
00001000
00000001
00001000
00000010
,
00010000
00001000
00010000
00000000
,
00001000
01000000
00100000
10000000
,
00010000
01000000
10000000
00000000
,
01000000
00010000
00100000
00001000
,
00010000
00000010
00000100
00000000
,
00002000
00000000
00023000
00000000
,
02030000
00000000
03010000
00001000
,
00020000
00000000
00032000
00000000
,
00003200
00000000
00000310
00000000
,
00000001
00000001
00000100
00000100
,
00001000
00010000
01000000
00000000
,
10000000
10000000
01000000
01000000
,
00010000
00001000
00011000
00000000
,
00000010
00000100
00000010
00000100
,
00001000
00100000
00010000
10000000
,
00100000
01000000
00100000
01000000
,
00001000
00100000
01000000
00000000
,
00010000
10000000
00010000
00100000
,
00001000
00010000
00000010
00000000
,
00001000
00000001
00001000
00000010
,
00010000
00001000
00010000
00000000
,
00002000
00000000
00023000
00000000
,
02030000
00000000
03010000
00001000
,
00020000
00000000
00032000
00000000
,
00003200
00000000
00000310
00000000
,
00000001
00000001
00000100
00000100
,
00001000
00010000
01000000
00000000
,
10000000
10000000
01000000
01000000
,
00010000
00001000
00011000
00000000
,
00000010
00000100
00000010
00000100
,
00001000
00100000
00010000
10000000
,
00100000
01000000
00100000
01000000
,
00001000
00100000
01000000
00000000
,
10000000
00000000
00010000
00000000
,
;

//---------------dance-double - ----------------
#NOTES:
     dance-double:
     :
     Medium:
     6:
     0.136,0.136,0.033,0.056,0.000:
00000000
00000000
00000000
00000000
,
00000000
00000000
00000000
00000000
,
00000000
00000000
00000000
00000000
,
00000000
00000000
00000000
00000000
,
00000000
00000000
00000000
00000000
,
01000000
10000000
00100000
00010000
,
00001000
00010000
00001000
00010000
00000100
00000000
00001001
00000000
,
00000100
00000001
00000010
00001000
,
00010000
00001000
00100000
00000000
01000000
00100000
01100000
00000000
,
00100000
00001000
00010000
00001000
,
00010000
00000010
00010000
00000100
00001000
00000000
00000001
00000000
,
00000100
00000010
00010000
00001000
,
00100000
00001000
00010000
00000000
01000000
10000000
10010000
00000000
,
00200000
00010000
00302000
00010000
,
02003000
00001000
03010000
00001000
,
00000020
00001000
00020030
00001000
,
00030200
00000000
00000010
00000000
00001000
00001000
00001300
00000000
,
00000001
00000010
00000100
00000000
00010000
00001000
00010000
00000000
,
00000010
00000100
00000010
00010000
00001000
00100000
00010000
00000000
,
10000000
00100000
01000000
00000000
00001000
00010000
00001000
00000000
,
00100000
00001000
00010000
00000000
00011000
00000000
00000000
00000000
,
00000010
00001000
00000010
00000100
,
00001000
00010000
00100000
00000000
10000000
01000000
00100000
00000000
,
00010000
10000000
01000000
00100000
,
00001000
00010000
00000010
00000000
00000100
00000010
00000100
00000010
,
00000100
00000001
00000010
00001000
,
00010000
00001000
00010000
00001000
01000000
00000000
10010000
00000000
,
01000000
10000000
00100000
00010000
,
00001000
00010000
00000010
00000000
00000100
00000010
00000110
00000000
,
00000020
00001000
00020030
00001000
,
00030200
00010000
00001300
00010000
,
00200000
00010000
00302000
00010000
,
02003000
00000000
00100000
00000000
00010000
00010000
03010000
00000000
,
10000000
00100000
01000000
00000000
00001000
00010000
00001000
00000000
,
00100000
01000000
00100000
00001000
00010000
00000010
00001000
00000000
,
00000001
00000010
00000100
00000000
00010000
00001000
00010000
00000000
,
00000010
00010000
00001000
00000000
00011000
00000000
00000000
00000000
,
00100000
00010000
00100000
01000000
,
00010000
00001000
00000010
00000000
00000001
00000100
00000010
00000000
,
00001000
00000001
00000100
00000010
,
00010000
00001000
00100000
00000000
01000000
00100000
01000000
00100000
,
10000000
00000000
00001000
00000000
,
;

//---------------dance-double - ----------------
#NOTES:
     dance-double:
     :
     Hard:
     10:
     0.169,0.173,0.042,0.038,0.038:
00000000
00000000
00000000
00000000
,
00000000
00000000
00000000
00000000
,
00000000
00000000
00000000
00000000
,
00000000
00000000
00000000
00000000
,
00000000
00000000
00000000
00000000
,
00100000
01000000
00010000
00000000
01000000
00100000
00010000
00000000
,
00100000
00010000
00001000
00000010
00001000
00000100
00000110
00000000
,
00000010
00000100
00001000
00000000
00000100
00000010
00001000
00000000
,
00010000
00001000
00010000
00100000
01000000
10000000
10010000
00000000
,
10000000
00010000
00001000
00010000
10000000
00010000
00001000
00010000
,
10000000
00100000
00010000
00001000
00000100
00000010
00000010
00000000
,
00001000
00010000
00001000
00000001
00001000
00010000
00001000
00000001
,
00001000
00000100
00010000
00001000
00100000
00100000
01100000
00000000
,
00020000
01000000
10000000
00100000
,
00032000
00000100
00000001
00000010
,
00023000
01000000
10000000
00100000
,
00032000
00000000
00000100
00000000
00000001
00000001
00003001
00000000
,
00001000
00000000
00000100
00000000
00000010
00000000
00000001
00000100
00001000
00000000
00010000
00000000
00001000
00000000
00100000
00000000
,
01000000
00000000
10000000
00000000
00100000
00000000
00010000
00000000
00000100
00000000
00000010
00000001
00000010
00000000
00000000
00000000
,
00001000
00000000
00000010
00000000
00000100
00000000
00000001
00000010
00001000
00000000
00010000
00000000
00001000
00000000
01000000
00000000
,
00100000
00010000
00000010
00010000
00100000
00000000
00000000
00000000
,
10000000
00000000
00000000
00000000
01000000
00000000
00000000
00100000
00001000
00000000
00010000
00000000
00100000
00000000
00000000
00000000
,
00010000
00000000
00000000
00000000
00001000
00000000
00000000
00000010
00000100
00000000
00001000
00000000
00001100
00000000
00000000
00000000
,
00000010
00000000
00000000
00000000
00001000
00000000
00000000
00000001
00000100
00000000
00001000
00000000
00010000
00000000
00001000
00000000
,
00100000
00000000
00000000
00000000
10000000
00000000
00010000
00000000
00001000
00010000
00001000
00010000
00001000
00000000
00011000
00000000
,
00100000
01000000
00010000
00000000
01000000
00100000
00010000
00000000
,
00100000
00010000
00001000
00000010
00001000
00000100
00000110
00000000
,
00000010
00000100
00001000
00000000
00000100
00000010
00001000
00000000
,
00010000
00001000
00010000
00100000
01000000
10000000
10010000
00000000
,
00020000
01000000
10000000
00100000
,
00032000
00000100
00000001
00000010
,
00023000
01000000
10000000
00100000
,
00032000
00000000
00000100
00000000
00000001
00000001
00003001
00000000
,
00001000
00000000
00000100
00000000
00000010
00000000
00000001
00000100
00001000
00000000
00010000
00000000
00001000
00000000
00100000
00000000
,
01000000
00000000
10000000
00000000
00100000
00000000
00010000
00000000
00000100
00000000
00000010
00000001
00000010
00000000
00000000
00000000
,
00001000
00000000
00000010
00000000
00000100
00000000
00000001
00000010
00001000
00000000
00010000
00000000
00001000
00000000
01000000
00000000
,
00100000
00010000
00000010
00010000
00100000
00000000
00000000
00000000
,
10000000
00000000
00000000
00000000
01000000
00000000
00000000
00100000
00001000
00000000
00010000
00000000
00100000
00000000
00000000
00000000
,
00010000
00000000
00000000
00000000
00001000
00000000
00000000
00000010
00000100
00000000
00001000
00000000
00001100
00000000
00000000
00000000
,
00000010
00000000
00000000
00000000
00001000
00000000
00000000
00000001
00000100
00000000
00001000
00000000
00010000
00000000
00001000
00000000
,
00100000
00000000
00000000
00000000
10000000
00000000
00010000
00000000
00001000
00010000
00001000
00010000
00001000
00000000
00011000
00000000
,
01000000
00000000
00000000
00000000
,
;
