#TITLE:Still unbreakable;
#SUBTITLE:Full Song;
#ARTIST:Des-ROW Ft. Vanilla Ice;
#TITLETRANSLIT:;
#SUBTITLETRANSLIT:;
#ARTISTTRANSLIT:;
#CREDIT:;
#BANNER:Still unbreakable (Full Song).png;
#BACKGROUND:Still unbreakable (Full Song)-bg.png;
#LYRICSPATH:;
#CDTITLE:./CDTITLES/DanceDanceRevolution II.png;
#MUSIC:Still unbreakable (Full Song).ogg;
#OFFSET:0.000;
#SAMPLESTART:200.140;
#SAMPLELENGTH:15.000;
#SELECTABLE:YES;
#DISPLAYBPM:97.000;
#BPMS:0.000=97.001;
#STOPS:;
#BGCHANGES:;

//---------------dance-single - ----------------
#NOTES:
     dance-single:
     :
     Beginner:
     2:
     0.099,0.119,0.019,0.098,0.000:
0000
0000
0000
0000
,
0000
0000
0000
0000
,
0000
0000
0000
0000
,
0000
0000
0000
0000
,
0000
0000
0000
0000
,
0000
0000
0000
0000
,
0000
0000
0000
0000
,
0000
0000
0000
0000
,
0000
0000
0000
0000
,
2000
3000
0000
0000
,
0002
0003
0000
0000
,
2000
3000
0000
0000
,
0020
0030
0000
0000
,
1000
0000
1000
0000
,
1000
0000
1000
0000
,
1000
0000
1000
0000
,
1000
0000
1000
1000
,
1000
0000
1000
0000
,
2000
3000
0000
0000
,
0001
0000
0001
0000
,
0002
0003
0000
0000
,
1000
1000
0000
0000
,
0001
0001
0000
0000
,
1000
1000
0000
0000
,
0001
0001
0000
0000
,
0001
0000
0000
0000
,
0001
0001
0000
0000
,
0001
0000
0000
0000
,
0010
0010
0000
0000
,
1000
0000
0000
0000
,
1000
1000
0000
0000
,
1000
1000
0000
0000
,
0010
0010
0000
0000
,
0002
0003
0000
0000
,
2000
3000
0000
0000
,
0200
0300
0000
0000
,
0000
0000
0000
0000
,
2000
3000
0000
0000
,
0002
0003
0000
0000
,
0200
0300
0000
0000
,
0000
0000
0000
0000
,
1000
1000
1000
0000
,
1000
0000
0001
0000
,
0001
0000
0001
0000
,
1000
0000
1000
0000
,
0001
0001
0001
0000
,
0001
0000
1000
0000
,
1000
0000
1000
0000
,
0001
0000
0001
0000
,
0020
0030
0000
0000
,
1000
0000
1000
0000
,
0020
0030
0000
0000
,
1001
0000
0000
0000
,
0200
0300
0000
0000
,
0001
0000
0001
0000
,
0200
0300
0000
0000
,
1001
0000
0000
0000
,
0001
0000
0001
0000
,
0002
0003
0000
0000
,
1000
0000
1000
0000
,
2000
3000
0000
0000
,
0001
0001
0000
0000
,
1000
1000
0000
0000
,
0001
0001
0000
0000
,
1000
1000
0000
0000
,
1000
0000
0000
0000
,
1000
1000
0000
0000
,
1000
0000
0000
0000
,
0010
0010
0000
0000
,
0001
0000
0000
0000
,
0001
0001
0000
0000
,
0001
0001
0000
0000
,
0010
0010
0000
0000
,
2000
3000
0000
0000
,
0002
0003
0000
0000
,
0200
0300
0000
0000
,
0000
0000
0000
0000
,
0002
0003
0000
0000
,
2000
3000
0000
0000
,
0200
0300
0000
0000
,
0000
0000
0000
0000
,
0001
0001
0001
0000
,
0001
0000
1000
0000
,
1000
0000
1000
0000
,
0001
0000
0001
0000
,
1000
1000
1000
0000
,
1000
0000
0001
0000
,
0001
0000
0001
0000
,
1000
0000
1000
0000
,
1000
0000
0001
0000
,
1001
0000
0000
0000
,
1000
0000
1000
0000
,
0001
0000
0001
0000
,
0001
0000
1000
0000
,
1001
0000
0000
0000
,
0001
0000
0001
0000
,
1000
0000
1000
0000
,
1000
0000
0001
0000
,
0002
0000
0003
0000
,
0001
0000
0001
0000
,
1000
0000
1000
0000
,
0001
0000
1000
0000
,
2000
0000
3000
0000
,
1000
0000
1000
0000
,
0001
0000
0001
0000
,
0000
1001
0000
0000
,
;

//---------------dance-single - ----------------
#NOTES:
     dance-single:
     :
     Easy:
     5:
     0.177,0.178,0.030,0.135,0.000:
0000
0000
0000
0000
,
0000
0000
0000
0000
,
0000
0000
0000
0000
,
0000
0000
0000
0000
,
0000
0000
0000
0000
,
0000
0000
0000
0000
,
0000
0000
0000
0000
,
0000
0000
0000
0000
,
0000
0000
0000
0000
,
2000
3000
1000
1000
,
0002
0003
0001
0001
,
0020
0030
0010
0010
,
0200
0300
0100
1001
,
1000
1000
0000
0001
,
1000
1000
0000
0001
,
1000
0100
1000
0000
,
1000
0010
1000
0000
,
1000
1000
1000
0000
,
2000
3001
0001
0000
,
0001
0001
0001
0000
,
0002
1003
1000
0000
,
1000
0001
0100
0000
,
0001
1000
0100
0000
,
1000
0001
0100
0000
,
0001
1000
0100
0000
,
0001
0000
0001
0100
,
0001
0001
0001
0100
,
0001
0000
0100
1000
,
0010
0010
0001
0000
,
1000
0000
1000
0100
,
1000
1000
1000
0100
,
1000
1000
1000
0100
,
0010
0010
0001
0000
,
0002
0003
0100
0001
,
2000
3000
0010
1000
,
0200
0300
0100
0001
,
2000
3000
0000
0000
,
2000
3000
0100
1000
,
0002
0003
0010
0001
,
0200
0300
0100
1000
,
0002
0003
0000
0000
,
1000
1000
0100
0100
,
1000
1000
0001
0000
,
1000
0010
0100
0000
,
0001
0100
0001
0000
,
0001
0001
0100
0100
,
0001
0001
1000
0000
,
0001
0010
0100
0000
,
1000
0100
1000
0000
,
0020
0130
0000
0100
,
1000
0000
0001
0000
,
0020
0130
0000
0100
,
2002
3003
0000
0000
,
0200
0310
0000
0010
,
1000
0000
0001
0000
,
0200
0310
0000
0010
,
2002
3003
0000
0000
,
0001
0001
0001
0000
,
0002
1003
1000
0000
,
1000
1000
1000
0000
,
2000
3001
0001
0000
,
0001
1000
0100
0000
,
1000
0001
0100
0000
,
0001
1000
0100
0000
,
1000
0001
0100
0000
,
1000
0000
1000
0100
,
1000
1000
1000
0100
,
1000
0000
0100
0001
,
0010
0010
1000
0000
,
0001
0000
0001
0100
,
0001
0001
0001
0100
,
0001
0001
0001
0100
,
0010
0010
1000
0000
,
2000
3000
0100
1000
,
0002
0003
0010
0001
,
0200
0300
0100
1000
,
0002
0003
0000
0000
,
0002
0003
0100
0001
,
2000
3000
0010
1000
,
0200
0300
0100
0001
,
2000
3000
0000
0000
,
0001
0001
0100
0100
,
0001
0001
1000
0000
,
0001
0010
0100
0000
,
1000
0100
1000
0000
,
1000
1000
0100
0100
,
1000
1000
0001
0000
,
1000
0010
0100
0000
,
0001
0100
0001
0000
,
1000
0001
1000
1001
,
0001
0000
1000
0000
,
1000
0010
0001
0000
,
0001
0100
1000
0000
,
0001
1000
0001
1001
,
1000
0000
0001
0000
,
0001
0010
1000
0000
,
1000
0100
0001
0000
,
1000
0001
1000
1001
,
0002
0003
2000
3000
,
0001
0100
0001
0000
,
1000
1000
0100
0000
,
0001
1000
0001
1001
,
2000
3000
0002
0003
,
1000
0100
1000
0000
,
0001
0001
0100
0000
,
0100
1001
0000
0000
,
;

//---------------dance-single - ----------------
#NOTES:
     dance-single:
     :
     Medium:
     9:
     0.333,0.316,0.177,0.143,0.000:
0000
0000
0000
0000
,
0000
0000
0000
0000
,
0000
0000
0000
0000
,
0000
0000
0000
0000
,
0000
0000
0000
0000
,
0000
0000
0000
0000
,
0000
0000
0000
0000
,
0000
0000
0000
0000
,
0000
0000
0000
0000
,
2000
0000
3000
0000
1000
0100
1000
0000
,
0020
0000
0030
0000
0010
0100
0010
0000
,
0002
0000
0003
0000
0001
0010
0001
0000
,
0200
0000
0300
0000
0100
1000
0001
0000
,
1000
0010
0100
0000
1000
0100
0001
0000
,
1000
0100
0001
0000
1000
0010
0001
0000
,
1000
0010
0001
0000
1000
0001
0010
0000
,
1000
0100
0010
0100
1000
0001
0100
0000
,
1000
0100
0010
0000
1000
0001
0010
0000
,
2000
0000
3001
0000
1000
0001
0010
0000
,
0001
0100
0010
0000
0001
1000
0010
0000
,
0002
0000
1003
0000
0001
1000
0010
0000
,
1000
0010
0001
0000
0100
1000
0010
0000
,
0001
0010
1000
0010
0100
0001
0010
0000
,
1000
0010
0001
0000
0100
1000
0010
0000
,
0001
0010
1000
0010
0100
0001
0010
0000
,
0101
0000
1000
0000
0100
0001
1000
0000
,
0101
0000
0101
0000
0001
0100
1000
0000
,
0101
0000
0001
0000
0100
0010
1000
0000
,
0011
0000
0011
0000
0001
0010
1000
0000
,
0101
0000
1000
0000
0100
0001
1000
0000
,
0101
0000
0101
0000
0001
0100
1000
0000
,
0101
0000
0001
0000
0100
0010
1000
0000
,
0011
0000
0011
0000
0001
0010
1000
0000
,
0002
0003
1000
1000
0100
0100
0001
0000
,
1000
2000
3001
0001
0010
0010
1000
0000
,
2000
3000
0010
0010
0100
0100
0001
0000
,
2000
3000
0001
0001
0100
0100
1010
0000
,
2000
3000
0001
0001
0100
0100
1000
0000
,
0001
0002
1003
1000
0010
0010
0001
0000
,
0002
0003
0010
0010
0100
0100
1000
0000
,
0002
0003
1000
1000
0100
0100
0011
0000
,
1000
0100
1100
0000
0001
0010
0001
0000
,
0010
0000
0010
0000
0100
0010
0100
0000
,
1000
1000
0010
0000
0100
0010
0100
0000
,
0001
0000
0100
0000
0001
0001
1100
0000
,
0001
0100
0101
0000
1000
0010
1000
0000
,
0010
0000
0010
0000
0100
0010
0100
0000
,
0001
0001
0010
0000
0100
0010
0100
0000
,
1000
0000
0100
0000
1000
1000
0101
0000
,
0020
0000
0130
0000
0000
1000
0001
0000
,
1000
0100
0010
0000
0100
0010
0001
0000
,
0020
0000
0130
0000
0000
1000
0001
0000
,
2002
3003
0000
0000
,
0200
0000
0310
0000
0000
1000
0001
0000
,
1000
0010
0100
0000
0010
0100
0001
0000
,
0200
0000
0310
0000
0000
1000
0001
0000
,
2002
3003
0000
0000
,
0001
0100
0010
0000
0001
1000
0010
0000
,
0002
0000
1003
0000
0001
1000
0010
0000
,
1000
0100
0010
0000
1000
0001
0010
0000
,
2000
0000
3001
0000
1000
0001
0010
0000
,
0001
0010
1000
0000
0100
0001
0010
0000
,
1000
0010
0001
0010
0100
1000
0010
0000
,
0001
0010
1000
0000
0100
0001
0010
0000
,
1000
0010
0001
0010
0100
1000
0010
0000
,
1100
0000
0001
0000
0100
1000
0001
0000
,
1100
0000
1100
0000
1000
0100
0001
0000
,
1100
0000
1000
0000
0100
0010
0001
0000
,
1010
0000
1010
0000
1000
0010
0001
0000
,
1100
0000
0001
0000
0100
1000
0001
0000
,
1100
0000
1100
0000
1000
0100
0001
0000
,
1100
0000
1000
0000
0100
0010
0001
0000
,
1010
0000
1010
0000
1000
0010
0001
0000
,
2000
3000
0001
0001
0100
0100
1000
0000
,
0001
0002
1003
1000
0010
0010
0001
0000
,
0002
0003
0010
0010
0100
0100
1000
0000
,
0002
0003
1000
1000
0100
0100
0011
0000
,
0002
0003
1000
1000
0100
0100
0001
0000
,
1000
2000
3001
0001
0010
0010
1000
0000
,
2000
3000
0010
0010
0100
0100
0001
0000
,
2000
3000
0001
0001
0100
0100
1010
0000
,
0001
0100
0101
0000
1000
0010
1000
0000
,
0010
0000
0010
0000
0100
0010
0100
0000
,
0001
0001
0010
0000
0100
0010
0100
0000
,
1000
0000
0100
0000
1000
1000
0101
0000
,
1000
0100
1100
0000
0001
0010
0001
0000
,
0010
0000
0010
0000
0100
0010
0100
0000
,
1000
1000
0010
0000
0100
0010
0100
0000
,
0001
0000
0100
0000
0001
0001
1100
0000
,
1000
0100
0010
0001
0010
0000
1100
0000
,
2000
0000
3000
0000
1000
1000
0100
0000
,
1000
0100
0010
0010
0001
0001
1000
0000
,
0001
0010
0100
0100
1000
0000
0101
0000
,
0001
0100
0010
1000
0010
0000
0101
0000
,
0002
0000
0003
0000
0001
0001
0100
0000
,
0001
0100
0010
0010
1000
1000
0001
0000
,
1000
0010
0100
0100
0001
0000
1100
0000
,
1000
0100
0010
0001
0010
0000
1010
0000
,
1000
0001
0200
0300
1000
0100
0020
0030
,
0001
0010
0100
0100
0001
0001
0100
0000
,
1000
0010
1000
1000
0100
0100
1010
0000
,
0001
0010
0100
1000
0100
0000
0011
0000
,
0001
1000
0200
0300
0001
0100
0020
0030
,
1000
0010
0100
0100
1000
1000
0100
0000
,
0001
0010
0001
0001
0100
0100
0011
0000
,
0100
0100
1001
0000
0000
0000
0000
0000
,
;

//---------------dance-single - ----------------
#NOTES:
     dance-single:
     :
     Hard:
     11:
     0.484,0.514,0.256,0.173,0.250: // measure 1
0000
0000
0000
0000
,  // measure 2
0000
0000
0000
0000
,  // measure 3
0000
0000
0000
0000
,  // measure 4
0000
0000
0000
0000
,  // measure 5
0000
0000
0000
0000
,  // measure 6
0000
0000
0000
0000
,  // measure 7
0000
0000
0000
0000
,  // measure 8
0000
0000
0000
0000
,  // measure 9
0000
0000
0000
0000
,  // measure 10
2000
0000
0000
0000
3001
0000
1000
0000
0010
0000
0100
0001
1000
0000
0000
0000
,  // measure 11
2000
0000
0000
0000
3010
0000
0100
0000
0001
0000
1000
0100
0010
0000
0000
0000
,  // measure 12
0002
0000
0000
0000
1003
0000
0010
0000
0100
0000
0001
1000
0100
0000
0000
0000
,  // measure 13
0002
0000
0000
0000
0103
0000
0010
0000
1000
0100
1000
0000
0001
0100
0001
0000
,  // measure 14
1000
0000
0100
0000
0010
0000
0100
0000
1000
0000
0010
0100
0001
0000
0110
0000
,  // measure 15
1000
0000
0010
0000
0001
0000
0010
0000
1000
0000
0100
0010
0001
0000
0110
0000
,  // measure 16
1000
0000
0100
0000
0001
0000
0100
0000
1000
0000
0001
0010
0100
0000
0110
0000
,  // measure 17
1000
0000
0010
0000
0100
0000
0010
0000
1000
0000
0001
0100
0010
0000
0000
0000
,  // measure 18
1000
0100
0010
0000
0100
0000
0100
0000
1000
0000
0001
0000
0100
0000
0000
0000
,  // measure 19
2000
0000
0000
0000
3001
0010
0100
0000
1000
0000
0001
0000
0100
0000
0000
0000
,  // measure 20
0001
0100
0010
0000
0100
0000
0100
0000
0001
0000
1000
0000
0100
0000
0000
0000
,  // measure 21
0002
0000
0000
0000
1003
0010
0100
0000
0001
0000
1000
0000
0100
0000
0000
0000
,  // measure 22
1000
0010
0100
0000
0001
0000
0100
0000
0010
0000
1000
0001
0100
0000
0110
0000
,  // measure 23
0001
0010
0100
0000
1000
0000
0100
0000
0010
0000
0001
1000
0100
0000
0000
0000
,  // measure 24
1000
0010
0100
0000
0001
0000
0100
0000
0010
0000
1000
0001
0100
0000
0110
0000
,  // measure 25
0001
0010
0100
0000
1000
0000
0100
0000
0010
0000
0001
1000
0100
0000
0000
0000
,  // measure 26
1100
1000
0010
1000
0100
1000
0010
1000
,  // measure 27
1100
0010
1100
0100
0010
0100
1000
0100
,  // measure 28
1100
0010
1000
0010
0100
0010
1000
0010
,  // measure 29
1010
0000
0100
0000
1010
0000
1000
0000
0100
0000
0010
0000
0100
1000
0001
0000
,  // measure 30
0101
0001
0010
0001
0100
0001
0010
0001
,  // measure 31
0101
0010
0101
0100
0010
0100
0001
0100
,  // measure 32
0101
0010
0001
0010
0100
0010
0001
0010
,  // measure 33
0011
0100
0011
1000
0100
1100
0000
0110
,  // measure 34
0002
0000
0003
0000
1000
0100
1000
0000
0010
0100
0010
0000
0001
0000
0000
0000
,  // measure 35
1000
0000
2000
0000
3001
0010
0001
0000
0100
0010
0100
0000
1000
0000
0000
0000
,  // measure 36
2000
3000
0100
0100
0010
0010
0001
0001
,  // measure 37
2000
0000
3000
0000
0001
0010
0001
0000
0010
0000
0010
0000
1100
0000
0000
0000
,  // measure 38
2000
0000
3000
0000
0001
0100
0001
0000
0010
0100
0010
0000
1000
0000
0000
0000
,  // measure 39
0001
0000
0002
0000
1003
0010
1000
0000
0100
0010
0100
0000
0001
0000
0000
0000
,  // measure 40
0002
0003
0100
0100
0010
0010
1000
1000
,  // measure 41
0002
0000
0003
0000
1000
0010
1000
0000
0010
0000
0010
0000
0101
0000
0000
0000
,  // measure 42
1000
0000
0100
0000
1100
0000
0000
0001
0010
0001
0010
0000
0101
0000
0000
0000
,  // measure 43
0010
0000
1000
0000
0010
0000
0000
1000
0100
1000
0100
0000
0001
0000
0000
0000
,  // measure 44
0010
0000
0100
0000
0010
0000
0000
0001
0100
0001
0100
0000
0010
0000
1000
0000
,  // measure 45
0100
0000
0010
0000
0100
0000
0000
0010
0001
0010
0001
0000
1100
0000
0000
0000
,  // measure 46
0001
0000
0100
0000
0101
0000
0000
1000
0010
1000
0010
0000
1100
0000
0000
0000
,  // measure 47
0010
0000
0001
0000
0010
0000
0000
0001
0100
0001
0100
0000
1000
0000
0000
0000
,  // measure 48
0010
0000
0100
0000
0010
0000
0000
1000
0100
1000
0100
0000
0010
0000
0001
0000
,  // measure 49
0100
0000
0010
0000
0100
0000
0000
0010
1000
0010
1000
0000
0101
0000
0000
0000
,  // measure 50
0020
0000
0000
0000
0100
0000
0000
0100
0030
0100
1000
0000
0001
0000
0000
0000
,  // measure 51
0100
0010
0100
0001
0100
1000
0100
0000
,  // measure 52
0020
0000
0000
0000
0100
0000
0000
0100
0030
0100
1000
0000
0001
0000
0000
0000
,  // measure 53
2002
0000
0000
0000
3003
0000
0100
0000
1000
0000
0000
0001
0000
0000
0100
0000
,  // measure 54
0200
0000
0000
0000
0010
0000
0000
0010
0300
0010
1000
0000
0001
0000
0000
0000
,  // measure 55
0010
0100
0010
0001
0010
1000
0010
0000
,  // measure 56
0200
0000
0000
0000
0010
0000
0000
0010
0300
0010
1000
0000
0001
0000
0000
0000
,  // measure 57
2002
0000
0000
0000
3003
0000
0010
0000
1000
0000
0000
0001
0000
0000
0010
0000
,  // measure 58
0001
0100
0010
0000
0100
0000
0100
0000
0001
0000
1000
0000
0100
0000
0000
0000
,  // measure 59
0002
0000
0000
0000
1003
0010
0100
0000
0001
0000
1000
0000
0100
0000
0000
0000
,  // measure 60
1000
0100
0010
0000
0100
0000
0100
0000
1000
0000
0001
0000
0100
0000
0000
0000
,  // measure 61
2000
0000
0000
0000
3001
0010
0100
0000
1000
0000
0001
0000
0100
0000
0000
0000
,  // measure 62
0001
0010
0100
0000
1000
0000
0100
0000
0010
0000
0001
1000
0100
0000
0110
0000
,  // measure 63
1000
0010
0100
0000
0001
0000
0100
0000
0010
0000
1000
0001
0100
0000
0000
0000
,  // measure 64
0001
0010
0100
0000
1000
0000
0100
0000
0010
0000
0001
1000
0100
0000
0110
0000
,  // measure 65
1000
0010
0100
0000
0001
0000
0100
0000
0010
0000
1000
0001
0100
0000
0000
0000
,  // measure 66
0101
0001
0010
0001
0100
0001
0010
0001
,  // measure 67
0101
0010
0101
0100
0010
0100
0001
0100
,  // measure 68
0101
0010
0001
0010
0100
0010
0001
0010
,  // measure 69
0011
0000
0100
0000
0011
0000
0001
0000
0100
0000
0010
0000
0100
0001
1000
0000
,  // measure 70
1100
1000
0010
1000
0100
1000
0010
1000
,  // measure 71
1100
0010
1100
0100
0010
0100
1000
0100
,  // measure 72
1100
0010
1000
0010
0100
0010
1000
0010
,  // measure 73
1010
0100
1010
0001
0100
0101
0000
0110
,  // measure 74
2000
0000
3000
0000
0001
0100
0001
0000
0010
0100
0010
0000
1000
0000
0000
0000
,  // measure 75
0001
0000
0002
0000
1003
0010
1000
0000
0100
0010
0100
0000
0001
0000
0000
0000
,  // measure 76
0002
0003
0100
0100
0010
0010
1000
1000
,  // measure 77
0002
0000
0003
0000
1000
0010
1000
0000
0010
0000
0010
0000
0101
0000
0000
0000
,  // measure 78
0002
0000
0003
0000
1000
0100
1000
0000
0010
0100
0010
0000
0001
0000
0000
0000
,  // measure 79
1000
0000
2000
0000
3001
0010
0001
0000
0100
0010
0100
0000
1000
0000
0000
0000
,  // measure 80
2000
3000
0100
0100
0010
0010
0001
0001
,  // measure 81
2000
0000
3000
0000
0001
0010
0001
0000
0010
0000
0010
0000
1100
0000
0000
0000
,  // measure 82
0001
0000
0100
0000
0101
0000
0000
1000
0010
1000
0010
0000
1100
0000
0000
0000
,  // measure 83
0010
0000
0001
0000
0010
0000
0000
0001
0100
0001
0100
0000
1000
0000
0000
0000
,  // measure 84
0010
0000
0100
0000
0010
0000
0000
1000
0100
1000
0100
0000
0010
0000
0001
0000
,  // measure 85
0100
0000
0010
0000
0100
0000
0000
0010
1000
0010
1000
0000
0101
0000
0000
0000
,  // measure 86
1000
0000
0100
0000
1100
0000
0000
0001
0010
0001
0010
0000
0101
0000
0000
0000
,  // measure 87
0010
0000
1000
0000
0010
0000
0000
1000
0100
1000
0100
0000
0001
0000
0000
0000
,  // measure 88
0010
0000
0100
0000
0010
0000
0000
0001
0100
0001
0100
0000
0010
0000
1000
0000
,  // measure 89
0100
0000
0010
0000
0100
0000
0000
0010
0001
0010
0001
0000
1100
0000
0000
0000
,  // measure 90
1000
0000
0100
0000
0010
0001
0010
0000
0010
1000
0010
0000
1100
0000
0101
0000
,  // measure 91
1000
0100
0000
0001
0000
0010
0100
0000
1000
0010
1000
0000
0100
0000
0000
0000
,  // measure 92
0001
0000
0100
0000
0010
0100
0010
0000
1000
0100
1000
0000
0001
0010
0001
0000
,  // measure 93
1000
0000
0010
0000
0100
0010
0100
0000
0001
0010
0001
0000
1100
0000
0000
0000
,  // measure 94
0001
0000
0100
0000
0010
1000
0010
0000
0010
0001
0010
0000
0101
0000
1100
0000
,  // measure 95
0001
0100
0000
1000
0000
0010
0100
0000
0001
0010
0001
0000
0100
0000
0000
0000
,  // measure 96
1000
0000
0100
0000
0010
0100
0010
0000
0001
0100
0001
0000
1000
0010
1000
0000
,  // measure 97
0001
0000
0010
0000
0100
0010
0100
0000
1000
0010
1000
0000
0101
0000
0000
0000
,  // measure 98
1000
0000
0100
0000
0100
0010
0001
0000
0001
0100
0010
0000
1010
0000
0011
0000
,  // measure 99
2000
3002
0203
0320
2030
3200
0320
0030
,  // measure 100
0001
0000
0100
0000
0010
1000
0010
0000
0001
0100
0001
0000
0010
1000
0010
0000
,  // measure 101
1000
0000
0100
0000
1000
0100
1000
0000
0010
0001
0010
0000
1100
0000
0000
0000
,  // measure 102
0001
0000
0100
0000
0100
0010
1000
0000
1000
0100
0010
0000
0011
0000
1010
0000
,  // measure 103
0002
2003
3200
0320
0032
0203
0320
0030
,  // measure 104
1000
0000
0100
0000
0010
0001
0010
0000
1000
0100
1000
0000
0010
0001
0010
0000
,  // measure 105
0001
0000
0100
0000
0001
0100
0001
0000
0010
1000
0010
0000
0101
0000
0000
0000
,  // measure 106
1100
0101
1001
0000
0000
0000
0000
0000
;
