#TITLE:Spice up your life;
#SUBTITLE:Full Song;
#ARTIST:Spice Girls;
#TITLETRANSLIT:;
#SUBTITLETRANSLIT:;
#ARTISTTRANSLIT:;
#CREDIT:;
#BANNER:Spice up your life (Full Song).png;
#BACKGROUND:Spice up your life (Full Song)-bg.png;
#LYRICSPATH:;
#CDTITLE:./CDTITLES/DanceDanceRevolution II.png;
#MUSIC:Spice up your life (Full Song).ogg;
#OFFSET:0.000;
#SAMPLESTART:48.340;
#SAMPLELENGTH:15.000;
#SELECTABLE:YES;
#DISPLAYBPM:124.000;
#BPMS:0.000=123.999;
#STOPS:;
#BGCHANGES:;

//---------------dance-single - ----------------
#NOTES:
     dance-single:
     :
     Beginner:
     1:
     0.093,0.148,0.034,0.022,0.000:
0000
0000
0000
0000
,
0000
0000
0000
0000
,
0000
0000
0000
0000
,
0000
0000
0000
0000
,
0000
0000
0000
0000
,
1000
0000
0000
0000
,
1000
0000
0000
0000
,
1000
0000
0000
0000
,
0010
0000
0000
0000
,
0001
0000
0000
0000
,
0001
0000
0000
0000
,
0001
0000
0000
0000
,
0010
0000
0000
0000
,
0001
0000
0000
0000
,
1000
0000
0000
0000
,
0001
0000
0000
0000
,
0010
0000
0000
0000
,
0001
0000
0000
0000
,
1000
0000
0000
0000
,
0001
0000
0000
0000
,
0010
0000
0000
0000
,
0001
0000
0000
0000
,
1000
0000
0000
0000
,
0001
0000
0000
0000
,
1001
0000
0000
0000
,
0001
0001
0000
0000
,
0001
0001
0000
0000
,
0001
0001
0000
0000
,
0010
0000
0000
0000
,
1000
1000
0000
0000
,
1000
1000
0000
0000
,
1000
1000
0000
0000
,
1001
0000
0000
0000
,
0001
0000
0000
0000
,
0001
0000
0000
0000
,
0001
0000
0000
0000
,
0010
0000
0000
0000
,
1000
0000
0000
0000
,
1000
0000
0000
0000
,
1000
0000
0000
0000
,
0010
0000
0000
0000
,
1000
0000
0000
0000
,
0001
0000
0000
0000
,
1000
0000
0000
0000
,
0010
0000
0000
0000
,
1000
0000
0000
0000
,
0001
0000
0000
0000
,
1000
0000
0000
0000
,
0010
0000
0000
0000
,
1000
0000
0000
0000
,
0001
0000
0000
0000
,
1000
0000
0000
0000
,
1001
0000
0000
0000
,
1000
1000
0000
0000
,
1000
1000
0000
0000
,
1000
1000
0000
0000
,
0010
0000
0000
0000
,
0001
0001
0000
0000
,
0001
0001
0000
0000
,
0001
0001
0000
0000
,
1001
0000
0000
0000
,
0001
0000
0000
0000
,
0000
0000
0000
0000
,
1000
0000
0000
0000
,
0000
0000
0000
0000
,
0002
0003
0000
0000
,
2000
3000
0000
0000
,
0002
0003
0000
0000
,
2000
3000
0000
0000
,
0001
0000
0000
0000
,
1000
0000
0000
0000
,
0001
0000
0000
0000
,
1001
0000
0000
0000
,
0001
0001
0000
0000
,
0001
0001
0000
0000
,
0001
0001
0000
0000
,
0100
0000
0000
0000
,
1000
1000
0000
0000
,
1000
1000
0000
0000
,
1000
1000
0000
0000
,
0100
0000
0000
0000
,
0001
0001
0000
0000
,
0001
0001
0000
0000
,
0001
0001
0000
0000
,
0010
0000
0000
0000
,
1000
1000
0000
0000
,
1000
1000
0000
0000
,
1000
1000
0000
0000
,
1001
0000
0000
0000
,
;

//---------------dance-single - ----------------
#NOTES:
     dance-single:
     :
     Easy:
     4:
     0.171,0.199,0.028,0.034,0.000: // measure 1
0000
0000
0000
0000
,  // measure 2
0000
0000
0000
0000
,  // measure 3
0000
0000
0000
0000
,  // measure 4
0000
0000
0000
0000
,  // measure 5
0000
0000
0000
0000
,  // measure 6
1000
0000
0010
0000
,  // measure 7
1000
0000
0100
0000
,  // measure 8
1000
0000
0001
0000
,  // measure 9
1000
0000
0010
1000
,  // measure 10
0001
0000
0010
0000
,  // measure 11
0001
0000
0100
0000
,  // measure 12
0001
0000
1000
0000
,  // measure 13
0001
0000
0010
0001
,  // measure 14
0001
0000
0100
0000
,  // measure 15
1000
0000
0100
0000
,  // measure 16
0001
0000
1000
0000
,  // measure 17
0010
0001
1000
0000
,  // measure 18
0001
0000
0100
0000
,  // measure 19
1000
0000
0100
0000
,  // measure 20
0001
0000
1000
0000
,  // measure 21
0010
0001
1000
0000
,  // measure 22
0001
0001
0000
0000
,  // measure 23
1000
1000
0000
0000
,  // measure 24
0001
0001
0000
0000
,  // measure 25
2002
0000
0000
3003
,  // measure 26
0001
0010
0001
0000
,  // measure 27
0100
0010
0100
0000
,  // measure 28
1000
0100
1000
0000
,  // measure 29
0100
0000
1000
0000
,  // measure 30
1000
0010
1000
0000
,  // measure 31
0100
0010
0100
0000
,  // measure 32
0001
0100
0001
0000
,  // measure 33
0001
0000
1000
1001
,  // measure 34
0001
0000
0010
0000
,  // measure 35
0001
0000
0100
0000
,  // measure 36
0001
0000
1000
0000
,  // measure 37
0001
0000
0000
0000
,  // measure 38
1000
0000
0010
0000
,  // measure 39
1000
0000
0100
0000
,  // measure 40
1000
0000
0001
0000
,  // measure 41
1000
0000
0010
1000
,  // measure 42
1000
0000
0100
0000
,  // measure 43
0001
0000
0100
0000
,  // measure 44
1000
0000
0001
0000
,  // measure 45
0010
1000
0001
0000
,  // measure 46
1000
0000
0100
0000
,  // measure 47
0001
0000
0100
0000
,  // measure 48
1000
0000
0001
0000
,  // measure 49
0010
1000
0100
0000
,  // measure 50
1000
1000
0000
0000
,  // measure 51
0001
0001
0000
0000
,  // measure 52
1000
1000
0000
0000
,  // measure 53
2002
0000
0000
3003
,  // measure 54
1000
0010
1000
0000
,  // measure 55
0100
0010
0100
0000
,  // measure 56
0001
0100
0001
0000
,  // measure 57
0100
0010
0001
0000
,  // measure 58
0001
0010
0001
0000
,  // measure 59
0100
0010
0100
0000
,  // measure 60
1000
0100
1000
0000
,  // measure 61
0100
0010
0001
0000
,  // measure 62
0001
0000
0001
0000
,  // measure 63
1000
0000
1000
0000
,  // measure 64
0010
0000
0010
0000
,  // measure 65
0100
0000
0100
0000
,  // measure 66
0001
0001
0000
0000
,  // measure 67
1000
1000
0000
0000
,  // measure 68
0010
0010
0000
0000
,  // measure 69
0100
0100
0000
0000
,  // measure 70
0001
0001
0000
0000
,  // measure 71
1000
1000
0000
0000
,  // measure 72
0001
0001
0000
0000
,  // measure 73
2002
0000
0000
3003
,  // measure 74
0001
0010
0001
0000
,  // measure 75
0100
0010
0100
0000
,  // measure 76
1000
0100
1000
0000
,  // measure 77
0100
0010
1000
0000
,  // measure 78
1000
0010
1000
0000
,  // measure 79
0100
0010
0100
0000
,  // measure 80
0001
0100
0001
0000
,  // measure 81
0100
0010
1000
0000
,  // measure 82
1000
0010
1000
0000
,  // measure 83
0100
0010
0100
0000
,  // measure 84
0001
0100
0001
0000
,  // measure 85
0100
0010
0001
0000
,  // measure 86
0001
0010
0001
0000
,  // measure 87
0100
0010
0100
0000
,  // measure 88
1000
0100
1000
0000
,  // measure 89
1000
0000
0001
1001
;

//---------------dance-single - ----------------
#NOTES:
     dance-single:
     :
     Medium:
     8:
     0.302,0.299,0.230,0.034,0.000:
0000
0000
0000
0000
,
0000
0000
0000
0000
,
0000
0000
0000
0000
,
0000
0000
0000
0000
,
0000
0000
0000
0000
,
1000
0000
0000
0100
0000
1000
0001
0000
,
1000
0000
0000
0010
0000
1000
0100
0000
,
1000
0000
0000
0100
0000
1000
0001
0000
,
1000
0000
0000
0010
0000
0000
1010
0000
,
0001
0000
0000
0100
0000
0001
1000
0000
,
0001
0000
0000
0010
0000
0001
0100
0000
,
0001
0000
0000
0100
0000
0001
1000
0000
,
0001
0000
0000
0010
0000
0000
0011
0000
,
0001
0010
0001
0000
0100
0000
0010
0000
,
1000
0010
1000
0000
0100
0000
0000
0000
,
0001
0100
0001
0000
1000
0000
0100
0000
,
0010
0000
0001
0100
1000
0000
0000
0000
,
0001
0010
0001
0000
0100
0000
0010
0000
,
1000
0010
1000
0000
0100
0000
0000
0000
,
0001
0100
0001
0000
1000
0000
0100
0000
,
0010
0001
1100
0000
,
0001
1000
0001
0000
0100
0000
0010
0000
,
1000
0010
1000
0000
0100
0000
0010
0000
,
0001
1000
0001
0000
0010
0000
0100
0000
,
2002
0000
0000
3003
,
0001
0010
0001
1010
,
1000
0010
0100
0010
,
1000
0100
0110
0011
,
0100
0000
0010
0000
1000
0010
0100
0000
,
1000
0010
1000
0011
,
0001
0010
0100
0010
,
0001
0100
0110
1010
,
0100
0000
0010
0000
1000
0001
1001
0000
,
0001
0000
0000
0100
0000
0001
1000
0000
,
0001
0000
0000
0010
0000
0001
0100
0000
,
0001
0000
0000
0100
0000
0001
1000
0000
,
0001
0000
0000
0010
0000
0000
0011
0000
,
1000
0000
0000
0100
0000
1000
0001
0000
,
1000
0000
0000
0010
0000
1000
0100
0000
,
1000
0000
0000
0100
0000
1000
0001
0000
,
1000
0000
0000
0010
0000
0000
1010
0000
,
1000
0010
1000
0000
0100
0000
0010
0000
,
0001
0010
0001
0000
0100
0000
0000
0000
,
1000
0100
1000
0000
0001
0000
0100
0000
,
0010
0000
1000
0100
0001
0000
0000
0000
,
1000
0010
1000
0000
0100
0000
0010
0000
,
0001
0010
0001
0000
0100
0000
0000
0000
,
1000
0100
1000
0000
0001
0000
0100
0000
,
0010
1000
0101
0000
,
1000
0001
1000
0000
0100
0000
0010
0000
,
0001
0010
0001
0000
0100
0000
0010
0000
,
1000
0001
1000
0000
0010
0000
0100
0000
,
2002
0000
0000
3003
,
1000
0010
1000
0011
,
0001
0010
0100
0010
,
0001
0100
0110
1010
,
0100
0000
0010
0000
0001
0010
0100
0000
,
0001
0010
0001
1010
,
1000
0010
0100
0010
,
1000
0100
0110
0011
,
0100
0000
0010
0000
0001
1000
1001
0000
,
0101
0000
0010
0000
,
1010
0000
0100
0000
,
0011
0000
0010
0000
,
0101
0000
0100
0000
,
0010
0001
0000
0000
,
0100
1000
0000
0000
,
0001
0010
0000
0000
,
1000
0010
0000
0000
,
0001
1000
0001
0000
0100
0000
0010
0000
,
1000
0010
1000
0000
0100
0000
0010
0000
,
0001
1000
0001
0000
0010
0000
0100
0000
,
2002
0000
0000
3003
,
0001
0010
0001
1010
,
1000
0010
0100
0010
,
1000
0100
0110
0011
,
0100
0000
0010
0000
1000
0010
0100
0000
,
1000
0010
1000
0011
,
0001
0010
0100
0010
,
0001
0100
0110
1010
,
0100
0000
0010
0000
1000
0001
1001
0000
,
1000
0010
1000
0011
,
0001
0010
0100
0010
,
0001
0100
0110
1010
,
0100
0000
0010
0000
0001
0010
0100
0000
,
0001
0010
0001
1010
,
1000
0010
0100
0010
,
1000
0100
0110
0011
,
0100
0000
0010
0000
0001
1000
1001
0000
,
;

//---------------dance-single - ----------------
#NOTES:
     dance-single:
     :
     Hard:
     12:
     0.460,0.498,0.399,0.034,0.463:
0000
0000
0000
0000
,
0000
0000
0000
0000
,
0000
0000
0000
0000
,
0000
0000
0000
0000
,
0000
0000
0000
0000
,
1000
0000
0000
0100
0000
0000
1000
0000
0000
0000
0001
0000
1000
0000
0100
0000
,
1000
0000
0000
0001
0000
0000
1000
0000
0000
0000
0100
0000
1000
0000
0000
0000
,
0001
0000
0000
0100
0000
0000
0001
0000
0000
0000
1000
0000
0001
0000
0100
0000
,
0001
0000
0000
1000
0000
0000
0001
0000
0101
0000
0000
0000
1001
0000
0000
0000
,
1000
0000
0000
0100
0000
0000
1000
0000
0000
0000
0001
0000
1000
0000
0100
0000
,
1000
0000
0000
0001
0000
0000
1000
0000
0000
0000
0100
0000
1000
0000
0000
0000
,
0001
0000
0000
0100
0000
0000
0001
0000
0000
0000
1000
0000
0001
0000
0100
0000
,
0001
0000
0000
1000
0000
0000
0001
0000
0101
0000
0000
0000
1001
0000
0000
0000
,
0000
0000
1000
0000
0000
0100
0000
0000
0010
0000
0000
0001
0000
0000
0011
0000
,
0000
0000
0001
0000
0000
0100
0000
0000
0010
0000
0000
1000
0000
0000
1010
0000
,
0000
0000
1000
0000
0000
0001
0000
0000
0100
0000
0000
0010
0000
0000
1001
0000
,
0100
0010
0100
0000
0110
0000
1001
0000
,
0000
0000
0001
0000
0000
0010
0000
0000
0100
0000
0000
1000
0000
0000
1100
0000
,
0000
0000
1000
0000
0000
0010
0000
0000
0100
0000
0000
0001
0000
0000
0101
0000
,
0000
0000
0001
0000
0000
1000
0000
0000
0010
0000
0000
0100
0000
0000
1001
0000
,
0010
0100
0010
0000
0110
0000
1001
0000
,
1000
0100
1000
0100
1000
0000
0000
0001
0000
0001
0000
0001
0010
0000
0000
0000
,
0001
1000
0001
1000
0001
0000
0000
0010
0000
0010
0000
0010
0100
0000
0000
0000
,
0001
0100
0001
0100
0001
0000
0000
1000
0000
1000
0000
1000
0010
0000
0000
0000
,
2002
0000
0000
3003
0110
0000
1001
0000
,
1000
0100
0000
0100
0010
0000
0000
0001
0000
0010
0001
0000
0011
0000
0000
0000
,
0001
0100
0000
0100
0010
0000
0000
0010
0000
0000
1000
0000
0100
0000
0000
0000
,
1000
0100
0000
0100
0010
0000
0110
0000
0000
0000
0011
0000
0000
0000
0001
0000
,
0100
0010
1000
0100
,
0001
0100
0000
0100
0010
0000
0000
1000
0000
0010
1000
0000
1010
0000
0000
0000
,
1000
0100
0000
0100
0010
0000
0000
0010
0000
0000
0001
0000
0100
0000
0000
0000
,
0001
0100
0000
0100
0010
0000
0110
0000
0000
0000
1010
0000
0000
0000
0000
0000
,
0001
1000
0000
0001
1000
0000
0001
0000
0100
0000
0010
0000
1001
0000
0000
0000
,
0001
0000
0000
0010
0000
0000
0001
0000
0000
0000
1000
0000
0001
0000
0010
0000
,
0001
0000
0000
1000
0000
0000
0001
0000
0000
0000
0010
0000
0001
0000
0000
0000
,
1000
0000
0000
0010
0000
0000
1000
0000
0000
0000
0001
0000
1000
0000
0010
0000
,
1000
0000
0000
0001
0000
0000
1000
0000
1010
0000
0000
0000
1001
0000
0000
0000
,
0001
0000
0000
0010
0000
0000
0001
0000
0000
0000
1000
0000
0001
0000
0010
0000
,
0001
0000
0000
1000
0000
0000
0001
0000
0000
0000
0010
0000
0001
0000
0000
0000
,
1000
0000
0000
0010
0000
0000
1000
0000
0000
0000
0001
0000
1000
0000
0010
0000
,
1000
0000
0000
0001
0000
0000
1000
0000
1010
0000
0000
0000
1001
0000
0000
0000
,
0000
0000
0001
0000
0000
0100
0000
0000
0010
0000
0000
1000
0000
0000
1010
0000
,
0000
0000
1000
0000
0000
0100
0000
0000
0010
0000
0000
0001
0000
0000
0011
0000
,
0000
0000
0001
0000
0000
1000
0000
0000
0100
0000
0000
0010
0000
0000
1001
0000
,
0100
0010
0100
0000
0110
0000
1001
0000
,
0000
0000
1000
0000
0000
0010
0000
0000
0100
0000
0000
0001
0000
0000
0101
0000
,
0000
0000
0001
0000
0000
0010
0000
0000
0100
0000
0000
1000
0000
0000
1100
0000
,
0000
0000
1000
0000
0000
0001
0000
0000
0010
0000
0000
0100
0000
0000
1001
0000
,
0010
0100
0010
0000
0110
0000
1001
0000
,
0001
0100
0001
0100
0001
0000
0000
1000
0000
1000
0000
1000
0010
0000
0000
0000
,
1000
0001
1000
0001
1000
0000
0000
0010
0000
0010
0000
0010
0100
0000
0000
0000
,
1000
0100
1000
0100
1000
0000
0000
0001
0000
0001
0000
0001
0010
0000
0000
0000
,
2002
0000
0000
3003
0110
0000
1001
0000
,
0001
0100
0000
0100
0010
0000
0000
1000
0000
0010
1000
0000
1010
0000
0000
0000
,
1000
0100
0000
0100
0010
0000
0000
0010
0000
0000
0001
0000
0100
0000
0000
0000
,
0001
0100
0000
0100
0010
0000
0110
0000
0000
0000
1010
0000
0000
0000
1000
0000
,
0100
0010
0001
0100
,
1000
0100
0000
0100
0010
0000
0000
0001
0000
0010
0001
0000
0011
0000
0000
0000
,
0001
0100
0000
0100
0010
0000
0000
0010
0000
0000
1000
0000
0100
0000
0000
0000
,
1000
0100
0000
0100
0010
0000
0110
0000
0000
0000
0011
0000
0000
0000
0000
0000
,
1000
0001
0000
1000
0001
0000
1000
0000
0100
0000
0010
0000
1001
0000
0000
0000
,
1100
0000
1010
0000
,
0011
0000
0101
0000
,
1010
0000
0011
0000
,
1100
0000
0101
0000
,
0100
0100
0100
0000
0000
0000
0000
0000
,
0001
0001
0001
0000
0000
0000
0000
0000
,
1000
1000
1000
0000
0000
0000
0000
0000
,
0010
0010
0010
0000
0000
0000
0000
0000
,
1000
0100
1000
0100
1000
0000
0000
0001
0000
0001
0000
0001
0010
0000
0000
0000
,
0001
1000
0001
1000
0001
0000
0000
0010
0000
0010
0000
0010
0100
0000
0000
0000
,
0001
0100
0001
0100
0001
0000
0000
1000
0000
1000
0000
1000
0010
0000
0000
0000
,
2002
0000
0000
3003
,
1000
0100
0000
0100
0010
0000
0000
0001
0000
0010
0001
0000
0011
0000
0000
0000
,
0001
0100
0000
0100
0010
0000
0000
0010
0000
0000
1000
0000
0100
0000
0000
0000
,
1000
0100
0000
0100
0010
0000
0110
0000
0000
0000
0011
0000
0000
0000
0001
0000
,
0100
0010
1000
0100
,
0001
0100
0000
0100
0010
0000
0000
1000
0000
0010
1000
0000
1010
0000
0000
0000
,
1000
0100
0000
0100
0010
0000
0000
0010
0000
0000
0001
0000
0100
0000
0000
0000
,
0001
0100
0000
0100
0010
0000
0110
0000
0000
0000
1010
0000
0000
0000
0000
0000
,
0001
1000
0000
0001
1000
0000
0001
0000
0100
0000
0010
0000
1001
0000
0000
0000
,
0001
0010
0000
0010
0100
0000
0000
1000
0000
0100
1000
0000
1100
0000
0000
0000
,
1000
0010
0000
0010
0100
0000
0000
0100
0000
0000
0001
0000
0010
0000
0000
0000
,
0001
0010
0000
0010
0100
0000
0110
0000
0000
0000
1100
0000
0000
0000
1000
0000
,
0010
0100
0001
0010
,
1000
0010
0000
0010
0100
0000
0000
0001
0000
0100
0001
0000
0101
0000
0000
0000
,
0001
0010
0000
0010
0100
0000
0000
0100
0000
0000
1000
0000
0010
0000
0000
0000
,
1000
0010
0000
0010
0100
0000
0110
0000
0000
0000
0101
0000
0000
0000
0000
0000
,
1000
0001
0000
1000
0001
0000
1000
0000
0010
0000
0100
0000
1001
0000
0000
0000
,
;

//---------------dance-double - ----------------
#NOTES:
     dance-double:
     :
     Easy:
     4:
     0.172,0.199,0.039,0.034,0.000:
00000000
00000000
00000000
00000000
,
00000000
00000000
00000000
00000000
,
00000000
00000000
00000000
00000000
,
00000000
00000000
00000000
00000000
,
00000000
00000000
00000000
00000000
,
10000000
00000000
00100000
00000000
,
01000000
00000000
00010000
00000000
,
00100000
00000000
00001000
00000000
,
00010000
00000000
00001000
00000010
,
00000001
00000000
00000010
00000000
,
00000100
00000000
00010000
00000000
,
00001000
00000000
01000000
00000000
,
00100000
00000000
10000000
01000000
,
00100000
00000000
00010000
00000000
,
01000000
00000000
00001000
00000000
,
00010000
00000000
00000100
00000000
,
00000010
00000001
00000100
00000000
,
00000010
00000000
00010000
00000000
,
00001000
00000000
01000000
00000000
,
00010000
00000000
10000000
00000000
,
01000000
00100000
00001000
00000000
,
00010000
00010000
00000000
00000000
,
00001000
00001000
00000000
00000000
,
00010000
00010000
00000000
00000000
,
00022000
00000000
00000000
00033000
,
00000100
00001000
00000100
00000000
,
00000010
00000001
00000010
00000000
,
00000001
00000100
00000001
00000000
,
00001000
00000000
00000100
00000000
,
00010000
00001000
00010000
00000000
,
00100000
01000000
00100000
00000000
,
10000000
01000000
10000000
00000000
,
00010000
00000000
00100000
00110000
,
10000000
00000000
00100000
00000000
,
01000000
00000000
00010000
00000000
,
00100000
00000000
00001000
00000000
,
00010000
00000000
00001000
00000010
,
00000001
00000000
00000010
00000000
,
00000100
00000000
00010000
00000000
,
00001000
00000000
01000000
00000000
,
00100000
00000000
10000000
01000000
,
00100000
00000000
00010000
00000000
,
01000000
00000000
00001000
00000000
,
00010000
00000000
00000100
00000000
,
00000010
00000001
00000100
00000000
,
00000010
00000000
00010000
00000000
,
00001000
00000000
01000000
00000000
,
00010000
00000000
10000000
00000000
,
01000000
00100000
00001000
00000000
,
00010000
00010000
00000000
00000000
,
00001000
00001000
00000000
00000000
,
00010000
00010000
00000000
00000000
,
00022000
00000000
00000000
00033000
,
00000100
00001000
00000100
00000000
,
00000010
00000001
00000010
00000000
,
00000001
00000100
00000001
00000000
,
00001000
00000000
00000100
00000000
,
00010000
00001000
00010000
00000000
,
00100000
01000000
00100000
00000000
,
10000000
01000000
10000000
00000000
,
00010000
00000000
00100000
00110000
,
00010000
00000000
00001000
00000000
,
00000001
00000000
00000100
00000000
,
00010000
00000000
00100000
00000000
,
01000000
00000000
00010000
00000000
,
00001000
00001000
00000000
00000000
,
01000000
01000000
00000000
00000000
,
00001000
00001000
00000000
00000000
,
00100000
00100000
00000000
00000000
,
00010000
00010000
00000000
00000000
,
00001000
00001000
00000000
00000000
,
00010000
00010000
00000000
00000000
,
00022000
00000000
00000000
00033000
,
01000000
00010000
01000000
00000000
,
00100000
10000000
00100000
00000000
,
10000000
01000000
10000000
00000000
,
00010000
00000000
01000000
00000000
,
00001000
00010000
00001000
00000000
,
00000010
00000100
00000010
00000000
,
00000001
00000100
00000001
00000000
,
00001000
00000000
00000010
00001010
,
00000100
00001000
00000100
00000000
,
00000010
00000001
00000010
00000000
,
00000001
00000100
00000001
00000000
,
00001000
00000000
00000100
00000000
,
00010000
00001000
00010000
00000000
,
00100000
01000000
00100000
00000000
,
10000000
01000000
10000000
00000000
,
00010000
00000000
00100000
00110000
,
;

//---------------dance-double - ----------------
#NOTES:
     dance-double:
     :
     Medium:
     8:
     0.312,0.299,0.275,0.034,0.000:
00000000
00000000
00000000
00000000
,
00000000
00000000
00000000
00000000
,
00000000
00000000
00000000
00000000
,
00000000
00000000
00000000
00000000
,
00000000
00000000
00000000
00000000
,
00100000
00000000
00000000
01000000
00000000
00001000
00010000
00000000
,
00000100
00000000
00000000
00000010
00000000
00000001
00000100
00000000
,
00000010
00000000
00000000
00001000
00000000
00000100
00010000
00000000
,
00001000
00000000
00000000
01000000
00000000
00000000
10100000
00000000
,
00100000
00000000
00000000
01000000
00000000
00001000
00010000
00000000
,
00000100
00000000
00000000
00000010
00000000
00000001
00000100
00000000
,
00000010
00000000
00000000
00001000
00000000
00000100
00010000
00000000
,
00001000
00000000
00000000
01000000
00000000
00000000
10100000
00000000
,
00100000
10000000
00100000
00000000
01000000
00000000
00010000
00000000
,
00100000
00001000
00100000
00000000
00001000
00000000
00010000
00000000
,
00000100
00001000
00000100
00000000
00000010
00000000
00000001
00000000
,
00000100
00000000
00000010
00001000
00010000
00000000
00000000
00000000
,
00100000
00010000
00100000
00000000
01000000
00000000
10000000
00000000
,
00100000
10000000
00100000
00000000
01000000
00000000
00010000
00000000
,
00100000
00001000
00100000
00000000
00001000
00000000
00010000
00000000
,
00000100
00001000
00000011
00000000
,
00000001
00000001
00000001
00000000
00000100
00000000
00000010
00000000
,
00001000
00001000
00001000
00000000
00000100
00000000
00010000
00000000
,
00001000
00001000
00001000
00000000
01000000
00000000
00100000
00000000
,
20020000
00000000
00000000
30030000
,
00100000
10000000
00100000
01010000
,
00100000
00010000
00100000
00011000
,
00000100
00001000
00000011
00000101
,
00000010
00000000
00010000
00000000
00001000
00010000
00100000
00000000
,
10000000
01000000
10000000
00110000
,
01000000
00001000
01000000
00011000
,
00000010
00001000
00001010
00000011
,
00000001
00000000
00000100
00000000
00000010
00001000
00001010
00000000
,
00000100
00000000
00000000
00000010
00000000
00010000
00001000
00000000
,
00100000
00000000
00000000
01000000
00000000
10000000
00100000
00000000
,
01000000
00000000
00000000
00010000
00000000
00100000
00001000
00000000
,
00010000
00000000
00000000
00000010
00000000
00000000
00000101
00000000
,
00000100
00000000
00000000
00000010
00000000
00010000
00001000
00000000
,
00100000
00000000
00000000
01000000
00000000
10000000
00100000
00000000
,
01000000
00000000
00000000
00010000
00000000
00100000
00001000
00000000
,
00010000
00000000
00000000
00000010
00000000
00000000
00000101
00000000
,
00000010
00000001
00000010
00000000
00000100
00000000
00001000
00000000
,
00000010
00010000
00000010
00000000
00010000
00000000
00001000
00000000
,
01000000
00010000
01000000
00000000
00100000
00000000
10000000
00000000
,
01000000
00000000
00100000
00010000
00001000
00000000
00000000
00000000
,
00000010
00001000
00000010
00000000
00000100
00000000
00000001
00000000
,
00000010
00000001
00000010
00000000
00000100
00000000
00001000
00000000
,
00000010
00010000
00000010
00000000
00010000
00000000
00001000
00000000
,
01000000
00010000
10100000
00000000
,
10000000
10000000
10000000
00000000
01000000
00000000
00100000
00000000
,
00010000
00010000
00010000
00000000
01000000
00000000
00001000
00000000
,
00010000
00010000
00010000
00000000
00000100
00000000
00000010
00000000
,
00002002
00000000
00000000
00003003
,
00000010
00000001
00000010
00001100
,
00000010
00001000
00000010
00011000
,
01000000
00010000
10100000
11000000
,
00100000
00000000
00001000
00000000
00010000
00001000
00000010
00000000
,
00000001
00000100
00000001
00001010
,
00000100
00010000
00000100
00011000
,
00100000
00010000
00110000
10100000
,
10000000
00000000
01000000
00000000
00100000
00010000
00110000
00000000
,
01010000
00000000
00001000
00000000
,
00011000
00000000
00000100
00000000
,
00001100
00000000
00000010
00000000
,
00000011
00000000
00000001
00000000
,
00000100
00001000
00000000
00000000
,
00010000
00100000
00000000
00000000
,
00010000
00000100
00000000
00000000
,
00000010
00000001
00000000
00000000
,
00000001
00000001
00000001
00000000
00000100
00000000
00000010
00000000
,
00001000
00001000
00001000
00000000
00000100
00000000
00010000
00000000
,
00001000
00001000
00001000
00000000
01000000
00000000
00100000
00000000
,
20020000
00000000
00000000
30030000
,
00100000
10000000
00100000
01010000
,
00100000
00010000
00100000
00011000
,
00000100
00001000
00000011
00000101
,
00000010
00000000
00010000
00000000
00001000
00010000
00100000
00000000
,
10000000
01000000
10000000
00110000
,
01000000
00001000
01000000
00011000
,
00000010
00001000
00001010
00000011
,
00000001
00000000
00000100
00000000
00000010
00001000
00001010
00000000
,
00000100
00000001
00000100
00001010
,
00000100
00001000
00000100
00011000
,
00100000
00010000
11000000
10100000
,
01000000
00000000
00001000
00000000
00010000
00001000
00000100
00000000
,
00000001
00000010
00000001
00001100
,
00000010
00010000
00000010
00011000
,
01000000
00010000
01010000
11000000
,
10000000
00000000
00100000
00000000
01000000
00010000
01010000
00000000
,
;

//---------------dance-double - ----------------
#NOTES:
     dance-double:
     :
     Hard:
     12:
     0.465,0.473,0.444,0.034,0.416:
00000000
00000000
00000000
00000000
,
00000000
00000000
00000000
00000000
,
00000000
00000000
00000000
00000000
,
00000000
00000000
00000000
00000000
,
00000000
00000000
00000000
00000000
,
00100000
00000000
00000000
01000000
00000000
00000000
00010000
00000000
00000000
00000000
00100000
00000000
01000000
00000000
10000000
00000000
,
00100000
00000000
00000000
01000000
00000000
00000000
00001000
00000000
00000000
00000000
00010000
00000000
00000100
00000000
00000000
00000000
,
00000010
00000000
00000000
00000001
00000000
00000000
00000100
00000000
00000000
00000000
00000010
00000000
00001000
00000000
00000100
00000000
,
00000010
00000000
00000000
00000001
00000000
00000000
00000100
00000000
00001010
00000000
00000000
00000000
00011000
00000000
00000000
00000000
,
00100000
00000000
00000000
01000000
00000000
00000000
00010000
00000000
00000000
00000000
00100000
00000000
01000000
00000000
10000000
00000000
,
00100000
00000000
00000000
01000000
00000000
00000000
00001000
00000000
00000000
00000000
00010000
00000000
00000100
00000000
00000000
00000000
,
00000010
00000000
00000000
00000001
00000000
00000000
00000100
00000000
00000000
00000000
00000010
00000000
00001000
00000000
00000100
00000000
,
00000010
00000000
00000000
00000001
00000000
00000000
00000100
00000000
00001010
00000000
00000000
00000000
00011000
00000000
00000000
00000000
,
00000000
00000000
00100000
00000000
00000000
00010000
00000000
00000000
10000000
00000000
00000000
01000000
00000000
00000000
00110000
00000000
,
00000000
00000000
00001000
00000000
00000000
00010000
00000000
00000000
00000010
00000000
00000000
00001000
00000000
00000000
00000101
00000000
,
00000000
00000000
00000001
00000000
00000000
00000010
00000000
00000000
00000100
00000000
00000000
00010000
00000000
00000000
00011000
00000000
,
00100000
00001000
00010000
00000000
00110000
00000000
10010000
00000000
,
00000000
00000000
00100000
00000000
00000000
00010000
00000000
00000000
10000000
00000000
00000000
01000000
00000000
00000000
00110000
00000000
,
00000000
00000000
00001000
00000000
00000000
00010000
00000000
00000000
00000010
00000000
00000000
00001000
00000000
00000000
00000101
00000000
,
00000000
00000000
00000001
00000000
00000000
00000010
00000000
00000000
00000100
00000000
00000000
00010000
00000000
00000000
00011000
00000000
,
00100000
00001000
00010000
00000000
00110000
00000000
11000000
00000000
,
10000000
01000000
10000000
00000000
00010000
00000000
00000000
00100000
00000000
00001000
00000000
00010000
00000100
00000000
00000000
00000000
,
00000010
00000001
00000010
00000000
00000001
00000000
00000000
00000100
00000000
00000010
00000000
00010000
00001000
00000000
00000000
00000000
,
01000000
00010000
01000000
00000000
00100000
00000000
00000000
10000000
00000000
01000000
00000000
00010000
00001000
00000000
00000000
00000000
,
00000022
00000000
00000000
00000033
00011000
00000000
10100000
00000000
,
10000000
01000000
00000000
00100000
00010000
00000000
00000000
00000000
00010000
00001000
00010000
00000000
00001010
00000000
00000000
00000000
,
00000001
00000100
00000000
00000010
00001000
00000000
00000000
00000000
00001000
00010000
00001000
00000000
00110000
00000000
00000000
00000000
,
10000000
01000000
00000000
00100000
00010000
00000000
00011000
00000000
00000000
00000000
00001010
00000000
00000000
00000000
00000001
00000000
,
00000100
00000010
00001000
00010000
,
10000000
00100000
00000000
01000000
00010000
00000000
00000000
00000000
00010000
00001000
00010000
00000000
00001100
00000000
00000000
00000000
,
00000001
00000010
00000000
00000100
00001000
00000000
00000000
00000000
00001000
00010000
00001000
00000000
01010000
00000000
00000000
00000000
,
10000000
00100000
00000000
01000000
00010000
00000000
00011000
00000000
00000000
00000000
00001100
00000000
00000000
00000000
00000000
00000000
,
00000001
00001000
00000000
00000010
00010000
00000000
00001000
00000000
01000000
00000000
00100000
00000000
10010000
00000000
00000000
00000000
,
00100000
00000000
00000000
01000000
00000000
00000000
00010000
00000000
00000000
00000000
00100000
00000000
01000000
00000000
10000000
00000000
,
00100000
00000000
00000000
01000000
00000000
00000000
00001000
00000000
00000000
00000000
00010000
00000000
00000100
00000000
00000000
00000000
,
00000010
00000000
00000000
00000001
00000000
00000000
00000100
00000000
00000000
00000000
00000010
00000000
00001000
00000000
00000100
00000000
,
00000010
00000000
00000000
00000001
00000000
00000000
00000100
00000000
00001010
00000000
00000000
00000000
00011000
00000000
00000000
00000000
,
00100000
00000000
00000000
01000000
00000000
00000000
00010000
00000000
00000000
00000000
00100000
00000000
01000000
00000000
10000000
00000000
,
00100000
00000000
00000000
01000000
00000000
00000000
00001000
00000000
00000000
00000000
00010000
00000000
00000100
00000000
00000000
00000000
,
00000010
00000000
00000000
00000001
00000000
00000000
00000100
00000000
00000000
00000000
00000010
00000000
00001000
00000000
00000100
00000000
,
00000010
00000000
00000000
00000001
00000000
00000000
00000100
00000000
00001010
00000000
00000000
00000000
00011000
00000000
00000000
00000000
,
00000000
00000000
00100000
00000000
00000000
00010000
00000000
00000000
10000000
00000000
00000000
01000000
00000000
00000000
00110000
00000000
,
00000000
00000000
00001000
00000000
00000000
00010000
00000000
00000000
00000010
00000000
00000000
00001000
00000000
00000000
00000101
00000000
,
00000000
00000000
00000001
00000000
00000000
00000010
00000000
00000000
00000100
00000000
00000000
00010000
00000000
00000000
00011000
00000000
,
00100000
00001000
00010000
00000000
00110000
00000000
10010000
00000000
,
00000000
00000000
00100000
00000000
00000000
00010000
00000000
00000000
10000000
00000000
00000000
01000000
00000000
00000000
00110000
00000000
,
00000000
00000000
00001000
00000000
00000000
00010000
00000000
00000000
00000010
00000000
00000000
00001000
00000000
00000000
00000101
00000000
,
00000000
00000000
00000001
00000000
00000000
00000010
00000000
00000000
00000100
00000000
00000000
00010000
00000000
00000000
00011000
00000000
,
00100000
00001000
00010000
00000000
00110000
00000000
11000000
00000000
,
10000000
01000000
10000000
00000000
00010000
00000000
00000000
00100000
00000000
00001000
00000000
00010000
00000100
00000000
00000000
00000000
,
00000010
00000001
00000010
00000000
00000001
00000000
00000000
00000100
00000000
00000010
00000000
00010000
00001000
00000000
00000000
00000000
,
01000000
00010000
01000000
00000000
00100000
00000000
00000000
10000000
00000000
01000000
00000000
00010000
00001000
00000000
00000000
00000000
,
00000022
00000000
00000000
00000033
00011000
00000000
10100000
00000000
,
10000000
01000000
00000000
00100000
00010000
00000000
00000000
00000000
00010000
00001000
00010000
00000000
00001010
00000000
00000000
00000000
,
00000001
00000100
00000000
00000010
00001000
00000000
00000000
00000000
00001000
00010000
00001000
00000000
00110000
00000000
00000000
00000000
,
10000000
01000000
00000000
00100000
00010000
00000000
00011000
00000000
00000000
00000000
00001010
00000000
00000000
00000000
00000001
00000000
,
00000100
00000010
00001000
00010000
,
10000000
00100000
00000000
01000000
00010000
00000000
00000000
00000000
00010000
00001000
00010000
00000000
00001100
00000000
00000000
00000000
,
00000001
00000010
00000000
00000100
00001000
00000000
00000000
00000000
00001000
00010000
00001000
00000000
01010000
00000000
00000000
00000000
,
10000000
00100000
00000000
01000000
00010000
00000000
00011000
00000000
00000000
00000000
00001100
00000000
00000000
00000000
00000000
00000000
,
00000001
00001000
00000000
00000010
00010000
00000000
00001000
00000000
01000000
00000000
00100000
00000000
10010000
00000000
00000000
00000000
,
11000000
00000000
00110000
00000000
,
00011000
00000000
00001010
00000000
,
00000011
00000000
00000101
00000000
,
00001010
00000000
00011000
00000000
,
00100000
00010000
00001000
00000000
00000000
00000000
00000000
00000000
,
00000010
00001000
00010000
00000000
00000000
00000000
00000000
00000000
,
00100000
00010000
10000000
00000000
00000000
00000000
00000000
00000000
,
00000010
00000001
00001000
00000000
00000000
00000000
00000000
00000000
,
00000001
00000100
00000001
00000000
00001000
00000000
00000000
00000010
00000000
00010000
00000000
00001000
01000000
00000000
00000000
00000000
,
00100000
10000000
00100000
00000000
10000000
00000000
00000000
01000000
00000000
00100000
00000000
00001000
00010000
00000000
00000000
00000000
,
00000100
00001000
00000100
00000000
00000010
00000000
00000000
00000001
00000000
00000100
00000000
00001000
00010000
00000000
00000000
00000000
,
00002020
00000000
00000000
00003030
,
00000001
00000100
00000000
00000010
00001000
00000000
00000000
00000000
00001000
00010000
00001000
00000000
00110000
00000000
00000000
00000000
,
10000000
01000000
00000000
00100000
00010000
00000000
00000000
00000000
00010000
00001000
00010000
00000000
00001010
00000000
00000000
00000000
,
00000001
00000100
00000000
00000010
00001000
00000000
00011000
00000000
00000000
00000000
00110000
00000000
00000000
00000000
10000000
00000000
,
01000000
00100000
00010000
00001000
,
00000001
00000010
00000000
00000100
00001000
00000000
00000000
00000000
00001000
00010000
00001000
00000000
01010000
00000000
00000000
00000000
,
10000000
00100000
00000000
01000000
00010000
00000000
00000000
00000000
00010000
00001000
00010000
00000000
00001100
00000000
00000000
00000000
,
00000001
00000010
00000000
00000100
00001000
00000000
00011000
00000000
00000000
00000000
01010000
00000000
00000000
00000000
00000000
00000000
,
10000000
00010000
00000000
00100000
00001000
00000000
00010000
00000000
00000100
00000000
00000010
00000000
00001001
00000000
00000000
00000000
,
00000001
00000100
00000000
00000010
00001000
00000000
00000000
00000000
00001000
00010000
00001000
00000000
00110000
00000000
00000000
00000000
,
10000000
01000000
00000000
00100000
00010000
00000000
00000000
00000000
00010000
00001000
00010000
00000000
00001010
00000000
00000000
00000000
,
00000001
00000100
00000000
00000010
00001000
00000000
00011000
00000000
00000000
00000000
00110000
00000000
00000000
00000000
10000000
00000000
,
01000000
00100000
00010000
00001000
,
00000001
00000010
00000000
00000100
00001000
00000000
00000000
00000000
00001000
00010000
00001000
00000000
01010000
00000000
00000000
00000000
,
10000000
00100000
00000000
01000000
00010000
00000000
00000000
00000000
00010000
00001000
00010000
00000000
00001100
00000000
00000000
00000000
,
00000001
00000010
00000000
00000100
00001000
00000000
00011000
00000000
00000000
00000000
01010000
00000000
00000000
00000000
00000000
00000000
,
10000000
00010000
00000000
00100000
00001000
00000000
00010000
00000000
00000100
00000000
00000010
00000000
00001001
00000000
00000000
00000000
,
;
