#TITLE:Somebody To Love;
#SUBTITLE:Short Song;
#ARTIST:Justin Bieber;
#TITLETRANSLIT:;
#SUBTITLETRANSLIT:;
#ARTISTTRANSLIT:;
#CREDIT:;
#BANNER:Somebody To Love.png;
#BACKGROUND:Somebody To Love-bg.png;
#LYRICSPATH:;
#CDTITLE:./CDTITLES/DanceDanceRevolution II.png;
#MUSIC:../Somebody To Love (Full Song)/Somebody To Love (Full Song).ogg;
#OFFSET:0.000;
#SAMPLESTART:155.020;
#SAMPLELENGTH:15.000;
#SELECTABLE:YES;
#DISPLAYBPM:130.000;
#BPMS:0.000=129.999;
#STOPS:;
#BGCHANGES:;

//---------------dance-single - ----------------
#NOTES:
     dance-single:
     :
     Beginner:
     3:
     0.070,0.092,0.000,0.072,0.000:
0000
0000
0000
0000
,
0000
0000
0000
0000
,
0000
0000
0000
0000
,
0000
0000
0000
0000
,
0000
0000
0000
0000
,
1000
0000
0000
0000
,
0001
0000
0000
0000
,
0010
0000
0000
0000
,
0000
0000
0000
0000
,
1000
0000
1000
0000
,
0001
0000
0000
0000
,
0010
0000
0010
0000
,
0010
0000
0000
0000
,
0001
0000
0001
0000
,
1000
0000
0000
0000
,
0010
0000
0010
0000
,
0010
0000
0000
0000
,
2000
3000
0000
0000
,
0200
0300
0000
0000
,
1000
0000
0100
0000
,
1000
0000
0000
0000
,
0002
0003
0000
0000
,
0200
0300
0000
0000
,
0001
0000
0100
0000
,
0001
0000
0000
0000
,
1000
1000
1000
0000
,
0001
0001
0001
0000
,
0010
0000
0010
0000
,
0100
0000
0000
0000
,
1000
1000
1000
0000
,
0001
0001
0001
0000
,
0010
0000
0010
0000
,
0100
0000
0000
0000
,
0001
0000
0000
0000
,
0000
0000
0000
0000
,
1000
0000
0000
0000
,
0000
0000
0000
0000
,
1000
0000
1000
0000
,
0001
0000
0000
0000
,
0010
0000
0010
0000
,
0010
0000
0000
0000
,
0001
0000
0001
0000
,
1000
0000
0000
0000
,
0010
0000
0010
0000
,
0010
0000
0000
0000
,
2000
3000
0000
0000
,
0200
0300
0000
0000
,
1000
0000
0100
0000
,
1000
0000
0000
0000
,
0002
0003
0000
0000
,
0200
0300
0000
0000
,
0001
0000
0100
0000
,
0001
0000
0000
0000
,
1000
1000
1000
0000
,
0001
0001
0001
0000
,
0010
0000
0010
0000
,
0100
0000
0000
0000
,
1000
1000
1000
0000
,
0001
0001
0001
0000
,
0010
0000
0010
0000
,
0100
0000
0000
0000
,
0002
0000
0000
0000
,
0000
0003
0000
0000
,
2000
3000
0002
0003
,
2000
3000
0000
0000
,
2000
0000
0000
0000
,
0000
3000
0000
0000
,
0002
0003
2000
3000
,
0002
0003
0000
0000
,
;

//---------------dance-single - ----------------
#NOTES:
     dance-single:
     :
     Easy:
     4:
     0.099,0.107,0.000,0.125,0.000: // measure 1
0000
0000
0000
0000
,  // measure 2
0000
0000
0000
0000
,  // measure 3
0000
0000
0000
0000
,  // measure 4
0000
0000
0000
0000
,  // measure 5
0000
0000
0000
0000
,  // measure 6
2000
0000
0000
3000
,  // measure 7
0020
0000
0000
0030
,  // measure 8
0200
0000
0000
0300
,  // measure 9
0002
0000
0000
0003
,  // measure 10
1000
0000
0100
0000
,  // measure 11
1000
0100
0100
0000
,  // measure 12
0010
0000
0100
0000
,  // measure 13
0020
0000
0030
0000
,  // measure 14
0001
0000
0100
0000
,  // measure 15
0001
0100
0100
0000
,  // measure 16
0010
0000
0100
0000
,  // measure 17
0020
0000
0030
0000
,  // measure 18
2000
3000
0002
0003
,  // measure 19
1000
0001
1000
0000
,  // measure 20
0001
1000
0001
0000
,  // measure 21
0100
0000
0100
0000
,  // measure 22
0002
0003
2000
3000
,  // measure 23
0001
1000
0001
0000
,  // measure 24
1000
0001
1000
0000
,  // measure 25
0100
0000
0000
0000
,  // measure 26
1000
0100
0010
0000
,  // measure 27
1000
0000
0010
0000
,  // measure 28
0002
0000
0013
0000
,  // measure 29
0002
0000
0103
0000
,  // measure 30
0001
0100
0010
0000
,  // measure 31
0001
0000
0010
0000
,  // measure 32
2000
0000
3010
0000
,  // measure 33
0200
0000
0300
0000
,  // measure 34
1000
0000
0001
0000
,  // measure 35
1000
0001
0010
0000
,  // measure 36
1000
0000
0001
0000
,  // measure 37
0010
0000
0000
0000
,  // measure 38
1000
0000
0100
0000
,  // measure 39
1000
0100
0100
0000
,  // measure 40
0010
0000
0100
0000
,  // measure 41
0020
0000
0030
0000
,  // measure 42
0010
0000
0100
0000
,  // measure 43
0010
0100
0100
0000
,  // measure 44
0010
0000
1000
0000
,  // measure 45
0002
0000
0003
0000
,  // measure 46
2000
3000
0002
0003
,  // measure 47
1000
0001
1000
0000
,  // measure 48
0001
1000
0001
0000
,  // measure 49
0100
0000
0100
0000
,  // measure 50
0002
0003
2000
3000
,  // measure 51
0001
1000
0001
0000
,  // measure 52
1000
0001
1000
0000
,  // measure 53
0100
0000
0000
0000
,  // measure 54
0100
1000
0001
0000
,  // measure 55
0100
0000
1000
0000
,  // measure 56
0002
0000
0013
0000
,  // measure 57
0002
0000
0103
0000
,  // measure 58
0001
0100
0010
0000
,  // measure 59
0001
0000
0010
0000
,  // measure 60
2000
0000
3010
0000
,  // measure 61
0200
0000
0300
0000
,  // measure 62
0002
0000
0000
0000
,  // measure 63
0200
0000
0000
0303
,  // measure 64
0000
0000
0010
0010
,  // measure 65
0000
0000
0100
0100
,  // measure 66
2000
0000
0000
0000
,  // measure 67
0200
0000
0000
3300
,  // measure 68
0000
0000
1000
0001
,  // measure 69
1000
0000
0000
0000
;

//---------------dance-single - ----------------
#NOTES:
     dance-single:
     :
     Medium:
     6:
     0.187,0.199,0.049,0.098,0.000:
0000
0000
0000
0000
,
0000
0000
0000
0000
,
0000
0000
0000
0000
,
0000
0000
0000
0000
,
0000
0000
0000
0000
,
0002
0000
0000
0000
,
0023
0000
0000
0000
,
0230
0000
0000
0000
,
2300
0000
0001
3001
,
0100
0010
0100
0001
,
1000
0000
0100
0000
0001
0100
1000
0000
,
0010
0000
0100
0000
1000
0100
0001
0000
,
0100
0000
1000
0100
1000
0000
0000
0000
,
0100
0010
0100
1000
,
0001
0000
0100
0000
1000
0100
0001
0000
,
0010
0000
0100
0000
0001
0100
1000
0000
,
0100
0000
0001
0100
0001
0000
0000
0000
,
2000
3010
0002
0103
,
1000
0100
0010
0000
0100
0010
0001
0000
,
0100
0000
0010
0010
,
1000
0100
1000
0100
,
0002
0013
2000
3100
,
0001
0100
0010
0000
0100
0010
1000
0000
,
0100
0000
0010
0010
,
0001
0000
0000
0000
,
1000
0000
0100
0010
0001
0000
0100
0000
,
0010
0000
1000
0000
0010
0100
0001
0000
,
1000
2100
0001
3001
,
0010
1020
0100
0130
,
0001
0000
0100
0010
1000
0000
0100
0000
,
0010
0000
0001
0000
1000
0100
0010
0000
,
0100
1200
0010
0310
,
0001
0201
0010
0310
,
1000
0100
0010
0001
,
1000
0010
0001
0010
,
1000
0010
0100
0001
,
0010
0000
0000
0000
,
0100
0010
0100
1000
,
0001
0000
0100
0000
1000
0100
0001
0000
,
0010
0000
0100
0000
0001
0100
1000
0000
,
0100
0000
0001
0100
0001
0000
0000
0000
,
0100
0100
0010
0000
0100
0000
0001
0000
,
0100
0000
0010
0000
0010
1000
0100
0000
,
0001
0000
0010
0000
0100
0010
1000
0000
,
0100
0011
1000
0110
,
0002
0013
2000
3100
,
0001
0100
0010
0000
0100
0010
1000
0000
,
0100
0000
0010
0010
,
0001
0100
0001
0100
,
2000
3010
0002
0103
,
1000
0100
0010
0000
0100
0010
0001
0000
,
0100
0000
0010
0010
,
1000
0000
0000
0000
,
0001
0000
0100
0010
1000
0010
0100
0000
,
0010
0000
1000
0000
0001
0010
0001
0000
,
0100
0102
0010
0013
,
1000
0120
0001
0031
,
1000
0000
0100
0010
0001
0000
0100
0000
,
0010
0000
1000
0000
0001
0100
0010
0000
,
0100
0201
0010
0310
,
1000
1200
0010
0310
,
0002
0010
0000
1000
,
0100
0000
1000
1003
,
0100
0010
0001
0000
0100
0010
1000
0000
,
0100
0000
0100
0010
0001
0000
1001
0000
,
2000
0010
0000
0001
,
0100
0000
0001
3001
,
0100
0010
1000
0000
0100
0010
0001
0000
,
1000
0001
1000
0000
,
;

//---------------dance-single - ----------------
#NOTES:
     dance-single:
     :
     Hard:
     11:
     0.217,0.215,0.058,0.090,0.000:
0000
0000
0000
0000
,
0000
0000
0000
0000
,
0000
0000
0000
0000
,
0000
0000
0000
0000
,
0000
0000
0000
0000
,
2000
0000
0000
0000
,
3020
0000
0000
0000
,
0230
0000
0000
0000
,
0302
0000
1000
1003
,
0001
0100
0001
0000
0000
0100
0001
0000
,
1000
0000
0001
0000
1000
0100
0001
0000
,
1000
0000
0001
0000
0100
1000
0001
0000
,
0100
1000
0001
0000
0010
1000
0001
0000
,
1000
0100
1000
0000
0000
0100
1000
0000
,
0001
0000
1000
0000
0001
0100
1000
0000
,
0001
0000
1000
0000
0100
0001
1000
0000
,
0100
0001
1000
0000
0010
0001
1000
0000
,
0002
0100
0023
1000
,
0031
0100
0010
0100
0001
0000
0110
0000
,
1000
0000
0000
0000
0100
0010
0100
0000
,
1000
0000
1000
0000
0100
0000
0001
0100
,
2000
0100
3020
0001
,
1030
0100
0010
0100
1000
0000
0110
0000
,
0001
0000
0000
0000
0100
0010
0100
0000
,
0010
0000
0000
0000
,
1000
0000
0100
0010
0100
0000
1010
0000
,
0001
0100
0001
0000
0010
1000
0010
0000
,
0001
0100
0010
2000
0100
0000
3100
0000
,
0010
1000
0100
0020
0100
0000
0130
0000
,
0001
0000
0100
0010
0100
0000
0011
0000
,
1000
0010
1000
0000
0010
0100
0010
0000
,
1000
0100
0010
0200
1000
0000
1300
0000
,
0010
0001
0100
0001
0010
0000
0101
0000
,
0001
0000
0001
0000
0001
0100
0010
1000
,
0100
0000
0100
0000
0100
1000
0100
0010
,
0001
1000
0001
1000
,
0001
0000
0000
0000
,
0001
0100
0001
0000
0000
0100
0001
0000
,
1000
0000
0001
0000
1000
0100
0001
0000
,
1000
0000
0001
0000
0100
1000
0001
0000
,
0100
1000
0001
0000
0010
1000
0001
0000
,
1000
0100
1000
0000
0010
0100
1000
0000
,
0001
0010
1000
0000
0001
0100
1000
0000
,
0001
0010
1000
0000
0100
0001
1000
0000
,
0100
0001
1000
0100
0010
0001
1000
0000
,
0002
0100
0023
1000
,
0031
0100
0010
0100
0001
0000
0110
0000
,
1000
0000
0000
0000
0100
0010
0100
0000
,
1000
0000
1000
0000
0100
0000
0001
0100
,
2000
0100
3020
0001
,
1030
0100
0010
0100
1000
0000
0110
0000
,
0001
0000
0000
0000
0100
0010
0100
0000
,
0010
0000
0000
0000
,
1000
0000
0100
0001
0100
0000
1001
0000
,
0001
0010
0001
0100
1000
0000
0100
0000
,
0001
0100
0010
2000
0100
0000
3100
0000
,
0010
1000
0100
0020
0100
0000
0130
0000
,
0001
0000
0100
0010
0100
0000
0011
0000
,
1000
0010
1000
0000
0010
0100
0010
0000
,
1000
0100
0010
0200
1000
0000
1300
0000
,
0010
0001
0100
0001
0010
0000
0101
0000
,
1020
0000
0100
0001
,
1000
0100
0130
0000
,
0010
1000
0100
0010
0000
1000
0010
0001
,
0000
1000
0100
0001
0100
0000
1100
0000
,
0021
0000
0100
1000
,
0001
0100
0130
0000
,
0010
0001
0100
0010
0000
0001
0010
1000
,
0001
0010
0100
1000
0001
0000
0000
0000
,
;

//---------------dance-double - ----------------
#NOTES:
     dance-double:
     :
     Easy:
     4:
     0.126,0.137,0.013,0.072,0.000:
00000000
00000000
00000000
00000000
,
00000000
00000000
00000000
00000000
,
00000000
00000000
00000000
00000000
,
00000000
00000000
00000000
00000000
,
00000000
00000000
00000000
00000000
,
00010000
00000000
01000000
00000000
,
00001000
00000000
00010000
00000000
,
00001000
00000000
00000010
00000000
,
00001000
00000000
00000100
00000000
,
00000010
00000001
00001000
00000000
,
00000100
00000010
00010000
00000000
,
00010000
00000100
00010000
00000000
,
00001000
00010000
01000000
00000000
,
00100000
10000000
00010000
00000000
,
01000000
00100000
00001000
00000000
,
00001000
01000000
00001000
00000000
,
00010000
00001000
00000100
00000000
,
00000002
00000003
00002000
00003000
,
00000200
00001000
00001300
00000000
,
00010000
00001000
00100000
00000000
,
00100000
01000000
10010000
00000000
,
20000000
30000000
00020000
00030000
,
02000000
00010000
03010000
00000000
,
00001000
00010000
00000010
00000000
,
00000100
00000000
00000000
00000000
,
00000001
00000100
00000001
00000100
,
00001000
00010000
00010000
00000000
,
00001000
00010000
00100000
00000000
,
00010000
00100000
10000000
00000000
,
10000000
01000000
10000000
01000000
,
00010000
00001000
00001000
00000000
,
00010000
00001000
00000010
00000000
,
00001000
00000010
00000001
00000000
,
00000010
00000000
00000010
00001000
,
00010000
00001000
01000000
00000000
,
00100000
00000000
00010000
00001000
,
00000100
00000000
00000000
00000000
,
00000100
00000001
00001000
00000000
,
00000010
00000100
00010000
00000000
,
00010000
00000100
00010000
00000000
,
00001000
00010000
01000000
00000000
,
00100000
10000000
00010000
00000000
,
01000000
00100000
00001000
00000000
,
00001000
01000000
00001000
00000000
,
00010000
00001000
00000100
00000000
,
00000002
00000003
00002000
00003000
,
00000200
00001000
00001300
00000000
,
00010000
00001000
00100000
00000000
,
00100000
01000000
10010000
00000000
,
20000000
30000000
00020000
00030000
,
02000000
00010000
03010000
00000000
,
00001000
00010000
00000010
00000000
,
00000100
00000000
00000000
00000000
,
00000001
00000100
00000001
00000100
,
00001000
00010000
00010000
00000000
,
00001000
00010000
00100000
00000000
,
00010000
00100000
10000000
00000000
,
10000000
01000000
10000000
01000000
,
00010000
00001000
00001000
00000000
,
00010000
00001000
00000010
00000000
,
00001000
00000010
00000001
00000000
,
00002000
00000000
00000100
00000000
,
00003020
00000000
00000100
00000030
,
00001000
00001000
00010000
00010000
,
01000000
00100000
01000000
00000000
,
00020000
00000000
01000000
00000000
,
00230000
00000000
01000000
00300000
,
00010000
00010000
00001000
00001000
,
00000110
00000000
00000000
00000000
,
;

//---------------dance-double - ----------------
#NOTES:
     dance-double:
     :
     Medium:
     6:
     0.184,0.215,0.049,0.112,0.000:
00000000
00000000
00000000
00000000
,
00000000
00000000
00000000
00000000
,
00000000
00000000
00000000
00000000
,
00000000
00000000
00000000
00000000
,
00000000
00000000
00000000
00000000
,
00001000
00000000
00000010
00000000
,
00010000
00000000
00001000
00000000
,
00011000
00000000
01000000
00000000
,
00010000
00000000
00100000
00000000
,
01000000
10000000
00010000
10000000
,
00100000
00000000
01000000
00000000
00001000
00010000
00001000
00000000
,
00010000
00100000
00010000
00001000
,
00000100
00001001
00000100
00000000
,
00000100
00000001
00001000
00000001
,
00000010
00000000
00000100
00000000
00010000
00001000
00010000
00000000
,
00001000
00000010
00001000
00010000
,
01000000
00100000
01000000
01000000
,
20000000
31000000
00020000
00130000
,
00002000
00100000
00013000
00001000
,
00010000
00001000
00000100
00000010
,
00000100
00001010
00000101
00000000
,
00000002
00000103
00002000
00003010
,
00020000
00000010
00031000
00010000
,
00001000
00010000
01000000
00100000
,
01000000
00000000
00000000
00000000
,
20000000
00100000
31000000
00100000
,
00010000
00001000
00010000
00011000
,
00001000
00000000
00000100
00000000
00000001
00000010
00000100
00000000
,
00010000
00000000
00001000
00000000
00000100
00000001
00001000
00000000
,
00000002
00000010
00000103
00000010
,
00001000
00010000
00001000
00011000
,
00010000
00000000
01000000
00000000
10000000
00100000
01000000
00000000
,
00001000
00000000
00010000
00000000
01000000
10000000
00010000
10000000
,
01000000
00100000
01000000
00010000
,
00001000
00010000
00000010
00000000
,
00000100
00001000
00010000
00100000
,
01000000
00000000
00000000
00000000
,
01000000
10000000
00010000
10000000
,
00100000
00000000
01000000
00000000
00001000
00010000
00001000
00000000
,
00010000
00100000
00010000
00001000
,
00000100
00001001
00000100
00000000
,
00000200
00000301
00002000
00003001
,
00000010
00000000
00001000
00000000
00010000
00001000
00100000
00000000
,
00001000
00000010
00001000
00010000
,
02000000
23000000
30020000
01030000
,
20000000
31000000
00020000
00130000
,
00002000
00100000
00013000
00001000
,
00010000
00001000
00000100
00000010
,
00000100
00001010
00000101
00000000
,
00000002
00000103
00002000
00003010
,
00020000
00000010
00031000
00010000
,
00001000
00010000
01000000
00100000
,
01000000
00000000
00000000
00000000
,
20000000
00000000
00010000
00000000
30100000
00000000
01000000
00001000
,
00010000
00001000
00000100
00000110
,
00001000
00000000
00000100
00000000
00000001
00000010
00000100
00000000
,
00010000
00000000
00001000
00000000
00000100
00000001
00001000
00000000
,
00000002
00000010
00000103
00000010
,
00001000
00010000
00001000
00011000
,
00010000
00000000
01000000
00000000
10000000
00100000
01000000
00000000
,
00001000
00000000
00010000
00000000
01000000
10000000
00010000
10000000
,
00020000
00100000
10000000
01000000
,
00230000
00001000
00301000
00000000
,
00001000
00010000
00000100
00000000
00000100
00010000
00001000
00000000
,
00000100
00000010
00001000
00000010
00000100
00000000
00000000
00000000
,
00002000
00000010
00000001
00000100
,
00003020
00010000
00010030
00000000
,
00010000
00001000
01000000
00000000
01000000
00001000
00010000
00000000
,
01000000
01000000
01000000
01000000
,
;

//---------------dance-double - ----------------
#NOTES:
     dance-double:
     :
     Hard:
     8:
     0.217,0.246,0.040,0.103,0.000:
00000000
00000000
00000000
00000000
,
00000000
00000000
00000000
00000000
,
00000000
00000000
00000000
00000000
,
00000000
00000000
00000000
00000000
,
00000000
00000000
00000000
00000000
,
00010000
00000000
01000000
01000000
,
00001000
00000000
00000000
00000000
00010000
00000000
00010000
00001000
,
00000100
00000000
00000010
00000010
,
00001000
00000100
00000100
00000000
,
00000010
00000000
00000001
00000000
00001000
00000100
00000001
00000000
,
00000100
00000000
00000010
00000000
00000001
00000100
00001000
00000000
,
00010000
00001000
00000100
00000000
00001000
00010000
00100000
00000000
,
10000000
00100000
01000000
00001000
00010000
00000000
01000000
00000000
,
00100000
00000000
10000000
00000000
00010000
01000000
10000000
00000000
,
01000000
00000000
00100000
00000000
10000000
01000000
00010000
00000000
,
00001000
00010000
01000000
00000000
00010000
00001000
00000010
00000000
,
00000001
00000010
00000100
00010000
00001000
00000000
00000100
00000000
,
00000002
00000000
00000013
00000100
00002000
00000000
00003100
00010000
,
00002000
00000100
00010000
00003100
,
00001000
00010000
00100000
01000000
,
00100000
01000000
00010000
00100000
00001000
00010000
00100000
00000000
,
20000000
00000000
30100000
01000000
00020000
00000000
01030000
00001000
,
00020000
01000000
00001000
01030000
,
00010000
00001000
00000010
00000100
,
00000010
00000000
00000000
00000000
,
00000002
00000000
00000100
00000000
00000013
00000100
00000010
00000000
,
00000100
00010000
00001000
00000000
00010000
00001000
00010000
00000000
,
01000000
00000000
01100000
00000000
10000000
00010000
00100000
00000000
,
00001000
00010000
01000000
00000000
00100000
00000000
10010000
00000000
,
20000000
00000000
01000000
00000000
30100000
01000000
00100000
00000000
,
00010000
00001000
00010000
00000000
00001000
00010000
00000010
00000000
,
00000100
00000000
00001001
00000000
00000010
00001000
00000100
00000000
,
00010000
00001000
00000100
00000010
00001000
00000000
00000110
00000000
,
00000001
00000100
00000010
00001000
,
00010000
01000000
00100000
10000000
,
00010000
00100000
10000000
00010000
,
00001000
00000000
00000000
00000000
,
00000010
00000000
00000001
00000000
00001000
00000100
00000001
00000000
,
00000100
00000000
00000010
00000000
00000001
00000100
00001000
00000000
,
00010000
00001000
00000100
00000000
00001000
00010000
00100000
00000000
,
10000000
00100000
01000000
00001000
00010000
00000000
01000000
00000000
,
00100000
00000000
11000000
00000000
00010000
01000000
00100000
00000000
,
01000000
00000000
00010000
00000000
10000000
00100000
00010000
00000000
,
00001000
00010000
01000000
00000000
00010000
00001000
00000100
00000000
,
00000002
00000203
00002300
00003100
,
00000002
00000000
00000013
00000100
00002000
00000000
00003100
00010000
,
00002000
00000100
00010000
00003100
,
00001000
00010000
00100000
01000000
,
00100000
01000000
00010000
00100000
00001000
00010000
00100000
00000000
,
20000000
00000000
30100000
01000000
00020000
00000000
01030000
00001000
,
00020000
01000000
00001000
01030000
,
00010000
00001000
00000010
00000100
,
00000010
00000000
00000000
00000000
,
00000002
00000000
00001000
00000000
00000013
00000100
00001000
00000000
,
00000100
00010000
00001000
00000000
00100000
00001000
00010000
00000000
,
01000000
00000000
01100000
00000000
10000000
00010000
00100000
00000000
,
00001000
00010000
01000000
00000000
00100000
00000000
10010000
00000000
,
20000000
00000000
01000000
00000000
30100000
01000000
00100000
00000000
,
00010000
00001000
00010000
00000000
00001000
00010000
00000010
00000000
,
00000100
00000000
00001001
00000000
00000010
00001000
00000100
00000000
,
00010000
00001000
00000100
00000010
00001000
00000000
00000110
00000000
,
00002000
00000100
00000001
00000010
,
00023000
00100000
00130000
00000000
,
00000000
10000000
00100000
01000000
00100000
00010000
00000000
00100000
,
00000000
00100000
10000000
01000000
00100000
00010000
10000000
00000000
,
00020000
01000000
10000000
00100000
,
00032000
00000010
00003010
00000000
,
00000000
00000001
00000010
00000100
00000010
00001000
00000000
00000010
,
00000000
00000010
00000001
00000100
00000010
00000100
00000010
00000000
,
;
