#TITLE:Sky Is The Limit;
#SUBTITLE:Full Song;
#ARTIST:Sota F. feat.Anna;
#TITLETRANSLIT:;
#SUBTITLETRANSLIT:;
#ARTISTTRANSLIT:;
#CREDIT:;
#BANNER:Sky Is The Limit (Full Song).png;
#BACKGROUND:Sky Is The Limit (Full Song)-bg.png;
#LYRICSPATH:;
#CDTITLE:./CDTITLES/DanceDanceRevolution II.png;
#MUSIC:Sky Is The Limit (Full Song).ogg;
#OFFSET:0.000;
#SAMPLESTART:287.980;
#SAMPLELENGTH:15.000;
#SELECTABLE:YES;
#DISPLAYBPM:150.000;
#BPMS:0.000=150.000,4.000=150.000;
#STOPS:;
#BGCHANGES:;

//---------------dance-single - ----------------
#NOTES:
     dance-single:
     :
     Beginner:
     2:
     0.117,0.182,0.054,0.000,0.000:
0000
0000
0000
0000
,
0000
0000
0000
0000
,
0000
0000
0000
0000
,
0000
0000
0000
0000
,
0000
0000
0000
0000
,
0000
0000
0000
0000
,
0000
0000
0000
0000
,
0000
0000
0000
0000
,
0000
0000
0000
0000
,
0001
0000
0000
0000
,
0001
0000
0000
0000
,
0010
0000
0000
0000
,
0010
0000
0000
0000
,
1000
0000
0000
0000
,
1000
0000
0000
0000
,
0010
0000
0000
0000
,
0010
0000
0000
0000
,
1000
0000
0000
0000
,
1000
0000
0000
0000
,
0010
0000
0000
0000
,
0010
0000
0000
0000
,
0001
0000
0000
0000
,
0001
0000
0000
0000
,
0010
0000
0000
0000
,
0010
0000
0000
0000
,
1000
0000
1000
0000
,
0001
0000
0000
0000
,
0010
0000
0100
0000
,
0010
0000
0000
0000
,
1000
0000
1000
0000
,
0001
0000
0000
0000
,
0010
0000
0100
0000
,
0010
0000
0000
0000
,
0001
0000
0001
0000
,
1000
0000
0000
0000
,
0010
0000
0100
0000
,
0010
0000
0000
0000
,
0001
0000
0001
0000
,
1000
0000
0000
0000
,
0010
0000
0100
0000
,
0010
0000
0000
0000
,
1000
0000
0010
0000
,
1000
0000
0000
0000
,
0100
0000
0010
0000
,
0100
0000
0000
0000
,
0001
0000
0010
0000
,
0001
0000
0000
0000
,
0100
0000
0010
0000
,
0100
0100
0100
0100
,
0100
0000
0000
0000
,
0000
0000
0000
0000
,
0000
0000
0000
0000
,
0001
0000
0000
0000
,
0000
0000
0000
0000
,
0000
0000
0000
0000
,
1000
0000
0000
0000
,
0000
0000
0000
0000
,
0010
0000
0000
0000
,
0000
0000
0000
0000
,
0001
0000
0000
0000
,
0000
0000
0000
0000
,
1000
0000
0000
0000
,
0000
0000
0000
0000
,
0001
0000
0000
0000
,
1000
0000
0000
0000
,
0010
0000
0000
0000
,
0010
0000
0000
0000
,
0010
0000
0000
0000
,
0010
0000
0000
0000
,
0100
0000
0000
0000
,
0100
0000
0000
0000
,
0100
0000
0000
0000
,
0100
0000
0000
0000
,
0001
0000
0001
0000
,
1000
0000
1000
0000
,
0001
0000
0001
0000
,
1000
0000
1000
0000
,
0010
0000
0000
0000
,
0001
0000
0000
0000
,
1000
0000
0000
0000
,
0100
0000
0000
0000
,
0010
0000
0000
0000
,
0001
0000
0000
0000
,
0100
0000
0000
0000
,
0010
0000
0000
0000
,
1000
0000
0000
0000
,
0001
0000
0000
0000
,
0100
0000
0000
0000
,
1001
0000
0000
0000
,
0000
0010
0000
0000
,
0000
0010
0000
0000
,
0000
0100
0000
0000
,
0000
0100
0000
0000
,
0000
0001
0000
0000
,
0000
0001
0000
0000
,
0000
1000
0000
0000
,
0000
1000
0000
0000
,
0010
0010
0000
0000
,
0010
0010
0000
0000
,
0010
0010
0000
0000
,
0010
0010
0000
0000
,
0100
0100
0000
0000
,
0100
0100
0000
0000
,
0100
0100
0000
0000
,
0100
0100
0000
0000
,
1000
0000
0000
0000
,
0000
0000
0000
0000
,
0001
0000
0000
0000
,
0000
0000
0000
0000
,
1000
0000
0000
0000
,
0000
0000
0000
0000
,
0001
0000
0000
0000
,
1001
0000
0000
0000
,
0010
0000
0010
0000
,
0100
0000
0100
0000
,
0001
0000
0000
0000
,
1000
0000
0000
0000
,
0001
0000
0001
0000
,
1000
0000
1000
0000
,
0010
0000
0000
0000
,
0100
0000
0000
0000
,
0010
0000
0010
0000
,
0100
0100
0100
0000
,
0010
0000
0000
0000
,
0100
0000
0000
0000
,
0001
0000
0001
0000
,
1000
1000
1000
0000
,
0001
0000
0000
0000
,
1000
0000
0000
0000
,
0010
0000
0010
0000
,
0010
0000
0000
0000
,
1000
0000
1000
0000
,
1000
0000
0000
0000
,
0001
0000
0001
0000
,
0001
0000
0000
0000
,
0100
0000
0100
0000
,
0100
0000
0000
0000
,
0010
0000
0010
0000
,
0010
0000
0000
0000
,
1000
0000
1000
0000
,
1000
0000
0000
0000
,
0001
0000
0001
0000
,
0001
0000
0000
0000
,
0100
0000
0100
0000
,
0100
0000
0000
0000
,
1001
0000
0000
0000
,
1001
0000
0000
0000
,
1001
0000
0000
0000
,
1001
0000
0000
0000
,
1001
0000
0000
0000
,
1001
0000
0000
0000
,
1001
0000
0000
0000
,
1001
0000
0000
0000
,
0000
0000
0000
0000
,
1000
0000
1000
0000
,
1000
1000
1000
0000
,
0001
0000
0001
0000
,
0001
0001
0001
0000
,
1000
0000
1000
0000
,
1000
1000
1000
0000
,
0001
0000
0001
0000
,
0001
0001
0001
0000
,
1000
0000
0001
0000
,
1000
0000
0001
0000
,
0100
0000
0000
0000
,
0100
0000
0000
0000
,
0001
0000
1000
0000
,
0001
0000
1000
0000
,
0100
0000
0000
0000
,
0100
0000
0000
0000
,
1000
0000
0001
0000
,
1000
0000
0001
0000
,
0100
0000
0000
0000
,
0100
0000
0000
0000
,
0001
0000
1000
0000
,
0001
0000
1000
0000
,
0100
0000
0000
0000
,
0100
0000
0000
0000
,
0000
0000
0000
0000
,
0000
0000
0000
0000
,
0010
0000
0010
0000
,
0100
0000
0100
0000
,
0001
0000
0000
0000
,
1000
0000
0000
0000
,
0001
0000
0001
0000
,
1000
0000
1000
0000
,
0010
0000
0000
0000
,
0100
0000
0000
0000
,
0010
0000
0010
0000
,
0100
0100
0100
0000
,
0010
0000
0000
0000
,
0100
0000
0000
0000
,
0001
0000
0001
0000
,
1000
1000
1000
0000
,
0001
0000
0000
0000
,
1000
0000
0000
0000
,
1001
0000
0000
0000
,
1001
0000
0000
0000
,
1001
0000
0000
0000
,
1001
0000
0000
0000
,
1001
0000
0000
0000
,
1001
0000
0000
0000
,
1001
0000
0000
0000
,
1001
0000
0000
0000
,
;

//---------------dance-single - ----------------
#NOTES:
     dance-single:
     :
     Easy:
     5:
     0.261,0.305,0.054,0.266,0.000:
0000
0000
0000
0000
,
0000
0000
0000
0000
,
0000
0000
0000
0000
,
0000
0000
0000
0000
,
0000
0000
0000
0000
,
0000
0000
0000
0000
,
0000
0000
0000
0000
,
0000
0000
0000
0000
,
0000
0000
0000
0000
,
1000
0000
0100
0000
,
1000
0100
0100
0000
,
0002
0003
2000
3000
,
0002
0003
2000
3000
,
0001
0000
0100
0000
,
0001
0000
0100
0100
,
0002
0003
2000
3000
,
0002
0003
2000
3000
,
0001
0000
0010
0000
,
0001
0100
0010
0000
,
0002
0003
0200
0300
,
2000
3000
0020
0030
,
1000
0000
0010
0000
,
1000
0100
0010
0000
,
2000
3000
0200
0300
,
0002
0003
0020
0030
,
0001
0000
1000
0000
,
0010
1000
1000
0000
,
0020
0030
0200
0300
,
0020
0030
0200
0300
,
1000
0000
0001
0000
,
0010
0001
0001
0000
,
0020
0030
0200
0300
,
0020
0030
0200
0300
,
0001
0001
1000
0000
,
0010
0010
1000
0000
,
0020
0030
2000
3000
,
0020
0030
2000
3000
,
1000
1000
0001
0000
,
0010
0010
0001
0000
,
0020
0030
0002
0003
,
0020
0030
0002
0003
,
0001
0001
1000
1000
,
0010
0010
1000
1000
,
0200
0300
2000
3000
,
0002
0003
2000
3000
,
1000
1000
0001
0001
,
0010
0010
0001
0001
,
0100
0000
0010
0000
,
1000
0001
0100
0010
,
2000
0000
0000
0000
,
0000
0000
0000
0000
,
0000
0000
0000
0000
,
0000
0000
0000
3000
,
0002
0000
0000
0000
,
0000
0000
0000
0000
,
0000
0000
0000
0000
,
0000
0000
0000
0003
,
0020
0000
0000
0000
,
0000
0000
0000
0000
,
0000
0000
0000
0000
,
0000
0000
0000
0030
,
0200
0000
0000
0000
,
0000
0000
0000
0300
,
2000
3000
0020
0030
,
0200
0300
0002
0003
,
2000
0000
0000
3000
,
0020
0000
0000
0030
,
0002
0000
0000
0003
,
0200
0000
0000
0300
,
2000
0000
0000
3000
,
0020
0000
0000
0030
,
0002
0000
0000
0003
,
0200
0000
0000
0300
,
0001
0000
0001
0000
,
1000
0000
1000
0000
,
0010
0000
0010
0000
,
0100
0000
0100
0000
,
0020
0000
0230
0000
,
0302
0000
2003
0000
,
3001
0000
1001
0000
,
0010
0100
0010
0100
,
0000
0001
0001
1000
,
1000
0001
1000
1000
,
0000
0010
0100
0010
,
0100
0100
0010
0010
,
0000
1000
1000
0001
,
0001
1000
0001
1000
,
0000
0010
0100
0010
,
0200
0300
0000
1001
,
0000
1000
0100
1000
,
0100
0100
0200
0300
,
0000
0001
0010
0001
,
0010
0010
0020
0030
,
0000
0100
0001
0100
,
0001
0001
0002
0003
,
0000
0010
1000
0010
,
1001
1001
1001
0000
,
0010
0000
0100
0000
,
0010
0100
0010
0100
,
0001
0000
1000
0000
,
0001
1000
0001
1000
,
0020
0030
0200
0300
,
0010
0100
0010
0100
,
0002
0003
2000
3000
,
0001
1000
0001
1000
,
1001
0000
0000
0000
,
0010
0000
0000
0000
,
0100
0000
0000
0000
,
0010
0000
0000
0000
,
0010
0000
0100
0000
,
0010
0000
0100
0000
,
0001
0000
1000
0000
,
0001
1000
0001
1001
,
0010
0000
0010
0000
,
0001
1000
0001
0100
,
0010
1000
0010
1000
,
0100
1000
0100
0000
,
0010
0000
0010
1000
,
0001
1000
0100
0010
,
0001
0010
0001
0100
,
0001
0100
0110
0000
,
0001
0010
0100
1000
,
0010
0100
1001
0000
,
1000
1000
0001
0001
,
0010
0100
0010
0000
,
1000
0010
0100
0001
,
0010
0100
1001
0000
,
0001
0001
1000
1000
,
0010
0100
0010
0110
,
0100
0000
0001
1000
,
0001
0000
0100
0010
,
0200
0300
0020
0030
,
2000
3000
0200
0300
,
0100
0000
1000
0010
,
1000
0000
0100
0001
,
0200
0300
0002
0003
,
0020
0030
0200
0300
,
0100
0000
0001
1000
,
0001
0000
0100
0010
,
0200
0300
0020
0030
,
2000
3000
0200
0300
,
0100
0000
1000
0010
,
1000
0000
0100
0001
,
0200
0300
0002
0003
,
0020
0030
0200
0300
,
1000
1000
0010
0010
,
0001
0001
0100
0100
,
1000
0010
0001
0100
,
0001
0010
1000
0000
,
1000
1000
0010
0010
,
0001
0001
0100
0100
,
1000
0010
0001
0100
,
0001
0010
1000
0110
,
0000
0000
0000
0000
,
1000
1000
1000
1000
,
1000
1000
1000
1000
,
0100
0100
0100
0100
,
0100
0100
0100
0000
,
0001
0001
0001
0001
,
0001
0001
0001
0001
,
0100
0100
0100
0100
,
0100
0100
0100
0000
,
0001
0000
0100
1000
,
0100
0000
0010
0001
,
0020
0000
0130
0000
,
2000
0000
3100
0000
,
1000
0000
0100
0001
,
0100
0000
0010
1000
,
0020
0000
0130
0000
,
0002
0000
0103
0000
,
1000
0000
0100
0001
,
0100
0000
0010
1000
,
0020
0000
0130
0000
,
0002
0000
0103
0000
,
0001
0000
0100
1000
,
0100
0000
0010
0001
,
0020
0000
0130
0000
,
2002
0000
0000
0000
,
3003
0000
0000
0000
,
0000
0000
0000
0000
,
0010
0000
0010
0000
,
0001
1000
0001
0100
,
0010
1000
0010
1000
,
0100
1000
0100
0000
,
0010
0000
0010
1000
,
0001
1000
0100
0010
,
0001
0010
0001
0100
,
0001
0100
0110
0000
,
0001
0010
0100
1000
,
0010
0100
1001
0000
,
1000
1000
0001
0001
,
0010
0100
0010
0000
,
1000
0010
0100
0001
,
0010
0100
1001
0000
,
0001
0001
1000
1000
,
0010
0100
0010
0110
,
1000
1000
0010
0010
,
0001
0001
0100
0100
,
1000
0010
0001
0100
,
0001
0010
1000
0000
,
1000
1000
0010
0010
,
0001
0001
0100
0100
,
1000
0010
0001
0100
,
0001
0010
1000
0110
,
;

//---------------dance-single - ----------------
#NOTES:
     dance-single:
     :
     Medium:
     9:
     0.419,0.488,0.266,0.164,0.018:
0000
0000
0000
0000
,
0000
0000
0000
0000
,
0000
0000
0000
0000
,
0000
0000
0000
0000
,
0000
0000
0000
0000
,
0000
0000
0000
0000
,
0000
0000
0000
0000
,
0000
0000
0000
0000
,
0000
0000
0000
0000
,
1000
1000
0100
0010
,
0100
0100
0001
0010
,
0001
0000
0001
0000
0100
0001
1000
0000
,
0001
0000
0001
0000
0100
0001
1000
0000
,
0001
0001
0100
0010
,
0100
0100
1000
0010
,
1000
0000
1000
0000
0100
1000
0001
0000
,
1000
0000
1000
0000
0100
1000
0001
0000
,
1001
1000
0100
0010
,
0100
0101
0001
0010
,
0001
1000
0001
0000
0100
0001
1000
0000
,
0001
1000
0001
0000
0100
0001
1000
0000
,
1001
0001
0100
0010
,
0100
1100
1000
0010
,
1000
0001
1000
0000
0100
1000
0001
0000
,
1000
0001
1000
0000
0100
1000
0001
0000
,
0100
0010
0000
0010
,
1000
0010
0000
0010
,
1000
0100
1000
0000
0100
0000
0100
0000
,
0010
0001
0010
0000
0001
0000
0001
0000
,
0100
0010
0000
0010
,
0001
0010
0000
0010
,
0001
0100
0001
0000
0100
0000
0100
0000
,
0010
1000
0010
0000
1000
0000
1000
0000
,
0100
0010
0000
0010
,
1000
0010
0000
0010
,
1000
0100
1000
0000
0100
0000
0100
0000
,
0010
0001
0010
0000
0001
0000
0001
0000
,
0100
0010
0000
0010
,
0001
0010
0000
0010
,
0001
0100
0001
0000
0100
0000
0100
0000
,
0010
1000
0010
0000
1000
0000
1001
0000
,
0200
0010
0000
0010
,
1000
0010
0000
0310
,
1000
0100
2000
0000
0100
0000
3100
0000
,
0010
0001
0020
0000
0001
0000
0031
0000
,
0200
0010
0000
0010
,
0001
0010
0000
0310
,
0101
0100
1010
0100
,
0010
0100
1001
0110
,
2000
0000
0000
0000
,
0000
0000
0000
0000
,
0020
0000
0000
0000
,
0000
0000
3000
0000
,
0200
0000
0000
0000
,
0000
0000
0030
0000
,
0002
0000
0000
0000
,
0000
0000
0000
0303
,
0020
0000
0000
0000
,
0000
0000
0000
0000
,
2000
0000
0000
0000
,
0000
0000
0030
0000
,
0002
0000
0000
0000
,
0000
0000
3000
0000
,
2003
0000
0020
3000
,
0200
0030
0002
0300
,
0103
0000
0100
0100
,
0001
0000
0001
0001
,
0010
0000
0010
0010
,
1000
0000
1000
0100
,
0100
0000
0100
0100
,
1000
0000
1000
1000
,
0010
0000
0010
0010
,
0001
0000
0001
0100
,
0200
0310
0100
0100
,
0002
1003
0001
0001
,
0020
0130
0010
0010
,
2000
3001
1000
0100
,
2000
3100
0002
0103
,
2000
3010
0002
0013
,
2100
3001
0102
1003
,
0010
0100
1001
0110
,
1000
0000
0010
0000
1000
0100
1000
0000
,
0001
0000
0100
0000
0001
0010
0001
0000
,
0010
0000
0001
0000
1000
0100
1000
0001
,
0000
0100
0000
0010
0100
0000
1001
0000
,
0001
0000
0100
0000
0001
0010
0001
0000
,
1000
0000
0010
0000
1000
0100
1000
0000
,
0100
0000
1000
0000
0001
0010
0001
1000
,
0000
0010
0000
0100
0010
0000
1001
0000
,
1000
0000
1100
0000
0001
1000
0100
0000
,
0001
0000
0101
0000
1000
0001
0100
0000
,
1000
0000
1010
0000
0001
1000
0010
0000
,
0001
0000
0011
0000
1000
0001
0010
0000
,
0001
0000
0011
0000
1000
0001
0010
0000
,
1000
0000
1010
0000
0001
1000
0010
0000
,
0001
0000
0101
0000
1000
0001
0100
0010
,
0000
0110
0000
2002
0000
0000
3003
0000
,
1000
0000
1000
0000
1000
0100
1000
0010
,
0100
0000
0100
0000
0100
0010
1000
0100
,
0010
0000
0010
0000
0010
0100
1000
0010
,
0100
0001
0010
0000
1000
0000
1001
0000
,
0001
0000
0001
0000
0001
0010
0001
0100
,
0010
0000
0010
0000
0010
0100
0001
0010
,
0100
0000
0100
0000
0100
0010
0001
0100
,
0010
1000
0100
1000
0001
0010
1001
0000
,
0210
0000
0010
0000
,
0320
0000
0100
0000
,
2030
3100
0002
0013
,
2000
3010
0002
0103
,
2000
3200
0302
0203
,
2300
3200
0320
0032
,
1003
0010
1000
0000
0001
0010
0001
0000
,
0001
0100
0010
1000
0010
1000
0110
0000
,
1001
0000
0100
0010
1000
0000
0100
0010
,
0001
0000
0100
0010
1000
0000
0100
0010
,
0001
1100
0010
0101
,
0010
1100
0010
0101
,
1001
0000
0010
0100
0001
0000
0010
0100
,
1000
0000
0010
0100
0001
0000
0010
0100
,
1000
0011
0100
1010
,
0100
0011
0100
1010
,
0001
0000
0000
0001
0000
0000
0001
0000
0100
0000
0000
0100
0000
0000
0100
0000
,
0010
0000
0000
0010
0000
0000
0010
0000
1000
0000
0000
0000
1000
0000
0100
0000
,
0010
1100
0010
0101
,
0010
1100
0010
0101
,
1000
0000
0000
1000
0000
0000
1000
0000
0100
0000
0000
0100
0000
0000
0100
0000
,
0010
0000
0000
0010
0000
0000
0010
0000
0001
0000
0000
0000
0001
0000
0100
0000
,
0010
0101
0010
1100
,
2002
0000
0000
0000
0003
3001
0100
0010
,
1000
0000
0001
0000
1000
0100
0010
0000
,
0001
0000
1000
0000
0001
0100
0010
0000
,
1000
0000
0100
0000
0010
0001
0100
0000
,
0001
0000
0100
0000
0010
1000
0100
0000
,
2000
0000
3001
0000
1000
0010
0100
0000
,
0002
0000
1003
0000
0001
0010
0100
0000
,
2000
0000
3010
0000
0100
0001
0010
0000
,
0002
0000
0013
0000
0100
1000
0010
0000
,
1000
0000
0001
0000
1000
0100
0010
0000
,
0001
0000
1000
0000
0001
0100
0010
0000
,
1000
0000
0100
0000
0010
0001
0100
0000
,
0001
0000
0100
0000
0010
1000
0100
0000
,
2000
0000
3001
0000
1000
0010
0100
0000
,
0002
0000
1003
0000
0001
0010
0100
0000
,
2000
0000
3010
0000
0100
0001
0010
0000
,
0002
0000
0013
0000
0100
1000
0010
0000
,
1000
0000
0001
0000
1000
1000
0100
0000
,
0001
0000
1000
0000
0001
0001
0100
0000
,
0010
0000
0100
0000
0010
0010
0100
0000
,
0110
0000
1001
0000
0100
1000
0010
0100
,
0001
0000
1000
0000
0001
0001
0100
0000
,
1000
0000
0001
0000
1000
1000
0100
0000
,
0010
0000
0100
0000
0010
0010
0100
0000
,
0110
0000
1001
0000
0100
0001
0010
0200
,
0000
0000
0000
0310
,
1000
1000
1000
1000
,
1000
0000
1000
0000
1000
0100
0010
0001
,
0100
0100
0100
0100
,
0100
0001
0100
0000
0100
1000
0100
0000
,
0001
0001
0001
0001
,
0001
0000
0001
0000
0001
0100
0010
1000
,
0100
0100
0100
0100
,
0100
1000
0100
0000
0100
0001
0100
0000
,
1000
1100
0001
0101
,
1000
0000
0110
0000
1000
0100
0010
0000
,
0001
0101
1000
0100
,
0010
0000
1100
0000
0001
0100
0100
0000
,
0001
0101
1000
1100
,
0001
0000
0110
0000
0001
0100
0010
0000
,
1000
1100
0001
0100
,
0010
0000
0101
0000
1000
0100
0100
0000
,
1000
1100
0001
0101
,
1000
0000
0110
0000
1000
0100
0010
0000
,
0001
0101
1000
0100
,
0010
0000
1100
0000
0001
0100
0100
0000
,
0001
0101
1000
1100
,
0001
0000
0110
0000
0001
0100
0010
0000
,
1000
0000
1100
0000
0001
0000
0100
0010
,
0000
1000
0000
0001
0000
0100
0010
1000
,
0200
0000
0000
0000
,
0000
0000
0000
0310
,
1001
0000
0100
0010
1000
0000
0100
0010
,
0001
0000
0100
0010
1000
0000
0100
0010
,
0001
1100
0010
0101
,
0010
1100
0010
0101
,
1001
0000
0010
0100
0001
0000
0010
0100
,
1000
0000
0010
0100
0001
0000
0010
0100
,
1000
0011
0100
1010
,
0100
0011
0100
1010
,
0001
0000
0000
0001
0000
0000
0001
0000
0100
0000
0000
0100
0000
0000
0100
0000
,
0010
0000
0000
0010
0000
0000
0010
0000
1000
0000
0000
0000
1000
0000
0100
0000
,
0010
1100
0010
0101
,
0010
1100
0010
0101
,
1000
0000
0000
1000
0000
0000
1000
0000
0100
0000
0000
0100
0000
0000
0100
0000
,
0010
0000
0000
0010
0000
0000
0010
0000
0001
0000
0000
0000
0001
0000
0100
0000
,
0010
0101
0010
1100
,
2002
0000
0000
0000
0003
3001
0100
0010
,
1000
0000
0001
0000
1000
1000
0100
0000
,
0001
0000
1000
0000
0001
0001
0100
0000
,
0010
0000
0100
0000
0010
0010
0100
0000
,
0110
0000
1001
0000
0100
1000
0010
0100
,
0001
0000
1000
0000
0001
0001
0100
0000
,
1000
0000
0001
0000
1000
1000
0100
0000
,
0010
0000
0100
0000
0010
0010
0100
0000
,
0110
0000
1001
0000
0100
0001
0010
0100
,
;

//---------------dance-single - ----------------
#NOTES:
     dance-single:
     :
     Hard:
     11:
     0.504,0.518,0.245,0.368,0.115:
0000
0000
0000
0000
,
0000
0000
0000
0000
,
0000
0000
0000
0000
,
0000
0000
0000
0000
,
0000
0000
0000
0000
,
0000
0000
0000
0000
,
0000
0000
0000
0000
,
0000
0000
0000
0000
,
0000
0000
0000
0000
,
1001
1000
0100
0010
,
0100
0101
0001
0010
,
0001
1000
0001
0000
0100
0001
1000
0000
,
0001
1000
0001
0000
0100
0001
1000
0000
,
1001
0001
0100
0010
,
0100
1100
1000
0010
,
1000
0001
1000
0000
0100
1000
0001
0000
,
1000
0001
1000
0000
0100
1000
0001
0000
,
0001
0000
0100
0000
0001
1000
0100
0000
,
0010
0001
0010
0100
1000
0001
0100
0000
,
0010
0000
0000
0000
0010
0000
0000
0000
0100
0000
0001
0000
1000
0100
0000
0000
,
0010
0000
0001
0000
1000
0000
0000
0000
0100
0000
0010
0000
0001
0100
0000
0010
,
1000
0000
0100
0000
1000
0001
0100
0000
,
0010
1000
0010
0100
0001
1000
0100
0000
,
0010
0000
0000
0000
0010
0000
0000
0000
0100
0000
1000
0000
0001
0100
0000
0000
,
0010
0000
1000
0000
0001
0000
0000
0000
0100
0000
0010
0000
1000
0001
0000
0000
,
0100
0000
0010
1000
0100
0000
0010
0001
,
0100
0000
1000
0001
0100
0000
0010
0000
,
2000
0000
3100
0000
0010
0001
0010
0000
,
0020
0000
0031
0000
0100
1000
0100
0000
,
0100
0000
0010
0001
0100
0000
0010
1000
,
0100
0000
0001
1000
0100
0000
0010
0000
,
0002
0000
0103
0000
0010
1000
0010
0000
,
0020
1030
0100
0000
,
0100
0000
0010
0001
0100
0000
0010
1000
,
0100
0000
0001
1000
0100
0000
0010
0000
,
0002
0000
0103
0000
0010
1000
0010
0000
,
0020
0000
1030
0000
0100
0001
0100
0000
,
0100
0000
0010
1000
0100
0000
0010
0001
,
0100
0000
1000
0001
0100
0000
0010
0000
,
2000
0000
3100
0000
0010
0001
0010
1000
,
0020
0031
0100
1001
,
2000
0000
3100
0010
0001
0010
0100
0000
,
2000
0000
3010
1000
0010
0100
0001
0000
,
0020
0000
0031
1000
0200
0000
1300
0001
,
0020
0000
0031
0100
0002
0000
0103
0000
,
0002
0000
0103
0010
1000
0010
0100
0000
,
0002
0000
0013
0001
0010
0100
1000
0000
,
0002
0000
0000
0000
0000
0000
0103
0010
0200
0000
0000
0000
0000
0000
0310
1000
,
0020
2030
3200
0310
,
2002
0000
0000
0003
,
0020
3000
0230
0000
,
0020
0000
0000
0300
,
0230
0000
0002
0300
,
2000
0000
0000
0000
,
0000
0003
3200
0320
,
0032
0000
0000
0000
,
0200
0003
0020
0300
,
2030
0000
0000
0000
,
0200
3000
0020
0300
,
0002
0000
0000
0030
,
0200
0003
0320
2030
,
3002
0000
0000
0000
,
0000
0000
0023
0000
,
2000
0030
0200
3000
,
0002
0300
0200
0303
,
1000
0001
1000
0100
,
1000
0010
1000
0100
,
0020
0001
1000
0100
,
0032
0100
1000
0103
,
0001
1000
0001
0100
,
0001
0010
0001
0100
,
0020
1000
0001
0100
,
2030
0100
0001
3100
,
0010
0010
0001
0001
,
1000
1000
0100
0100
,
0001
1000
0010
0001
,
1000
0000
0001
0000
1000
0000
0010
0001
,
0020
0000
0032
2003
,
0002
0000
0000
3003
1001
0000
1000
0100
,
0020
0000
0032
0103
,
0110
1001
0101
1100
,
0010
0000
0101
0000
0001
0010
0100
1000
,
0000
0010
0000
0100
0000
0001
0001
0000
,
0010
0000
1100
0000
1000
0100
0010
0001
,
0000
0100
0000
0010
0000
1000
1000
0001
,
0100
0000
0011
0000
0010
0100
1000
0010
,
0000
1000
0000
0002
0000
1000
1003
0000
,
0010
0000
0101
0000
0010
0100
0001
0010
,
0000
0001
0000
2000
0000
3001
1001
0000
,
0100
0000
1001
0000
1000
0010
0001
0010
,
0000
0100
0000
0010
0100
0000
0110
0000
,
0100
0000
1001
0000
0001
0010
1000
0010
,
0000
0100
0000
0010
0100
0000
1001
0000
,
0100
0000
0110
0000
0010
1000
0100
0001
,
0000
0100
0000
0010
0000
0001
1000
0000
,
0100
0000
1001
0000
0010
0001
0100
1100
,
0000
0101
0000
2002
0000
0000
3003
0000
,
0010
0000
0000
0010
0000
0000
1000
0000
0000
0100
0000
0000
0010
0000
0001
0000
,
0000
0100
0000
0000
0100
0000
0000
0010
0000
0000
1000
0000
0000
0001
1000
0000
,
0100
0000
0000
0100
0000
0000
1000
0000
0000
0010
0000
0000
0100
0000
0001
0000
,
0000
0010
0100
0000
0010
0000
0100
0010
0000
0000
0001
0000
0000
1000
0001
0000
,
0010
0000
0000
0010
0000
0000
0001
0000
0000
0100
0000
0000
0010
0000
1000
0000
,
0000
0000
0100
0000
0000
0100
0000
0010
0000
0000
0001
0000
0000
1000
0001
0000
,
0000
0100
0000
0000
0010
0000
0000
1000
0000
0000
0001
0000
0000
1000
0000
0001
,
0000
1000
0100
0000
1000
0000
0100
0010
0000
0000
0001
0000
0000
1000
0001
0000
,
2001
0001
0001
0001
,
3200
0010
0010
0010
,
0320
0100
0100
0100
,
0032
1000
1000
1000
,
0203
0000
0010
0000
0000
0010
0000
0000
0010
0000
0000
0010
0000
0000
0010
0000
,
0320
0000
1000
0000
0000
1000
0000
0000
1000
0000
0000
1000
0000
0000
1000
0000
,
2030
0000
0100
0000
0000
0100
0000
0000
0100
0000
0000
0100
0000
0000
0100
0000
,
3100
0000
0010
0000
0001
0000
0100
0000
0000
0000
2002
0000
0000
3003
0000
0000
,
0020
0000
1030
0100
0020
0000
0031
0100
,
0020
0000
1030
0001
1001
0000
1000
0001
,
0200
0000
0000
0000
0000
0000
0310
0000
1000
0000
0000
0001
0000
0000
1000
0000
,
0200
0000
0000
0310
0100
0000
1001
0000
,
0200
0000
0301
0010
0200
0000
1300
0010
,
0200
0000
0301
1000
1001
0000
0001
1000
,
0020
0000
0000
0000
0000
0000
0130
0000
0001
0000
0000
1000
0000
0000
0001
0000
,
0020
0000
0000
0130
0010
0000
1001
0000
,
2010
0000
0000
0000
3001
0000
0100
0000
0010
0000
0000
1000
0000
0000
0100
0000
,
0001
0000
0000
0100
0000
0000
1000
0000
1100
0000
0000
0000
0101
0000
0100
0000
,
2000
0000
0000
0000
0000
0000
3001
0000
0010
0000
0000
1000
0000
0000
0010
0000
,
0002
0000
0000
1003
1100
0000
0000
0000
,
0102
0000
0000
0000
1003
0000
0010
0000
0100
0000
0000
0001
0000
0000
0010
0000
,
1000
0000
0000
0010
0000
0000
0001
0000
0011
0000
0000
0000
1010
0000
0010
0000
,
0002
0000
0000
0000
0000
0000
1003
0000
0100
0000
0000
0001
0000
0000
0100
0000
,
2000
0000
0000
3000
0110
1000
0001
0100
,
0010
0000
0000
0010
0000
0000
0010
0000
1000
0000
0100
0000
0001
0000
0100
0000
,
0010
0000
0000
0010
0000
0000
0010
0000
0001
0000
0100
0000
0010
0000
1000
0000
,
0100
0000
0000
0001
0000
0000
0100
0000
1000
0000
0000
0001
0000
0000
0100
0000
,
0010
1000
1100
0000
0010
0001
0101
0000
,
0010
0000
0000
0010
0000
0000
1000
0000
0100
0000
0010
0000
0001
0000
1000
0000
,
0001
0000
0000
0001
0000
0000
0100
0000
0010
0000
1000
0000
0100
0000
0001
0000
,
0100
0000
0000
0010
0000
0000
0001
0000
0100
0000
0000
1000
0000
0000
0001
0000
,
0010
1000
0100
0010
0001
0000
0110
0000
,
0010
0000
0000
0010
0000
0000
0010
0000
0001
0000
0100
0000
1000
0000
0100
0000
,
0010
0000
0000
0010
0000
0000
0010
0000
1000
0000
0100
0000
0010
0000
0001
0000
,
0100
0000
0000
1000
0000
0000
0100
0000
0001
0000
0000
1000
0000
0000
0100
0000
,
0010
0001
0101
0000
0010
1000
1100
0000
,
0010
0000
0000
0010
0000
0000
0001
0000
0100
0000
0010
0000
1000
0000
0001
0000
,
1000
0000
0000
1000
0000
0000
0100
0000
0010
0000
0001
0000
0100
0000
1000
0000
,
0100
0000
0000
0010
0000
0000
1000
0000
0100
0000
0000
0001
0000
0000
1000
0000
,
0010
0001
0100
0010
1000
0000
0110
0000
,
0010
0000
1100
0000
0010
0001
0010
0100
,
1000
0000
0101
0000
0100
1000
0010
0100
,
0001
0000
0110
0000
0001
0100
1000
0100
,
0002
0000
1003
0100
0020
0000
0031
1000
,
0010
0000
1100
0000
0010
0001
0010
0100
,
1000
0000
0101
0000
0100
1000
0010
0100
,
0001
0000
0110
0000
0001
0100
1000
0100
,
0002
0000
0000
0000
1003
0010
1000
0200
0000
0000
0000
0000
1300
0001
0000
0200
,
0000
0000
0000
0310
,
0001
0001
0001
0001
,
0001
0000
0001
0000
0001
0100
0010
1000
,
0100
0100
0100
0100
,
0100
1000
0100
0000
0100
0001
0100
0000
,
1000
1000
1000
1000
,
1000
0000
1000
0000
1000
0100
0010
0001
,
0100
0100
0100
0100
,
0100
0001
0100
0000
0100
1000
0100
0000
,
0001
0000
0110
0000
1000
0001
0100
1000
,
0001
0000
0110
0000
1000
0100
0010
0001
,
0200
0000
0000
0301
0200
0000
0010
0310
,
0200
0000
0000
1300
0100
0000
1001
0000
,
1000
0000
0110
0000
0001
1000
0100
0001
,
1000
0000
0110
0000
0001
0100
0010
1000
,
0020
0000
0000
0000
0000
0000
1030
0000
0020
0000
0000
0100
0000
0000
0130
0000
,
0020
0000
0130
1001
,
1000
0000
0110
0000
0001
1000
0100
0001
,
1000
0000
0110
0000
0001
0100
0010
1000
,
0200
0000
0000
1300
0200
0000
0010
0310
,
0200
0000
0000
0301
0100
0000
1001
0000
,
0001
0000
0110
0000
1000
0001
0100
1000
,
0001
0000
0110
0000
1000
0100
0010
0001
,
0020
0000
0000
0000
0000
0000
0031
0000
0020
0000
0000
0100
0000
0000
0130
0000
,
0000
1100
0000
0010
0000
0101
1000
0001
,
0200
0000
0000
0000
,
0000
0000
0000
0310
,
0020
0000
1030
0100
0020
0000
0031
0100
,
0020
0000
1030
0001
1001
0000
1000
0001
,
0200
0000
0000
0000
0000
0000
0310
0000
1000
0000
0000
0001
0000
0000
1000
0000
,
0200
0000
0000
0310
0100
0000
1001
0000
,
0200
0000
0301
0010
0200
0000
1300
0010
,
0200
0000
0301
1000
1001
0000
0001
1000
,
0020
0000
0000
0000
0000
0000
0130
0000
0001
0000
0000
1000
0000
0000
0001
0000
,
0020
0000
0000
0130
0010
0000
1001
0000
,
2010
0000
0000
0000
3001
0000
0100
0000
0010
0000
0000
1000
0000
0000
0100
0000
,
0001
0000
0000
0100
0000
0000
1000
0000
1100
0000
0000
0000
0101
0000
0100
0000
,
2000
0000
0000
0000
0000
0000
3001
0000
0010
0000
0000
1000
0000
0000
0010
0000
,
0002
0000
0000
1003
1100
0000
0000
0000
,
0102
0000
0000
0000
1003
0000
0010
0000
0100
0000
0000
0001
0000
0000
0010
0000
,
1000
0000
0000
0010
0000
0000
0001
0000
0011
0000
0000
0000
1010
0000
0010
0000
,
0002
0000
0000
0000
0000
0000
1003
0000
0100
0000
0000
0001
0000
0000
0100
0000
,
2000
0000
0000
3000
0110
1000
0001
0100
,
0010
0000
1100
0000
0010
0001
0010
0100
,
1000
0000
0101
0000
0100
1000
0010
0100
,
0001
0000
0110
0000
0001
0100
1000
0100
,
0002
0000
1003
0100
0020
0000
0031
1000
,
0010
0000
1100
0000
0010
0001
0010
0100
,
1000
0000
0101
0000
0100
1000
0010
0100
,
0001
0000
0110
0000
0001
0100
1000
0100
,
0002
0000
0000
0000
1003
0010
1000
0200
0000
0000
0000
0000
1300
0001
0000
0100
;
