#TITLE:SAY A PRAYER;
#SUBTITLE:Full Song;
#ARTIST:Des-ROW with Maxi Priest;
#TITLETRANSLIT:;
#SUBTITLETRANSLIT:;
#ARTISTTRANSLIT:;
#CREDIT:;
#BANNER:SAY A PRAYER (Full Song).png;
#BACKGROUND:SAY A PRAYER (Full Song)-bg.png;
#LYRICSPATH:;
#CDTITLE:./CDTITLES/DanceDanceRevolution II.png;
#MUSIC:SAY A PRAYER (Full Song).ogg;
#OFFSET:0.000;
#SAMPLESTART:274.580;
#SAMPLELENGTH:15.000;
#SELECTABLE:YES;
#DISPLAYBPM:97.000;
#BPMS:0.000=96.999;
#STOPS:;
#BGCHANGES:;

//---------------dance-single - ----------------
#NOTES:
     dance-single:
     :
     Beginner:
     1:
     0.093,0.134,0.003,0.036,0.000:
0000
0000
0000
0000
,
0000
0000
0000
0000
,
0000
0000
0000
0000
,
0000
0000
0000
0000
,
0000
0000
0000
0000
,
0000
0000
0000
0000
,
0000
0000
0000
0000
,
0000
0000
0000
0000
,
0000
0000
0000
0000
,
1000
0000
0000
0000
,
0100
0000
0000
0000
,
0010
0000
0000
0000
,
0001
0000
0000
0000
,
1000
0000
0000
0000
,
0100
0000
0000
0000
,
0010
0000
0000
0000
,
0001
0000
0000
0000
,
1000
0000
1000
0000
,
0010
0000
0010
0000
,
0100
0000
0100
0000
,
0001
0000
0001
0000
,
1000
0000
1000
0000
,
0010
0000
0010
0000
,
0100
0000
0100
0000
,
0001
0000
0001
0000
,
1000
0000
1000
0000
,
0010
0000
0000
0000
,
0001
0000
0001
0000
,
0010
0000
0000
0000
,
1000
0000
0001
0000
,
1000
0000
0000
0000
,
0001
0000
0100
0000
,
0001
0000
0010
0000
,
0100
0000
1000
0000
,
0100
0000
0000
0000
,
1000
0000
0100
0000
,
1000
0000
0010
0000
,
0100
0000
0001
0000
,
0100
0000
0000
0000
,
0010
0000
0000
0000
,
0010
0000
0000
0000
,
0001
0000
0000
0000
,
0100
0000
0000
0000
,
0010
0000
0000
0000
,
1000
0000
0000
0000
,
0001
0000
0000
0000
,
0100
0000
0000
0000
,
0010
0000
0000
0000
,
1000
0000
0000
0000
,
0002
0000
0003
0000
,
0020
0000
0030
0000
,
0200
0000
0300
0000
,
2000
0000
3000
0000
,
1000
0000
0100
0000
,
1000
0000
0010
0000
,
0100
0000
0001
0000
,
0100
0000
0000
0000
,
0001
0000
0100
0000
,
0001
0000
0010
0000
,
0100
0000
1000
0000
,
0100
0000
0000
0000
,
0010
0000
0000
0000
,
1000
1000
1000
0000
,
0001
0001
0001
0000
,
0010
0010
0010
0000
,
0100
0100
0100
0000
,
1000
1000
1000
0000
,
0001
0001
0001
0000
,
0010
0010
0010
0000
,
0100
0100
0100
0000
,
0001
0000
0000
0000
,
0001
0000
0000
0000
,
0001
0000
0000
0000
,
0001
0000
0000
0000
,
1000
0000
0000
0000
,
1000
0000
0000
0000
,
1000
0000
0000
0000
,
1000
0000
0000
0000
,
0002
0003
0000
0000
,
0200
0300
0000
0000
,
2000
3000
0000
0000
,
0020
0030
0000
0000
,
0002
0003
0000
0000
,
0200
0300
0000
0000
,
2000
3000
0000
0000
,
0020
0030
0000
0000
,
0001
0000
0100
0000
,
0001
0000
0010
0000
,
0100
0000
1000
0000
,
0100
0000
0000
0000
,
1000
0000
0100
0000
,
1000
0000
0010
0000
,
0100
0000
0001
0000
,
0100
0000
0000
0000
,
1000
0000
0100
0000
,
1000
0000
0010
0000
,
0100
0000
0001
0000
,
0100
0000
0000
0000
,
0001
0000
0100
0000
,
0001
0000
0010
0000
,
0100
0000
1000
0000
,
0001
0000
0000
0000
,
1001
0000
0000
0000
,
0010
0010
0010
0000
,
0100
0100
0100
0000
,
1000
1000
1000
0000
,
0001
0001
0001
0000
,
0010
0010
0010
0000
,
0100
0100
0100
0000
,
1000
1000
1000
0000
,
0001
0001
0001
0000
,
1000
1000
1000
0000
,
0001
0001
0001
0000
,
0010
0010
0010
0000
,
0100
0100
0100
0000
,
1000
1000
1000
0000
,
0001
0001
0001
0000
,
0010
0010
0010
0000
,
0100
0100
0100
0000
,
0001
0000
0000
0000
,
0001
0000
0000
0000
,
0001
0000
0000
0000
,
0001
0000
0000
0000
,
1000
0000
0000
0000
,
1000
0000
0000
0000
,
1000
0000
0000
0000
,
1000
0000
0000
0000
,
0100
0000
0000
0000
,
;

//---------------dance-single - ----------------
#NOTES:
     dance-single:
     :
     Easy:
     5:
     0.149,0.172,0.006,0.018,0.000:
0000
0000
0000
0000
,
0000
0000
0000
0000
,
0000
0000
0000
0000
,
0000
0000
0000
0000
,
0000
0000
0000
0000
,
0000
0000
0000
0000
,
0000
0000
0000
0000
,
0000
0000
0000
0000
,
0000
0000
0000
0000
,
0001
0010
0001
0000
,
0001
0100
0001
0000
,
0001
0010
1000
0000
,
0001
0100
1000
0000
,
1000
0010
1000
0000
,
1000
0100
1000
0000
,
1000
0010
0001
0000
,
1000
0100
0001
0000
,
0010
0100
0010
0000
,
0010
0100
1000
0000
,
0010
0100
0001
0000
,
0010
0100
0100
0000
,
0010
0100
0010
0000
,
0010
0100
0001
0000
,
0010
0100
1000
0000
,
0010
0100
0100
0000
,
0001
1000
0001
0000
,
0001
1000
0100
0000
,
0001
1000
0010
0000
,
0001
1000
1000
0000
,
0001
0000
0001
0000
,
1000
0000
1000
0000
,
0001
0001
0010
0000
,
0001
0001
0100
0000
,
0001
0001
1000
0000
,
0001
0001
0001
0000
,
1000
1000
0010
0000
,
1000
1000
0100
0000
,
1000
1000
0001
0000
,
1000
1000
1000
0000
,
0001
0000
0010
0000
,
0100
0000
1000
0000
,
1000
0010
1000
0000
,
1000
0100
1000
0000
,
1000
0010
0001
0000
,
1000
0100
0001
0000
,
0001
0010
0001
0000
,
0001
0100
0001
0000
,
0001
0010
1000
0000
,
0001
0100
1000
0000
,
0002
0000
0203
0000
,
0320
0000
2030
0000
,
3002
0000
0023
0000
,
0130
0000
0000
0000
,
0010
0100
0010
0000
,
0010
0100
1000
0000
,
0010
0100
0001
0000
,
0010
0100
0100
0000
,
1000
0001
1000
0000
,
1000
0001
0100
0000
,
1000
0001
0010
0000
,
1000
0001
0001
0000
,
1001
0000
0000
0000
,
1000
0100
1000
0100
,
1000
0100
1000
0000
,
0001
0100
0001
0100
,
0001
0100
0001
0000
,
1000
0100
1000
0100
,
1000
0100
1000
0000
,
0001
0100
0001
0100
,
0001
0100
0001
0000
,
0010
0000
0010
0000
,
0010
0000
0010
0000
,
0100
0000
0100
0000
,
0100
0000
0100
0000
,
1000
0000
1000
0000
,
1000
0000
1000
0000
,
0001
0000
0001
0000
,
0001
0000
0001
0000
,
1000
1000
1000
0000
,
0100
0100
0100
0000
,
0010
0010
0010
0000
,
0001
0001
0001
0000
,
1000
1000
1000
0000
,
0100
0100
0100
0000
,
0010
0010
0010
0000
,
0001
0001
0001
0000
,
0001
0001
0010
0000
,
0001
0001
0100
0000
,
0001
0001
1000
0000
,
0001
0001
0001
0000
,
1000
1000
0010
0000
,
1000
1000
0100
0000
,
1000
1000
0001
0000
,
1000
1000
1000
0000
,
0010
0100
0010
0000
,
0010
0100
1000
0000
,
0010
0100
0001
0000
,
0010
0100
0100
0000
,
1000
0001
1000
0000
,
1000
0001
0100
0000
,
1000
0001
0010
0000
,
1000
0001
0001
0000
,
1001
0000
0000
0000
,
0100
0001
0100
0001
,
0100
0001
0100
0000
,
0010
1000
0010
1000
,
0010
1000
0010
0000
,
0100
1000
0100
1000
,
0100
1000
0100
0000
,
0010
0001
0010
0001
,
0010
0001
0010
0000
,
1000
0100
1000
0100
,
1000
0100
1000
0000
,
0001
1000
0001
1000
,
0001
1000
0001
0000
,
1000
0010
1000
0010
,
1000
0010
1000
0000
,
0001
0100
0001
0100
,
0001
0100
0001
0000
,
0010
0000
0010
0000
,
0010
0000
0010
0000
,
0100
0000
0100
0000
,
0100
0000
0100
0000
,
1000
0000
1000
0000
,
1000
0000
1000
0000
,
0001
0000
0001
0000
,
0001
0000
0001
0000
,
0100
0000
0000
0000
,
;

//---------------dance-single - ----------------
#NOTES:
     dance-single:
     :
     Medium:
     8:
     0.263,0.287,0.018,0.030,0.000:
0000
0000
0000
0000
,
0000
0000
0000
0000
,
0000
0000
0000
0000
,
0000
0000
0000
0000
,
0000
0000
0000
0000
,
0000
0000
0000
0000
,
0000
0000
0000
0000
,
0000
0000
0000
0000
,
0000
0000
0000
0000
,
1000
0000
0100
0010
0001
0000
0000
0000
,
0100
0000
0010
1000
0001
0000
0000
0000
,
0010
0000
0100
1000
0001
0000
0000
0000
,
0010
0000
1000
0100
0001
0000
0000
0000
,
0001
0000
0100
0010
1000
0000
0000
0000
,
0100
0000
0010
0001
1000
0000
0000
0000
,
0010
0000
0100
0001
1000
0000
0000
0000
,
0010
0000
0001
0100
1000
0000
0000
0000
,
1000
0100
0010
0001
0010
0000
0000
0000
,
0100
0010
0001
1000
0100
0000
0000
0000
,
0010
0001
1000
0100
0010
0000
0000
0000
,
0001
1000
0100
0010
0001
0000
0000
0000
,
0001
0100
0010
1000
0010
0000
0000
0000
,
0100
0010
1000
0001
0100
0000
0000
0000
,
0010
1000
0001
0100
0010
0000
0000
0000
,
1000
0001
0100
0010
1000
0000
0000
0000
,
0100
0000
0100
0000
1000
0100
0001
0000
,
0010
0000
0010
0000
0001
0100
1000
0000
,
0001
0000
0001
0000
0100
1000
0010
0000
,
1000
0000
1000
0000
0010
0100
0001
0000
,
1000
0000
0100
0000
0001
0000
1000
0100
,
0010
0001
1000
0001
,
1000
0100
0010
0100
1000
0000
0001
0000
,
0100
0010
1000
0010
0100
0000
0001
0000
,
0010
0100
1000
0100
0010
0000
0001
0000
,
0100
0010
0100
1001
,
0010
0100
0010
0100
0010
0000
1000
0000
,
0100
0010
0100
0010
0100
0000
1000
0000
,
0010
0001
0010
0001
0010
0000
1000
0000
,
0001
0010
0100
1001
,
0100
0010
1000
0100
,
0001
0010
0001
0000
,
0001
0000
0100
0010
1000
0000
0000
0000
,
0100
0000
0010
0001
1000
0000
0000
0000
,
0010
0000
0100
0001
1000
0000
0000
0000
,
0010
0000
0001
0100
1000
0000
0000
0000
,
1000
0000
0100
0010
0001
0000
0000
0000
,
0100
0000
0010
1000
0001
0000
0000
0000
,
0010
0000
0100
1000
0001
0000
0000
0000
,
0010
0000
1000
0100
0001
0000
0000
0000
,
2001
3020
0230
0302
,
0023
0230
2300
3001
,
0002
0000
0000
0000
0100
0000
0100
0003
,
2000
0000
0002
3003
,
1000
0100
0001
0000
1000
0100
0001
0000
,
1000
0010
0001
0000
1000
0010
0001
0000
,
0100
0001
1000
0000
0100
0001
1000
0000
,
0010
0010
0100
0100
,
0001
0010
0100
0000
0001
0010
0100
0000
,
1000
0010
0100
0000
1000
0010
0100
0000
,
0001
1000
0100
0000
0001
1000
0100
0000
,
1000
1000
0001
0001
,
0100
0000
0000
0000
,
1000
0100
1000
0100
1000
0100
1000
0000
,
0001
0010
0001
0010
0001
0010
0001
0000
,
0100
1000
0100
1000
0100
1000
0100
0000
,
0010
0001
0010
0001
0010
0001
0010
0000
,
1000
0100
1000
0100
1000
0100
1000
0000
,
0001
0010
0001
0010
0001
0010
0001
0000
,
0100
1000
0100
1000
0100
1000
0100
0000
,
0001
0010
0100
1000
,
0010
0000
0000
0001
0000
1000
0000
0001
,
0000
0100
0000
0010
0000
1000
0000
0001
,
0000
0010
0000
0100
0000
1000
0000
0001
,
0000
1000
0000
0001
0000
1000
0000
0001
,
0010
0000
0000
0001
0000
0001
0000
1000
,
0000
1000
0000
0100
0000
0100
0000
0010
,
0000
0010
0000
0001
0000
0001
0000
1000
,
0001
0100
0010
1000
,
0001
0000
0100
0001
0100
0000
0001
0000
,
1000
0000
0100
0010
0100
0000
1000
0000
,
0010
0000
0100
0001
0100
0000
0010
0000
,
1000
0000
0001
0100
0001
0000
1000
0000
,
0001
0000
0100
0001
0100
0000
0001
0000
,
1000
0000
0100
0010
0100
0000
1000
0000
,
0010
0000
0100
0001
0100
0000
0010
0000
,
1000
0000
0001
0100
0001
0000
1000
0000
,
1000
0100
0010
0100
1000
0000
0001
0000
,
0100
0010
1000
0001
0100
0000
0001
0000
,
0010
0100
1000
0100
1000
0000
0001
0000
,
0100
0010
0100
0110
,
0010
0100
0010
0100
0010
0000
1000
0000
,
0100
0010
0100
0010
0100
0000
1000
0000
,
0010
0001
1000
0001
0010
0000
1000
0000
,
0001
0010
0100
1001
,
1000
0100
0001
0000
1000
0100
0001
0000
,
1000
0010
0001
0000
1000
0010
0001
0000
,
0100
0001
1000
0000
0100
0001
1000
0000
,
0010
0010
0100
0100
,
0001
0010
0100
0000
0001
0010
0100
0000
,
1000
0010
0100
0000
1000
0010
0100
0000
,
0001
1000
0100
0000
0001
1000
0100
0000
,
1000
0010
0100
0001
,
1001
0000
0000
0000
,
1000
0100
1000
0100
0010
0001
0010
0000
,
0001
0100
0010
0100
0010
1000
0010
0000
,
1000
0100
1000
0010
0100
0010
0100
0000
,
0001
1000
0001
1000
0010
0100
0010
0000
,
1000
0100
0010
0100
0010
0001
0010
0000
,
0001
0100
0001
0100
0010
0100
0010
0000
,
1000
0100
0010
0001
0100
0010
0001
0000
,
1000
0000
0001
1000
,
1000
0100
1000
0100
1000
0100
1000
0000
,
0001
0010
0001
0010
0001
0010
0001
0000
,
0100
1000
0100
1000
0100
1000
0100
0000
,
0010
0001
0010
0001
0010
0001
0010
0000
,
1000
0100
1000
0100
1000
0100
1000
0000
,
0001
0010
0001
0010
0001
0010
0001
0000
,
0100
1000
0100
1000
0100
1000
0100
0000
,
0001
0010
0100
1000
,
0010
0000
0000
0001
0000
1000
0000
0001
,
0000
0100
0000
0010
0000
1000
0000
0001
,
0000
0010
0000
0100
0000
1000
0000
0001
,
0000
0100
0000
0100
0000
0100
0000
0100
,
0010
0000
0000
1000
0000
1000
0000
0001
,
0000
0001
0000
0100
0000
0100
0000
0010
,
0000
0010
0000
1000
0000
1000
0000
0001
,
1000
0100
0010
0001
,
1000
0000
0000
0000
,
;

//---------------dance-single - ----------------
#NOTES:
     dance-single:
     :
     Hard:
     10:
     0.323,0.326,0.036,0.051,0.036: // measure 1
0000
0000
0000
0000
,  // measure 2
0000
0000
0000
0000
,  // measure 3
0000
0000
0000
0000
,  // measure 4
0000
0000
0000
0000
,  // measure 5
0000
0000
0000
0000
,  // measure 6
0000
0000
0000
0000
,  // measure 7
0000
0000
0000
0000
,  // measure 8
0000
0000
0000
0000
,  // measure 9
0000
0000
0000
0000
,  // measure 10
1000
0100
0010
0001
0010
0000
0000
0000
,  // measure 11
0100
0010
0001
0100
0010
0000
0000
0000
,  // measure 12
0100
1000
0010
0100
1000
0000
0000
0000
,  // measure 13
0100
0001
0010
1000
0001
0000
0000
0000
,  // measure 14
0001
0100
0010
1000
0010
0000
0000
0000
,  // measure 15
0100
0010
1000
0100
0010
0000
0000
0000
,  // measure 16
0100
0001
0010
0100
0001
0000
0000
0000
,  // measure 17
0100
1000
0010
0001
1000
0000
0000
0000
,  // measure 18
0010
0100
1000
0100
0020
0000
0130
0000
,  // measure 19
1000
0100
0001
0010
0002
0000
0103
0000
,  // measure 20
0010
0001
0100
1000
0200
0000
0310
0000
,  // measure 21
1000
0100
0010
0100
2000
0000
3100
0000
,  // measure 22
0010
0100
0001
0100
0020
0000
0130
0000
,  // measure 23
0001
0100
1000
0010
2000
0000
3100
0000
,  // measure 24
0010
1000
0100
0001
0200
0000
0310
0000
,  // measure 25
0001
0100
0010
0100
0002
0000
0103
0000
,  // measure 26
0001
0010
0100
2000
0000
3100
1000
0000
,  // measure 27
0010
0100
1000
0002
0000
0013
0001
0000
,  // measure 28
0100
0010
1000
0200
0000
0310
0100
0000
,  // measure 29
1000
0100
0001
0010
,  // measure 30
1000
0001
0100
0000
0010
1000
0001
0000
,  // measure 31
0010
0100
1000
0000
0010
0100
0001
0000
,  // measure 32
1000
0000
0010
0000
0100
0000
0010
1000
0000
0000
0100
0000
0010
0000
0001
0000
,  // measure 33
0100
0000
0010
0000
1000
0000
0100
0010
0000
0000
0001
0000
0101
0000
0000
0000
,  // measure 34
0010
0000
0100
0000
1000
0000
0001
0100
0000
0000
0010
0000
1000
0000
0001
0000
,  // measure 35
0010
0000
1000
0000
0001
1000
1100
0000
,  // measure 36
0010
0000
0100
0000
1000
0000
0100
0001
0000
0000
1000
0000
0100
0000
0001
0000
,  // measure 37
1000
0000
0100
0000
0010
0000
1000
0010
0000
0000
0001
0000
1001
0000
0000
0000
,  // measure 38
0100
0000
1000
0000
0010
0000
0001
0100
0000
0000
0100
0000
0010
0000
0001
0000
,  // measure 39
0100
0000
0010
0000
0001
0010
1010
0000
,  // measure 40
0001
0100
0010
1000
0000
0000
0100
0000
,  // measure 41
1000
0010
0100
0001
0000
0000
1000
0000
,  // measure 42
0001
0100
0010
1000
0010
0000
0000
0000
,  // measure 43
0100
0010
1000
0100
0010
0000
0000
0000
,  // measure 44
0100
0001
0010
0100
0001
0000
0000
0000
,  // measure 45
0100
1000
0010
0001
1000
0000
0000
0000
,  // measure 46
1000
0100
0010
0001
0010
0000
0000
0000
,  // measure 47
0100
0010
0001
0100
0010
0000
0000
0000
,  // measure 48
0100
1000
0010
0100
1000
0000
0000
0000
,  // measure 49
0100
0001
0010
1000
0001
0000
0000
0000
,  // measure 50
1200
0001
1000
0010
,  // measure 51
2300
0010
0100
0001
,  // measure 52
3020
0100
0100
0100
,  // measure 53
2030
0000
0002
3003
,  // measure 54
0100
0000
1000
0000
0100
0000
0001
0010
0000
0000
0001
0000
1000
0000
0010
0000
,  // measure 55
0100
0000
0001
0000
0010
0000
0100
0001
0000
0000
0100
0000
1000
0000
0010
0000
,  // measure 56
0100
0000
0010
0000
1000
0000
0100
0001
0000
0000
1000
0000
0001
0000
0100
0000
,  // measure 57
1000
0000
0010
0000
0010
0001
0101
0000
,  // measure 58
1000
0000
0001
0000
1000
0000
0100
0010
0000
0000
0010
0000
0001
0000
0100
0000
,  // measure 59
1000
0000
0010
0000
0100
0000
1000
0001
0000
0000
1000
0000
0001
0000
0100
0000
,  // measure 60
1000
0000
0100
0000
0001
0000
1000
0001
0000
0000
0100
0000
0010
0000
1000
0000
,  // measure 61
0001
0000
0100
0000
0100
1000
1100
0000
,  // measure 62
0010
0000
0000
0000
,  // measure 63
1000
0100
1000
0100
0001
0010
0001
0010
,  // measure 64
0100
1000
0100
1000
0010
0001
0010
0001
,  // measure 65
0100
0010
0100
0010
1000
0001
1000
0001
,  // measure 66
0100
1000
0001
0100
0010
1000
0001
0010
,  // measure 67
0001
0100
0001
0100
1000
0010
1000
0010
,  // measure 68
0100
0001
0100
0001
0010
1000
0010
1000
,  // measure 69
0100
0010
0100
0010
0001
1000
0001
1000
,  // measure 70
0100
0001
1000
0100
0010
0001
1000
0010
,  // measure 71
0100
0001
0000
0001
0000
0001
0000
0100
,  // measure 72
0000
0010
0000
0010
0000
0010
0000
0001
,  // measure 73
0000
1000
0000
1000
0000
1000
0000
0100
,  // measure 74
0000
0001
0000
0001
0000
0001
0000
0100
,  // measure 75
0010
0001
0000
0001
0000
0001
0000
1000
,  // measure 76
0000
0010
0000
0010
0000
0010
0000
0100
,  // measure 77
0000
1000
0000
1000
0000
1000
0000
0010
,  // measure 78
0100
0100
0100
0100
,  // measure 79
1000
1000
0100
0010
0001
0000
0100
0000
,  // measure 80
0010
0010
1000
0001
0010
0000
0100
0000
,  // measure 81
1000
1000
0001
0100
0010
0000
1000
0000
,  // measure 82
0001
0001
0010
0100
1000
0000
0001
0000
,  // measure 83
0001
0001
0100
0010
1000
0000
0100
0000
,  // measure 84
0010
0010
0001
1000
0010
0000
0100
0000
,  // measure 85
0001
0001
1000
0100
0010
0000
0001
0000
,  // measure 86
1000
1000
0010
0100
0001
0000
1000
0000
,  // measure 87
1000
0000
0010
0000
0100
0000
0010
1000
0000
0000
0100
0000
0010
0000
0001
0000
,  // measure 88
0100
0000
0010
0000
1000
0000
0100
0001
0000
0000
0010
0000
0101
0000
0000
0000
,  // measure 89
0010
0000
0100
0000
1000
0000
0001
0010
0000
0000
0100
0000
0010
0000
0001
0000
,  // measure 90
0010
0000
1000
0000
0001
1000
0110
0000
,  // measure 91
0010
0000
0100
0000
1000
0000
0100
0001
0000
0000
1000
0000
0100
0000
0001
0000
,  // measure 92
1000
0000
0100
0000
0010
0000
1000
0010
0000
0000
0001
0000
1001
0000
0000
0000
,  // measure 93
0100
0000
1000
0000
0010
0000
0001
0100
0000
0000
0100
0000
0010
0000
0001
0000
,  // measure 94
0100
0000
0010
0000
0001
0010
1010
0000
,  // measure 95
0100
0000
0001
0000
0100
0000
1000
0010
0000
0000
1000
0000
0001
0000
0010
0000
,  // measure 96
0100
0000
1000
0000
0010
0000
0100
1000
0000
0000
0100
0000
0001
0000
0010
0000
,  // measure 97
0100
0000
0010
0000
0001
0000
0100
1000
0000
0000
0001
0000
1000
0000
0100
0000
,  // measure 98
0001
0000
0010
0000
0010
1000
1100
0000
,  // measure 99
0001
0000
1000
0000
0001
0000
0100
0010
0000
0000
0010
0000
1000
0000
0100
0000
,  // measure 100
0001
0000
0010
0000
0100
0000
0001
1000
0000
0000
0001
0000
1000
0000
0100
0000
,  // measure 101
0001
0000
0100
0000
1000
0000
0001
1000
0000
0000
0100
0000
0010
0000
0001
0000
,  // measure 102
0100
0000
0000
0000
0010
1000
0001
0010
,  // measure 103
0200
0000
0000
0300
,  // measure 104
0010
0001
0010
0001
0100
0010
0100
0010
,  // measure 105
1000
0100
1000
0100
0001
1000
0001
1000
,  // measure 106
0010
0001
0010
0001
1000
0010
1000
0010
,  // measure 107
0100
1000
0100
1000
0001
1000
0001
1000
,  // measure 108
0100
0001
0100
0001
0010
1000
0010
1000
,  // measure 109
0001
0100
0001
0100
1000
0100
1000
0100
,  // measure 110
1000
0010
1000
0010
0100
0010
0100
0010
,  // measure 111
0100
0000
0001
0001
,  // measure 112
1000
0100
1000
0100
0001
0010
0001
0010
,  // measure 113
0100
1000
0100
1000
0010
0001
0010
0001
,  // measure 114
0100
0010
0100
0010
1000
0001
1000
0001
,  // measure 115
0100
1000
0001
0100
0010
1000
0001
0010
,  // measure 116
0001
0100
0001
0100
1000
0010
1000
0010
,  // measure 117
0100
0001
0100
0001
0010
1000
0010
1000
,  // measure 118
0100
0010
0100
0010
0001
1000
0001
1000
,  // measure 119
0100
0001
1000
0100
0010
0001
1000
0010
,  // measure 120
0100
0001
0000
0001
0000
0001
0000
0100
,  // measure 121
0000
0010
0000
0010
0000
0010
0000
0001
,  // measure 122
0000
1000
0000
1000
0000
1000
0000
0100
,  // measure 123
0000
0001
0000
0100
0000
1000
0000
0010
,  // measure 124
0100
0001
0000
0001
0000
0001
0000
1000
,  // measure 125
0000
0100
0000
0100
0000
0100
0000
0010
,  // measure 126
0000
1000
0000
1000
0000
1000
0000
0100
,  // measure 127
0010
0010
0010
0010
,  // measure 128
0010
0000
0000
0000
;
