#TITLE:Rocket;
#SUBTITLE:Short Song;
#ARTIST:Goldfrapp;
#TITLETRANSLIT:;
#SUBTITLETRANSLIT:;
#ARTISTTRANSLIT:;
#CREDIT:;
#BANNER:Rocket.png;
#BACKGROUND:Rocket-bg.png;
#LYRICSPATH:;
#CDTITLE:./CDTITLES/DanceDanceRevolution II.png;
#MUSIC:../Rocket (Full Song)/Rocket (Full Song).ogg;
#OFFSET:0.000;
#SAMPLESTART:49.340;
#SAMPLELENGTH:15.000;
#SELECTABLE:YES;
#DISPLAYBPM:131.000;
#BPMS:0.000=131.179;
#STOPS:;
#BGCHANGES:;

//---------------dance-single - ----------------
#NOTES:
     dance-single:
     :
     Beginner:
     1:
     0.052,0.096,0.005,0.049,0.000:
0000
0000
0000
0000
,
0000
0000
0000
0000
,
0000
0000
0000
0000
,
0000
0000
0000
0000
,
0000
0000
0000
0000
,
1000
0000
0000
0000
,
0100
0000
0000
0000
,
0001
0000
0000
0000
,
0100
0000
0000
0000
,
0001
0000
0000
0000
,
0001
0000
0000
0000
,
0001
0000
1000
0000
,
0001
0000
0000
0000
,
0001
0000
0000
0000
,
0100
0000
0000
0000
,
1000
0000
0000
0000
,
0100
0000
0000
0000
,
1000
0000
0000
0000
,
1000
0000
0000
0000
,
1000
0000
0001
0000
,
1000
0000
0000
0000
,
2000
3000
0000
0000
,
0002
0003
0000
0000
,
2000
3000
0000
0000
,
0002
0003
0000
0000
,
0020
0000
0000
0000
,
0000
0030
0000
0000
,
0001
0001
0001
0000
,
0010
0000
0010
0000
,
0001
0001
0001
0000
,
0010
0000
0010
0000
,
1000
1000
1000
0000
,
1001
0000
0000
0000
,
0010
0000
0010
0000
,
0010
0000
0000
0000
,
0001
0000
0000
0000
,
0100
0000
0000
0000
,
1000
0000
0000
0000
,
0100
0000
0000
0000
,
1000
0000
0000
0000
,
1000
0000
0000
0000
,
1000
0000
0001
0000
,
1000
0000
0000
0000
,
1000
0000
0000
0000
,
0100
0000
0000
0000
,
0001
0000
0000
0000
,
0100
0000
0000
0000
,
0001
0000
0000
0000
,
0001
0000
0000
0000
,
0001
0000
1000
0000
,
0001
0000
0000
0000
,
0002
0003
0000
0000
,
2000
3000
0000
0000
,
0002
0003
0000
0000
,
2000
3000
0000
0000
,
0020
0000
0000
0000
,
0000
0030
0000
0000
,
;

//---------------dance-single - ----------------
#NOTES:
     dance-single:
     :
     Easy:
     3:
     0.082,0.097,0.005,0.063,0.000: // measure 1
0000
0000
0000
0000
,  // measure 2
0000
0000
0000
0000
,  // measure 3
0000
0000
0000
0000
,  // measure 4
0000
0000
0000
0000
,  // measure 5
0000
0000
0000
0000
,  // measure 6
1000
0000
1000
0000
,  // measure 7
0100
0000
0100
0000
,  // measure 8
0001
0000
0001
0000
,  // measure 9
0100
0000
0100
0000
,  // measure 10
0001
0000
0010
0000
,  // measure 11
0001
0000
0100
0000
,  // measure 12
0001
0000
0010
0000
,  // measure 13
0100
0000
0000
0000
,  // measure 14
0001
0000
0001
0000
,  // measure 15
0100
0000
0100
0000
,  // measure 16
1000
0000
1000
0000
,  // measure 17
0100
0000
0100
0000
,  // measure 18
1000
0000
0010
0000
,  // measure 19
1000
0000
0100
0000
,  // measure 20
1000
0000
0010
0000
,  // measure 21
0100
0000
0000
0000
,  // measure 22
2000
0000
3010
0000
,  // measure 23
0002
0000
0013
0000
,  // measure 24
2000
0000
3010
0000
,  // measure 25
0002
0000
0013
0000
,  // measure 26
2000
0000
0001
0000
,  // measure 27
0000
0000
3001
0000
,  // measure 28
0001
0001
0001
0000
,  // measure 29
0010
0100
1000
0000
,  // measure 30
0001
0001
0001
0000
,  // measure 31
0010
0100
1000
0000
,  // measure 32
0100
0100
0100
0000
,  // measure 33
0200
0000
0000
0300
,  // measure 34
0002
0003
2000
3000
,  // measure 35
0100
0010
0110
0000
,  // measure 36
1000
0000
1000
0000
,  // measure 37
0100
0000
0100
0000
,  // measure 38
0001
0000
0001
0000
,  // measure 39
0100
0000
0100
0000
,  // measure 40
0001
0000
0010
0000
,  // measure 41
0001
0000
0100
0000
,  // measure 42
0001
0000
0010
0000
,  // measure 43
0100
0000
0000
0000
,  // measure 44
0001
0000
0001
0000
,  // measure 45
0100
0000
0100
0000
,  // measure 46
1000
0000
1000
0000
,  // measure 47
0100
0000
0100
0000
,  // measure 48
1000
0000
0010
0000
,  // measure 49
1000
0000
0100
0000
,  // measure 50
1000
0000
0010
0000
,  // measure 51
0100
0000
0000
0000
,  // measure 52
2000
0000
3010
0000
,  // measure 53
0002
0000
0013
0000
,  // measure 54
2000
0000
3010
0000
,  // measure 55
0002
0000
0013
0000
,  // measure 56
2000
0000
0001
0000
,  // measure 57
0000
0000
3001
0000
;

//---------------dance-single - ----------------
#NOTES:
     dance-single:
     :
     Medium:
     5:
     0.136,0.138,0.005,0.093,0.000:
0000
0000
0000
0000
,
0000
0000
0000
0000
,
0000
0000
0000
0000
,
0000
0000
0000
0000
,
0000
0000
0000
0000
,
0001
1000
0001
0000
,
0100
0010
0100
0000
,
1000
0001
1000
0000
,
0100
0010
0100
0000
,
1000
0001
0010
0100
,
1000
0010
0100
0001
,
1000
0001
0010
0100
,
0100
0000
0000
0000
,
0001
1000
0001
0001
,
0100
0010
0100
0100
,
1000
0001
1000
1000
,
0100
0010
0100
0100
,
1000
0001
0010
0001
,
1000
0010
0100
0010
,
1000
0001
0010
0001
,
0010
0000
0000
0000
,
0002
0010
0010
0013
,
2000
0100
3100
0000
,
2000
0010
0010
3010
,
0002
0100
0103
0100
,
0002
0000
2000
3000
,
0200
0300
0020
0033
,
1000
0100
0010
0000
,
0001
0000
0100
0010
1000
0000
1000
0000
,
1000
0100
0010
0000
,
0001
0000
0100
0010
1000
0000
1000
0000
,
0100
0010
1000
0000
,
0200
0010
0010
0310
,
0002
0000
2003
0000
,
3100
0100
0010
0110
,
1000
0001
1000
0000
,
0100
0010
0100
0000
,
0001
1000
0001
0000
,
0100
0010
0100
0000
,
0001
1000
0010
0100
,
0001
0010
0100
1000
,
0001
1000
0010
0100
,
0100
0000
0000
0000
,
1000
0001
1000
1000
,
0100
0010
0100
0100
,
0001
1000
0001
0001
,
0100
0010
0100
0100
,
0001
1000
0010
1000
,
0001
0010
0100
0010
,
0001
1000
0010
1000
,
0010
0000
0000
0000
,
2000
0010
0010
3010
,
0002
0100
0103
0000
,
0002
0010
0010
0013
,
2000
0100
3100
0100
,
2000
0000
0002
0003
,
0200
0300
0020
3030
,
;

//---------------dance-single - ----------------
#NOTES:
     dance-single:
     :
     Hard:
     8:
     0.183,0.194,0.044,0.112,0.000:
0000
0000
0000
0000
,
0000
0000
0000
0000
,
0000
0000
0000
0000
,
0000
0000
0000
0000
,
0000
0000
0000
0000
,
1000
0001
0100
0000
1000
0000
0000
0000
,
0010
1000
0001
0000
0010
0000
0000
0000
,
0001
0000
0100
1000
0001
0000
0000
0000
,
0010
0000
1000
0001
0010
0000
0000
0000
,
0100
0000
0001
0000
0010
0001
0100
0000
,
1000
0000
0010
0000
0100
1000
0010
0000
,
0100
0000
1000
0000
0010
0001
0100
0000
,
0100
0000
0000
0000
,
1000
0001
0100
0010
1000
0000
0000
0000
,
0010
1000
0001
0100
0010
0000
0000
0000
,
0001
1000
0100
1000
0001
0000
0000
0000
,
0010
0000
1000
0001
0010
0000
0110
0000
,
0100
0000
0001
0000
0010
0001
0100
0001
,
1000
0000
0010
0000
0100
1000
0010
1000
,
0100
0000
1000
0000
0010
0001
0100
0001
,
0100
0000
0000
0000
,
2100
0001
3020
0001
,
1000
0100
0130
0010
,
0102
1000
0023
1000
,
0100
0100
0130
0010
,
0002
0100
2003
0010
,
3001
2000
0000
3001
1000
0000
1100
0000
,
2000
0000
3200
0000
0310
0000
1000
0001
,
0000
0100
0000
0010
1000
0100
0010
0001
,
2000
0000
3200
0000
0310
0000
1000
0001
,
0000
0100
0000
0010
1000
0100
0010
0001
,
0200
0320
1030
0001
,
0200
0001
0010
1000
,
0302
0100
2003
0010
,
3100
0000
0010
0000
0001
1000
1001
0000
,
0001
1000
0100
0000
0001
0000
0000
0000
,
0010
0001
1000
0000
0010
0000
0000
0000
,
1000
0000
0100
0001
1000
0000
0000
0000
,
0010
0000
0001
1000
0010
0000
0000
0000
,
0100
0000
1000
0000
0010
1000
0100
0000
,
0001
0000
0010
0000
0100
0001
0010
0000
,
0100
0000
0001
0000
0010
1000
0100
0000
,
0100
0000
0000
0000
,
0001
1000
0100
0010
0001
0000
0000
0000
,
0010
0001
1000
0100
0010
0000
0000
0000
,
1000
0001
0100
0001
1000
0000
0000
0000
,
0010
0000
0001
1000
0010
0000
0110
0000
,
0100
0000
1000
0000
0010
1000
0100
1000
,
0001
0000
0010
0000
0100
0001
0010
0001
,
0100
0000
0001
0000
0010
1000
0100
1000
,
0100
0000
0000
0000
,
0102
1000
0023
1000
,
0001
0100
0130
0010
,
2100
0001
3020
0001
,
0100
0100
0130
0010
,
2000
0100
3002
0010
,
1003
0002
0000
1003
0001
0000
0101
0000
,
;

//---------------dance-double - ----------------
#NOTES:
     dance-double:
     :
     Easy:
     3:
     0.103,0.124,0.000,0.088,0.000:
00000000
00000000
00000000
00000000
,
00000000
00000000
00000000
00000000
,
00000000
00000000
00000000
00000000
,
00000000
00000000
00000000
00000000
,
00000000
00000000
00000000
00000000
,
00010000
00000000
01000000
00000000
,
00010000
00000000
00001000
00000000
,
00001000
00000000
00000100
00000000
,
00001000
00000000
00010000
00000000
,
00100000
00100000
01000000
00000000
,
00001000
00010000
00001000
00000000
,
00000010
00000010
00000100
00000000
,
00000000
00000000
00000000
00000000
,
00010000
00001000
01000000
00000000
,
00010000
00010000
00001000
00000000
,
00001000
00010000
00000100
00000000
,
00001000
00001000
00010000
00000000
,
00100000
00100000
00001000
00000000
,
00001000
00010000
00001000
00010000
,
00000010
00000010
00010000
00000000
,
00000000
00000000
00000000
00000000
,
00000200
00000000
00010300
00000000
,
00002000
00000000
00013000
00000000
,
02000000
00000000
03001000
00000000
,
00020000
00000000
00031000
00000000
,
00100000
00010000
00100000
00000000
,
00001000
00010000
00001000
00000000
,
00020000
02030000
13000000
00000000
,
00100000
00010000
00001000
00000000
,
00002000
00003200
00000301
00000000
,
00000010
00001000
00010000
00000000
,
02000000
23000000
30010000
00000000
,
00100000
00010000
00001000
00000100
,
00000002
00000003
00000200
00000300
,
00002000
00003000
00020000
00031000
,
00001000
00000000
00000100
00000000
,
00001000
00000000
00010000
00000000
,
00010000
00000000
01000000
00000000
,
00010000
00000000
00001000
00000000
,
00000010
00000010
00000100
00000000
,
00010000
00001000
00010000
00000000
,
00100000
00100000
01000000
00000000
,
00000000
00000000
00000000
00000000
,
00001000
00010000
00000100
00000000
,
00001000
00001000
00010000
00000000
,
00010000
00001000
01000000
00000000
,
00010000
00010000
00001000
00000000
,
00000010
00000010
00010000
00000000
,
00010000
00001000
00010000
00001000
,
00100000
00100000
00001000
00000000
,
00000000
00000000
00000000
00000000
,
02000000
00000000
03001000
00000000
,
00020000
00000000
00031000
00000000
,
00000200
00000000
00010300
00000000
,
00002000
00000000
00013000
00000000
,
00000010
00001000
00000010
00000000
,
00010000
00001000
00010000
00000000
,
;

//---------------dance-double - ----------------
#NOTES:
     dance-double:
     :
     Medium:
     5:
     0.146,0.180,0.015,0.098,0.000:
00000000
00000000
00000000
00000000
,
00000000
00000000
00000000
00000000
,
00000000
00000000
00000000
00000000
,
00000000
00000000
00000000
00000000
,
00000000
00000000
00000000
00000000
,
00000010
00000100
00000010
00000000
,
00010000
00001000
00010000
00000000
,
00100000
01000000
00100000
00000000
,
00001000
00010000
00001000
00000000
,
00000100
00000010
00000001
00000100
,
00000010
00001000
00010000
00000000
,
01000000
00100000
10000000
01000000
,
10000000
00000000
00000000
00000000
,
00100000
01000000
00100000
00100000
,
00001000
00010000
00001000
00010000
,
00000010
00000100
00000010
00000010
,
00010000
00001000
00010000
00001000
,
01000000
00000000
00100000
00000000
10000000
00010000
01000000
00000000
,
00100000
00010000
00001000
00010000
,
00000100
00000000
00000010
00000000
00000001
00001000
00000100
00000000
,
00000010
00000000
00000000
00000000
,
00000001
00000100
00002000
00000000
,
00023000
00001000
01030000
00000000
,
10000000
01000000
00020000
00000000
,
00032000
00010000
00003100
00000110
,
00000002
00000103
00002000
00013000
,
00002000
00000000
00003100
00001000
00010000
00000000
00100000
00000000
,
00002000
00000010
00013000
00000000
,
00001000
00000010
00000001
00000000
00000001
00000010
00001000
00000000
,
00020000
00100000
00031000
00000000
,
00010000
00100000
10000000
00000000
10000000
00100000
00010000
00000000
,
00200000
10000000
01300000
00000000
,
00001000
00100000
00010000
00000000
00100000
00001000
00010000
00000000
,
00000200
00000000
00002300
00000000
,
00023000
00000000
01030000
01100000
,
00100000
01000000
00100000
00000000
,
00001000
00010000
00001000
00000000
,
00000010
00000100
00000010
00000000
,
00010000
00001000
00010000
00000000
,
01000000
00100000
10000000
01000000
,
00100000
00010000
00001000
00000000
,
00000100
00000010
00000001
00000100
,
00000001
00000000
00000000
00000000
,
00000010
00000100
00000010
00000010
,
00010000
00001000
00010000
00001000
,
00100000
01000000
00100000
00100000
,
00001000
00010000
00001000
00010000
,
00000100
00000000
00000010
00000000
00000001
00001000
00000100
00000000
,
00000010
00001000
00010000
00001000
,
01000000
00000000
00100000
00000000
10000000
00010000
01000000
00000000
,
00100000
00000000
00000000
00000000
,
10000000
01000000
00020000
00000000
,
00032000
00010000
00003100
00000000
,
00000001
00000100
00002000
00000000
,
00023000
00001000
01030000
01100000
,
20000000
31000000
00020000
00031000
,
00020000
00000000
01030000
00010000
00001000
00000000
00000010
00000000
,
;

//---------------dance-double - ----------------
#NOTES:
     dance-double:
     :
     Hard:
     8:
     0.160,0.222,0.015,0.107,0.000:
00000000
00000000
00000000
00000000
,
00000000
00000000
00000000
00000000
,
00000000
00000000
00000000
00000000
,
00000000
00000000
00000000
00000000
,
00000000
00000000
00000000
00000000
,
01000000
00100000
00010000
00000000
,
00001000
00000100
00000010
00000000
,
00000100
00000010
00001000
00000000
,
00010000
01000000
00100000
00000000
,
10000000
01000000
00100000
00010000
,
00100000
00001000
00010000
00000010
,
00000001
00000100
00000010
00001000
,
00000100
00000000
00000000
00000000
,
00000100
00000010
00001000
00000100
,
00010000
01000000
00100000
00010000
,
01000000
00100000
00010000
01000000
,
00001000
00000100
00000010
00000000
,
00000001
00001000
00000100
00000000
00000010
00000000
00001000
00000000
,
00000010
00001000
00010000
00000000
00001000
00000000
00100000
00000000
,
10000000
00010000
01000000
00000000
00100000
00000000
00010000
00000000
,
00100000
00000000
00000000
00000000
,
10000000
01000000
00100000
00001000
00020000
00000000
00000000
00000000
,
00100000
00001000
00031000
00000100
,
00000001
00000100
00000010
00010000
00002000
00000000
00000000
00000000
,
00100000
00010000
00013000
00001000
,
00020000
00100000
00032000
01000000
,
00203000
00000000
00010000
00000000
00301000
00010000
00001000
00000000
,
00002010
00000000
00003200
00000000
00020300
00000000
00031000
00100000
,
01000000
00100000
00010000
00000000
10000000
00100000
00010000
00000000
,
00120000
00000000
02030000
00000000
03002000
00000000
00013000
00000010
,
00000100
00000010
00001000
00000000
00000001
00000010
00001000
00000000
,
00000020
00000000
00000032
00000000
00000203
00000000
00000310
00001000
,
00000100
00010000
00001000
00100000
00010000
01000000
00100000
00000000
,
20000000
00000000
30020000
00000000
,
00032000
00000000
00003001
00001001
,
00000100
00000010
00001000
00000000
,
00010000
01000000
00100000
00000000
,
01000000
00100000
00010000
00000000
,
00001000
00000100
00000010
00000000
,
00000001
00000100
00000010
00001000
,
00000010
00010000
00001000
00100000
,
10000000
01000000
00100000
00010000
,
01000000
00000000
00000000
00000000
,
01000000
00100000
00010000
01000000
,
00001000
00000100
00000010
00001000
,
00000100
00000010
00001000
00000100
,
00010000
01000000
00100000
00000000
,
10000000
00010000
01000000
00000000
00100000
00000000
00010000
00000000
,
00100000
00010000
00001000
00000000
00010000
00000000
00000010
00000000
,
00000001
00001000
00000100
00000000
00000010
00000000
00001000
00000000
,
00000010
00000000
00000000
00000000
,
00000001
00000100
00000010
00010000
00002000
00000000
00000000
00000000
,
00000010
00010000
00013000
01000000
,
10000000
01000000
00100000
00001000
00020000
00000000
00000000
00000000
,
00000010
00001000
00031000
00010000
,
00002000
00000010
00023000
00000100
,
00030020
00000000
00001000
00000000
00010030
00001000
00010000
00000000
,
;
