#TITLE:Only Girl (In The World);
#SUBTITLE:Full Song;
#ARTIST:Rihanna;
#TITLETRANSLIT:;
#SUBTITLETRANSLIT:;
#ARTISTTRANSLIT:;
#CREDIT:;
#BANNER:Only Girl (In The World) (Full Song).png;
#BACKGROUND:Only Girl (In The World) (Full Song)-bg.png;
#LYRICSPATH:;
#CDTITLE:./CDTITLES/DanceDanceRevolution II.png;
#MUSIC:Only Girl (In The World) (Full Song).ogg;
#OFFSET:0.000;
#SAMPLESTART:77.320;
#SAMPLELENGTH:15.000;
#SELECTABLE:YES;
#DISPLAYBPM:126.000;
#BPMS:0.000=126.001;
#STOPS:;
#BGCHANGES:;

//---------------dance-single - ----------------
#NOTES:
     dance-single:
     :
     Beginner:
     2:
     0.099,0.152,0.017,0.004,0.000:
0000
0000
0000
0000
,
0000
0000
0000
0000
,
1000
0000
1000
0000
,
0000
0000
0000
0000
,
0001
0000
0001
0000
,
0000
0000
0000
0000
,
1000
0000
1000
0000
,
0000
0000
0000
0000
,
0001
0000
0001
0000
,
0001
0000
0000
0000
,
0000
0000
0000
0000
,
0001
0000
0000
0000
,
0000
0000
0000
0000
,
1000
0000
0000
0000
,
0000
0000
0000
0000
,
1000
0000
0000
0000
,
0000
0000
0000
0000
,
0001
0000
0000
0000
,
0001
0000
0000
0000
,
0001
0000
0000
0000
,
0000
0000
0000
0000
,
1000
0000
0000
0000
,
1000
0000
0000
0000
,
1000
0000
0000
0000
,
1001
0000
0000
0000
,
1000
1000
1000
0000
,
0000
0000
0000
0000
,
0001
0001
0001
0000
,
0000
0000
0000
0000
,
1000
1000
1000
0000
,
0000
0000
0000
0000
,
0010
0000
0000
0000
,
0010
0000
0000
0000
,
0001
0001
0001
0000
,
0000
0000
0000
0000
,
1000
1000
1000
0000
,
0000
0000
0000
0000
,
0001
0001
0001
0000
,
0000
0000
0000
0000
,
1001
0000
0000
0000
,
0000
0000
0000
0000
,
1000
1000
1000
0000
,
1000
0000
1000
0000
,
0001
0001
0001
0000
,
0001
0000
0001
0000
,
1000
1000
1000
0000
,
1000
0000
1000
0000
,
0010
0000
0000
0000
,
0010
0000
0000
0000
,
1000
0000
0000
0000
,
0000
0000
0000
0000
,
1000
0000
0000
0000
,
0000
0000
0000
0000
,
0001
0000
0000
0000
,
0000
0000
0000
0000
,
0001
0000
0000
0000
,
0000
0000
0000
0000
,
1000
0000
0000
0000
,
1000
0000
0000
0000
,
1000
0000
0000
0000
,
0000
0000
0000
0000
,
0001
0000
0000
0000
,
0001
0000
0000
0000
,
0001
0000
0000
0000
,
1001
0000
0000
0000
,
0001
0001
0001
0000
,
0001
0000
0001
0000
,
1000
1000
1000
0000
,
1000
0000
1000
0000
,
0001
0001
0001
0000
,
0001
0000
0001
0000
,
0010
0000
0000
0000
,
0010
0000
0000
0000
,
1000
1000
1000
0000
,
1000
0000
1000
0000
,
0001
0001
0001
0000
,
0001
0000
0001
0000
,
1000
1000
1000
0000
,
1000
0000
1000
0000
,
0010
0000
0000
0000
,
0010
0000
0000
0000
,
1000
0000
0000
0000
,
0010
0000
0000
0000
,
0001
0000
0000
0000
,
0010
0000
0000
0000
,
1000
0000
0000
0000
,
0010
0000
0000
0000
,
0001
0000
0000
0000
,
0010
0000
0000
0000
,
0001
0000
0000
0000
,
0010
0000
0000
0000
,
1000
0000
0000
0000
,
0010
0000
0000
0000
,
0001
0000
0000
0000
,
0010
0000
0000
0000
,
1000
0000
0001
0000
,
1001
0000
0000
0000
,
0000
0000
0000
0000
,
1000
1000
1000
0000
,
1000
0000
1000
0000
,
0001
0001
0001
0000
,
0001
0000
0001
0000
,
1000
1000
1000
0000
,
1000
0000
1000
0000
,
0010
0000
0000
0000
,
0010
0000
0000
0000
,
0001
0001
0001
0000
,
1000
0000
1000
0000
,
0001
0001
0001
0000
,
1000
0000
1000
0000
,
1000
1000
1000
0000
,
0001
0000
0001
0000
,
0100
0000
0000
0000
,
0100
0000
0000
0000
,
1000
0000
0000
0000
,
1000
0000
0000
0000
,
0001
0000
0000
0000
,
0001
0000
0000
0000
,
1000
0000
0000
0000
,
1000
0000
0000
0000
,
0002
0000
0000
0003
,
;

//---------------dance-single - ----------------
#NOTES:
     dance-single:
     :
     Easy:
     5:
     0.184,0.228,0.013,0.038,0.000: // measure 1
0000
0000
0000
0000
,  // measure 2
0000
0000
0000
0000
,  // measure 3
1000
0001
1000
0000
,  // measure 4
0000
0000
0000
0000
,  // measure 5
0001
0100
0001
0000
,  // measure 6
0000
0000
0000
0000
,  // measure 7
1000
0001
1000
0000
,  // measure 8
0000
0000
0000
0000
,  // measure 9
0001
0100
1000
0100
,  // measure 10
0001
0000
0100
0010
,  // measure 11
1000
0000
0100
0010
,  // measure 12
0001
0000
1000
0100
,  // measure 13
1000
0000
0001
0100
,  // measure 14
0001
0000
0100
0010
,  // measure 15
1000
0000
0100
0010
,  // measure 16
0001
0000
1000
0100
,  // measure 17
1000
0000
0001
0100
,  // measure 18
0001
0000
0000
0001
,  // measure 19
1000
0000
0000
1000
,  // measure 20
0010
0000
0100
0001
,  // measure 21
0010
0000
0100
1000
,  // measure 22
0001
0000
0000
0001
,  // measure 23
1000
0000
0000
1000
,  // measure 24
0010
0000
0100
0001
,  // measure 25
1000
0000
1001
0000
,  // measure 26
0010
0100
0010
0000
,  // measure 27
1000
0000
0001
0000
,  // measure 28
1000
0100
1000
0000
,  // measure 29
0001
0000
1000
0000
,  // measure 30
0010
0001
0010
0000
,  // measure 31
0100
0000
0010
0000
,  // measure 32
0100
1000
0100
0000
,  // measure 33
0001
0010
0001
0000
,  // measure 34
0010
1000
0000
0100
,  // measure 35
0001
0000
1000
0000
,  // measure 36
0001
0010
0000
0100
,  // measure 37
1000
0000
0001
0000
,  // measure 38
1000
0010
0000
0100
,  // measure 39
0001
0000
1000
0000
,  // measure 40
0100
0100
1000
1000
,  // measure 41
0002
2000
0003
3000
,  // measure 42
1000
1000
0001
0001
,  // measure 43
0100
0100
1000
0000
,  // measure 44
1000
1000
0010
0010
,  // measure 45
0100
0100
0001
0000
,  // measure 46
0001
0001
1000
1000
,  // measure 47
0100
0100
0001
0000
,  // measure 48
0001
0000
1000
0000
,  // measure 49
0001
1000
0001
0000
,  // measure 50
1000
0000
0100
0010
,  // measure 51
0001
0000
0100
0010
,  // measure 52
1000
0000
0001
0100
,  // measure 53
0001
0000
1000
0100
,  // measure 54
1000
0000
0100
0010
,  // measure 55
0001
0000
0100
0010
,  // measure 56
1000
0000
0001
0100
,  // measure 57
0001
0000
1000
0100
,  // measure 58
1000
0000
0000
1000
,  // measure 59
0001
0000
0000
0001
,  // measure 60
0010
0000
0100
1000
,  // measure 61
0010
0000
0100
0001
,  // measure 62
1000
0000
0000
1000
,  // measure 63
0001
0000
0000
0001
,  // measure 64
0010
0000
0100
1000
,  // measure 65
0001
0000
1001
0000
,  // measure 66
0010
0100
0010
0000
,  // measure 67
0001
0000
1000
0000
,  // measure 68
0001
0100
0001
0000
,  // measure 69
1000
0000
0001
0000
,  // measure 70
0010
1000
0010
0000
,  // measure 71
0100
0000
0010
0000
,  // measure 72
0100
0001
0100
0000
,  // measure 73
1000
0010
1000
0000
,  // measure 74
0001
0001
0100
0010
,  // measure 75
1000
1000
0100
0000
,  // measure 76
0010
0010
0001
0100
,  // measure 77
0001
0001
1000
0000
,  // measure 78
0001
0001
0010
0100
,  // measure 79
1000
1000
0010
0000
,  // measure 80
0100
0000
0010
0000
,  // measure 81
0100
0100
0010
0000
,  // measure 82
1000
0000
1000
0000
,  // measure 83
1000
0000
0000
0000
,  // measure 84
0001
0000
0001
0000
,  // measure 85
0002
0003
0000
0000
,  // measure 86
1000
0000
1000
0000
,  // measure 87
1000
0000
0000
0000
,  // measure 88
0001
0000
0001
0000
,  // measure 89
0001
0000
0000
0000
,  // measure 90
1000
0000
0100
0000
,  // measure 91
0010
0000
0000
0000
,  // measure 92
0001
0000
0010
0000
,  // measure 93
1000
0000
0000
0000
,  // measure 94
1000
0000
0010
0000
,  // measure 95
0001
0000
0000
0000
,  // measure 96
1000
0000
0001
0000
,  // measure 97
2002
0000
0000
3003
,  // measure 98
0000
0000
0000
0000
,  // measure 99
0001
0001
1000
1000
,  // measure 100
0100
0100
0001
0000
,  // measure 101
0001
0001
0010
0010
,  // measure 102
0100
0100
1000
0000
,  // measure 103
1000
1000
0001
0001
,  // measure 104
0100
0100
1000
0000
,  // measure 105
1000
0000
0001
0000
,  // measure 106
1000
0001
1000
0000
,  // measure 107
1000
1000
0100
0010
,  // measure 108
0001
0001
0100
0000
,  // measure 109
0010
0010
1000
0100
,  // measure 110
1000
1000
0001
0000
,  // measure 111
1000
1000
0010
0100
,  // measure 112
0001
0001
0010
0000
,  // measure 113
0100
0000
0010
0000
,  // measure 114
0100
0100
0010
0000
,  // measure 115
2000
0000
0000
3000
,  // measure 116
0000
0000
0000
0000
,  // measure 117
0002
0000
0000
0003
,  // measure 118
0000
0000
0000
0000
,  // measure 119
2000
0000
0000
3000
,  // measure 120
0000
0000
0000
0000
,  // measure 121
0002
0000
0000
0003
;

//---------------dance-single - ----------------
#NOTES:
     dance-single:
     :
     Medium:
     7:
     0.331,0.384,0.197,0.042,0.000:
0000
0000
0000
0000
,
0000
0000
0000
0000
,
1000
0001
0100
0000
1000
0001
0100
0000
,
0000
0000
0000
0000
,
0001
0010
0100
0000
0001
0010
0100
0000
,
0000
0000
0000
0000
,
1000
0001
0100
0000
1000
0001
0100
0000
,
0000
0000
0000
0000
,
0001
0010
0001
0000
1000
0100
1000
0000
,
0001
1000
0001
0000
0100
0000
0010
0000
,
0001
0100
1000
0000
0010
0000
0100
0000
,
0001
1000
0001
0000
0010
0000
0100
0000
,
0011
0000
0010
0000
0001
1000
0100
0000
,
0001
1000
0001
0000
0100
0000
0010
0000
,
0001
0100
1000
0000
0010
0000
0100
0000
,
0001
1000
0001
0000
0010
0000
0100
0000
,
0011
0000
0100
0000
0001
1000
0100
0000
,
1000
0001
0000
0100
0000
0010
0100
0000
,
1000
0001
0000
0010
0000
0100
1000
0000
,
0010
0001
0010
0000
0100
0000
0001
0000
,
0100
1000
0100
0000
0010
0000
1000
0000
,
0001
1000
0000
0100
0000
0010
0100
0000
,
0001
1000
0000
0010
0000
0100
0001
0000
,
0010
1000
0100
0000
0010
0000
1000
0000
,
0001
0000
0010
0100
1001
0000
0000
0000
,
0100
0100
0011
0000
,
0001
0000
0100
0010
1000
0000
0100
0010
,
1001
0100
0100
0000
,
0001
0000
1000
0010
0100
0000
0001
0010
,
0100
1000
0001
0000
,
0100
0000
0010
1000
0100
0000
0010
0001
,
0100
0000
0010
0000
0100
0000
0001
0010
,
0100
0010
0100
1000
,
0010
1000
1000
0000
0010
0000
0100
0000
,
0001
0001
0010
0000
0100
0000
0000
0000
,
0001
1000
1000
0000
0100
0000
0010
0000
,
0001
0100
0100
0000
0010
0000
0000
0000
,
1000
1000
0010
0000
0100
0000
0010
0000
,
0100
0100
0001
0000
0010
0000
0000
0000
,
0100
0000
0100
0000
1000
0001
1000
0000
,
0002
2000
0003
3000
,
1100
1100
0011
0011
,
0001
0100
0001
0000
0010
0000
1000
0000
,
1100
0101
1100
0101
,
0010
0001
0010
0000
0100
0000
1000
0000
,
0101
1010
0101
1010
,
1000
0100
1000
0000
0001
0000
0010
0000
,
0001
0001
0010
0100
,
1000
1000
0001
0000
,
1000
0001
1000
0000
0100
0000
0010
0000
,
1000
0100
0001
0000
0010
0000
0100
0000
,
1000
0001
1000
0000
0010
0000
0100
0000
,
1010
0000
0010
0000
1000
0001
0100
0000
,
1000
0001
1000
0000
0100
0000
0010
0000
,
1000
0100
0001
0000
0010
0000
0100
0000
,
1000
0001
1000
0000
0010
0000
0100
0000
,
1010
0000
0100
0000
1000
0001
0100
0000
,
0001
1000
0000
0100
0000
0010
0100
0000
,
0001
1000
0000
0010
0000
0100
0001
0000
,
0010
1000
0010
0000
0100
0000
1000
0000
,
0100
0001
0100
0000
0010
0000
0001
0000
,
1000
0001
0000
0100
0000
0010
0100
0000
,
1000
0001
0000
0010
0000
0100
1000
0000
,
0010
0001
0100
0000
0010
0000
0001
0000
,
1000
0000
0010
0100
1001
0000
0000
0000
,
0100
0100
1010
0000
,
1000
0000
0100
0010
0001
0000
0100
0010
,
1001
0100
0100
0000
,
1000
0000
0001
0010
0100
0000
1000
0010
,
0100
0001
1000
0000
,
0100
0000
0010
0001
0100
0000
0010
1000
,
0100
0000
0010
0000
0100
0000
1000
0010
,
0100
0010
0100
0001
,
1100
0001
0100
0001
,
1000
0100
0001
0000
1000
0000
0001
0000
,
0101
1000
0100
1000
,
0001
0100
1000
0000
0001
0000
1000
0000
,
1100
0001
1100
0001
,
1000
0100
0001
0000
1000
0000
0001
0000
,
0100
0000
0010
0000
0100
0000
1000
0100
,
0001
0001
0010
0000
,
1000
0001
1000
0001
,
1000
0001
0100
0000
,
1000
0001
1000
0001
,
0200
0300
0200
0300
,
0001
1000
0001
1000
,
0001
1000
0010
0000
,
0001
1000
0001
1000
,
0001
0000
0000
0000
0100
0100
0001
0000
,
1000
1000
0100
0100
,
0010
0010
0101
0000
,
0001
0100
0010
0010
,
1010
0000
0000
0101
0000
0000
0000
0000
,
1000
0100
0010
0010
,
0001
0100
1000
0000
,
1000
0100
0001
0001
,
2002
0000
0000
3003
,
0000
0000
0000
0000
,
0101
0101
1010
1010
,
1000
0100
1000
0000
0010
0000
0001
0000
,
0101
1100
0101
1100
,
0010
1000
0010
0000
0100
0000
0001
0000
,
1100
0011
1100
0011
,
0001
0100
0001
0000
1000
0000
0010
0000
,
1000
1000
0010
0100
,
0001
0001
1000
0000
,
0101
1000
0100
1000
,
0001
0100
1000
0000
0001
0000
1000
0000
,
1100
0001
0100
0001
,
1000
0100
0001
0000
1000
0000
0001
0000
,
0101
1000
0101
1000
,
0001
0100
1000
0000
0001
0000
1000
0000
,
0100
0000
0010
0000
0100
0000
0001
0100
,
1000
1000
0010
0000
,
0002
0000
0000
0000
,
0010
1003
0010
1000
,
2000
0000
0000
0000
,
0010
3001
0010
0001
,
0002
0000
0000
0000
,
0010
1003
0010
1000
,
2001
0000
0000
0000
,
0000
0000
0000
3000
,
;

//---------------dance-single - ----------------
#NOTES:
     dance-single:
     :
     Hard:
     10:
     0.399,0.409,0.239,0.042,0.017:
0000
0000
0000
0000
,
0000
0000
0000
0000
,
1000
0000
0001
0000
1000
0100
0000
0000
1000
0000
0001
0000
1000
0100
0000
0000
,
0000
0000
0000
0000
,
0001
0000
0010
0000
0001
0100
0000
0000
0001
0000
0010
0000
0001
0100
0000
0000
,
0000
0000
0000
0000
,
1000
0000
0001
0000
1000
0100
0000
0000
1000
0000
0001
0000
1000
0100
0000
0000
,
0000
0000
0000
0000
,
0001
0000
0010
0000
0001
0100
0000
0000
0010
1000
0010
0000
0100
0000
0000
0000
,
1000
0001
0000
1000
0100
0001
0010
0001
,
1000
0100
0000
0001
0010
1000
0100
0000
,
1000
0001
0000
1000
0010
0001
0100
0000
,
1010
0100
0000
0010
1000
0001
0100
0000
,
1000
0001
0000
1000
0100
0001
0010
0001
,
1000
0100
0000
0001
0010
1000
0100
0000
,
1000
0001
0000
1000
0010
0001
0100
0000
,
1010
0100
0000
0010
1000
0001
0100
0000
,
0001
1000
0000
0100
0000
0010
0001
0100
,
0010
1000
0000
0010
1000
0100
0001
0000
,
0010
1000
0000
0010
0100
0010
1000
0000
,
0100
0001
0000
0100
0010
1000
0001
0000
,
1000
0001
0000
0100
0000
0010
1000
0100
,
0010
0001
0000
0010
0001
0100
1000
0000
,
0010
0001
0000
0100
0010
0100
0001
0000
,
1000
0000
0010
0100
1001
0000
0000
0000
,
1000
0100
0001
0000
0011
0100
0000
0010
,
0000
0100
0000
0010
0000
1000
0100
0010
,
0011
0000
0100
0000
0100
0000
0001
0100
,
0000
0010
0000
1000
0000
0100
0010
0000
,
0001
0100
1000
0000
0000
0010
0000
0100
,
0000
1000
0000
0100
0000
0010
0001
1000
,
0001
0000
0100
0000
0100
1000
0000
0010
,
0000
1000
0000
0100
0000
0010
0001
0100
,
0010
1000
0010
0000
0000
0010
0001
0000
,
1000
0100
1000
0000
0000
0100
0001
0000
,
0100
0001
0100
0000
0000
0100
1000
0000
,
0100
1000
0100
0000
0000
0010
0001
0000
,
0010
1000
0010
0000
0000
0010
0001
0000
,
1000
0100
1000
0000
0000
0100
0001
0000
,
1000
0000
0100
0000
0010
0100
0010
1000
,
2001
0002
3000
0003
,
1100
0000
1000
0100
0001
0000
1100
0000
,
0010
0001
0000
0100
0000
0010
0100
1000
,
0101
0000
0011
0000
1100
0000
0100
1000
,
0000
0010
0000
0001
0000
0100
1000
0100
,
0001
0000
0101
0000
0100
0010
0000
1000
,
0000
0100
0000
0001
0000
0010
0001
0100
,
1000
0001
0010
1000
,
1000
0010
0100
0000
,
0001
1000
0000
0001
0100
1000
0010
1000
,
0001
0100
0000
1000
0010
0001
0100
0000
,
0001
1000
0000
0001
0010
1000
0100
0000
,
0011
0100
0000
0010
0001
1000
0100
0000
,
0001
1000
0000
0001
0100
1000
0010
1000
,
0001
0100
0000
1000
0010
0001
0100
0000
,
0001
1000
0000
0001
0010
1000
0100
0000
,
0011
0100
0000
0010
0001
1000
0100
0000
,
1000
0001
0000
0100
0000
0010
1000
0100
,
0010
0001
0000
0010
0001
0100
1000
0000
,
0010
0001
0000
0010
0100
0010
0001
0000
,
0100
1000
0000
0100
0010
0001
1000
0000
,
0001
1000
0000
0100
0000
0010
0001
0100
,
0010
1000
0000
0010
1000
0100
0001
0000
,
0010
1000
0000
0100
0010
0100
1000
0000
,
0001
0000
0010
0100
1001
0000
0000
0000
,
0001
0100
1000
0000
1010
0100
0000
0010
,
0000
0100
0000
0010
0000
0001
0100
0010
,
1010
0000
0100
0000
0100
0000
1000
0100
,
0000
0010
0000
0001
0000
0100
0010
0000
,
1000
0100
0001
0000
0000
0010
0000
0100
,
0000
0001
0000
0100
0000
0010
1000
0001
,
1000
0000
0100
0000
0100
0001
0000
0010
,
0000
0001
0000
0100
0000
0010
1000
0100
,
1100
0000
0001
0000
1100
0000
0001
0010
,
1100
0000
0001
0000
1000
0100
1000
0001
,
0101
1000
0101
1000
,
0001
0100
1000
0010
0001
0000
1000
0000
,
1100
0000
0001
0000
1100
0000
0001
0010
,
1100
0000
0001
0000
1000
0100
1000
0001
,
0100
0000
0010
0000
0100
0000
1000
0001
,
0000
1000
0001
0100
0010
1000
0001
0000
,
1000
0001
1000
0100
,
1000
0010
0001
0000
,
1000
0001
1000
0100
,
2000
0000
3000
0002
0000
0003
0000
0000
,
0001
1000
0001
0100
,
0001
0010
1000
0000
,
0001
1000
0001
0100
,
0001
0000
0000
0010
0100
1000
0001
0000
,
1000
1100
0100
0110
,
0010
0101
0010
0000
,
0001
1100
0010
0110
,
1010
0000
0000
0101
0000
0000
0000
0000
,
1100
0100
0110
0010
,
0001
0000
0100
0010
1000
0000
0000
0000
,
1000
0000
1100
0000
0001
0000
0101
0100
,
2002
0000
0000
3000
,
1000
0000
0000
0003
,
1100
0000
0001
0000
1100
0000
0001
0010
,
1100
0000
0001
0000
1000
0100
1000
0001
,
0101
1000
0101
1000
,
0001
0100
1000
0010
0001
0000
1000
0000
,
1100
0000
0001
0000
1100
0000
0001
0010
,
1100
0000
0001
0000
1000
0100
1000
0001
,
0100
0000
0010
0000
0100
0000
1000
0001
,
0000
1000
0001
0100
0010
1000
0001
0000
,
0101
0000
1000
0000
0101
0000
1000
0010
,
0101
0000
1000
0000
0010
0100
0001
1000
,
1100
0001
1100
0001
,
1000
0100
1000
0010
0001
0000
0100
0000
,
0101
0000
1000
0000
0101
0000
1000
0010
,
0101
0000
1000
0000
0100
0010
1000
0001
,
0100
0000
0010
0000
1000
0000
0001
1000
,
0000
1000
0001
0100
0010
0001
1000
0000
,
0012
1000
0010
1000
,
0010
0000
1003
0000
0010
0100
1000
0000
,
2010
0001
0010
0001
,
0010
0000
3001
0000
0010
0100
0001
0000
,
0012
1000
0010
1000
,
0010
0000
1003
0000
0010
0100
1000
0000
,
2001
0000
0000
0000
0000
0100
0000
0001
,
0000
0000
0001
3001
,
;

//---------------dance-double - ----------------
#NOTES:
     dance-double:
     :
     Easy:
     5:
     0.184,0.228,0.013,0.038,0.000:
00000000
00000000
00000000
00000000
,
00000000
00000000
00000000
00000000
,
10000000
00010000
10000000
00000000
,
00000000
00000000
00000000
00000000
,
01000000
00001000
01000000
00000000
,
00000000
00000000
00000000
00000000
,
00010000
00000100
00010000
00000000
,
00000000
00000000
00000000
00000000
,
00000010
00000001
00000010
00000100
,
00001000
00000000
00000010
00001000
,
00000100
00000000
00010000
00001000
,
01000000
00000000
00100000
10000000
,
01000000
00000000
00100000
00001000
,
00100000
00000000
00010000
01000000
,
00001000
00000000
00010000
00000100
,
00000010
00000000
00000001
00000010
,
00000001
00000000
00000100
00000010
,
00001000
00000000
00000000
00001000
,
00000100
00000000
00000000
00000100
,
00010000
00000000
00001000
00010000
,
00100000
00000000
10000000
01000000
,
00010000
00000000
00000000
00010000
,
00001000
00000000
00000000
00001000
,
00010000
00000000
00000100
00000010
,
00000001
00000000
00001001
00000000
,
00000010
00000100
00000010
00000000
,
00001000
00000000
00000100
00000000
,
00010000
00001000
00010000
00000000
,
00001000
00000000
01000000
00000000
,
00100000
10000000
00100000
00000000
,
10000000
00000000
01000000
00000000
,
00100000
00010000
00100000
00000000
,
00001000
00010000
00001000
00000000
,
00100000
00001000
00000000
00010000
,
00000100
00000000
00001000
00000000
,
00000001
00000010
00000000
00000100
,
00001000
00000000
00000010
00000000
,
00010000
00001000
00000000
01000000
,
00100000
00000000
10000000
00000000
,
01000000
01000000
00100000
00100000
,
00002000
00020000
00003000
00030000
,
00001000
00001000
00100000
00100000
,
00010000
00010000
00001000
00000000
,
00010000
00010000
00000010
00000010
,
00001000
00001000
00010000
00000000
,
00001000
00001000
01000000
01000000
,
00010000
00010000
00001000
00000000
,
01000000
00000000
00100000
00000000
,
00001000
00010000
00000100
00000000
,
00001000
00000000
00000010
00001000
,
00000100
00000000
00010000
00001000
,
01000000
00000000
00100000
10000000
,
01000000
00000000
00100000
00001000
,
00100000
00000000
00010000
01000000
,
00001000
00000000
00010000
00000100
,
00000010
00000000
00000001
00000010
,
00000001
00000000
00000100
00000010
,
00001000
00000000
00000000
00001000
,
00000100
00000000
00000000
00000100
,
00010000
00000000
00001000
00010000
,
00100000
00000000
10000000
01000000
,
00010000
00000000
00000000
00010000
,
00001000
00000000
00000000
00001000
,
00010000
00000000
00000100
00000010
,
00000001
00000000
00001001
00000000
,
00000010
00000100
00000010
00000000
,
00001000
00000000
00000100
00000000
,
00010000
00001000
00010000
00000000
,
00001000
00000000
01000000
00000000
,
00100000
10000000
00100000
00000000
,
10000000
00000000
01000000
00000000
,
00100000
00010000
00100000
00000000
,
00001000
00010000
00001000
00000000
,
00010000
00010000
00100000
01000000
,
00010000
00010000
10000000
00000000
,
01000000
01000000
00100000
00001000
,
00010000
00010000
00000100
00000000
,
00000010
00000010
00000001
00000100
,
00000010
00000010
00001000
00000000
,
00000100
00000000
00010000
00000000
,
00001000
00001000
00010000
00000000
,
01000000
00000000
01000000
00000000
,
01000000
00000000
00000000
00000000
,
00000100
00000000
00000100
00000000
,
00000200
00000300
00000000
00000000
,
00100000
00000000
00100000
00000000
,
00100000
00000000
00000000
00000000
,
00001000
00000000
00001000
00000000
,
00001000
00000000
00000000
00000000
,
00010000
00000000
00100000
00000000
,
00010000
00000000
00000000
00000000
,
00001000
00000000
00000010
00000000
,
00001000
00000000
00000000
00000000
,
00010000
00000000
01000000
00000000
,
00010000
00000000
00000000
00000000
,
00001000
00000000
00000100
00000000
,
00022000
00000000
00000000
00033000
,
00000000
00000000
00000000
00000000
,
00001000
00001000
00100000
00100000
,
00010000
00010000
00001000
00000000
,
00010000
00010000
00000010
00000010
,
00001000
00001000
00010000
00000000
,
00001000
00001000
01000000
01000000
,
00010000
00010000
00001000
00000000
,
01000000
00000000
00100000
00000000
,
00001000
00010000
00000100
00000000
,
00010000
00010000
00000010
00000010
,
00001000
00001000
00010000
00000000
,
00001000
00001000
00100000
00100000
,
00010000
00010000
00001000
00000000
,
00010000
00010000
00000100
00000100
,
00001000
00001000
00010000
00000000
,
00000100
00000000
00000010
00000000
,
00010000
00001000
01000000
00000000
,
00200000
00000000
00000000
00300000
,
00000000
00000000
00000000
00000000
,
00020000
00000000
00000000
00030000
,
00000000
00000000
00000000
00000000
,
00002000
00000000
00000000
00003000
,
00000000
00000000
00000000
00000000
,
00000020
00000000
00000000
00000030
,
;

//---------------dance-double - ----------------
#NOTES:
     dance-double:
     :
     Medium:
     7:
     0.331,0.384,0.197,0.042,0.000:
00000000
00000000
00000000
00000000
,
00000000
00000000
00000000
00000000
,
10000000
00010000
01000000
00000000
10000000
00010000
01000000
00000000
,
00000000
00000000
00000000
00000000
,
00001000
01000000
00010000
00000000
00001000
01000000
00010000
00000000
,
00000000
00000000
00000000
00000000
,
00001000
00010000
00000100
00000000
00001000
00010000
00000100
00000000
,
00000000
00000000
00000000
00000000
,
00001000
00000100
00001000
00000000
00000001
00000010
00000001
00000000
,
00001000
00000001
00001000
00000000
00000100
00000000
00001000
00000000
,
00010000
00100000
01000000
00000000
10000000
00000000
01000000
00000000
,
00010000
10000000
00010000
00000000
01000000
00000000
00010000
00000000
,
00011000
00000000
00001000
00000000
00000010
00000001
00000100
00000000
,
00001000
00000001
00001000
00000000
00000100
00000000
00001000
00000000
,
00010000
00100000
01000000
00000000
10000000
00000000
01000000
00000000
,
00010000
10000000
00010000
00000000
01000000
00000000
00010000
00000000
,
00011000
00000000
00001000
00000000
00000010
00000001
00000100
00000000
,
00000010
00001000
00000000
00000100
00000000
00010000
00001000
00000000
,
01000000
00010000
00000000
00100000
00000000
01000000
10000000
00000000
,
00100000
10000000
00100000
00000000
01000000
00000000
00001000
00000000
,
00100000
00001000
00100000
00000000
00001000
00000000
00000100
00000000
,
00000010
00001000
00000000
00000100
00000000
00010000
00001000
00000000
,
01000000
00010000
00000000
00100000
00000000
01000000
10000000
00000000
,
00100000
10000000
00100000
00000000
01000000
00000000
00001000
00000000
,
00010000
00000000
00001000
00010000
00001100
00000000
00000000
00000000
,
00000001
00000001
00000011
00000000
,
00000001
00000000
00000100
00000010
00001000
00000000
00000100
00010000
,
00010100
00001000
00001000
00000000
,
00010000
00000000
00100000
10000000
01000000
00000000
00100000
00010000
,
01000000
00001000
00010000
00000000
,
00000100
00000000
00000010
00000001
00000100
00000000
00000010
00001000
,
00000100
00000000
00010000
00000000
00001000
00000000
00010000
00100000
,
01000000
00100000
10000000
01000000
,
00100000
00010000
00010000
00000000
00100000
00000000
01000000
00000000
,
00010000
00010000
00001000
00000000
00000010
00000000
00000000
00000000
,
00000001
00000100
00000100
00000000
00000010
00000000
00010000
00000000
,
00001000
00100000
00100000
00000000
01000000
00000000
00000000
00000000
,
10000000
10000000
00100000
00000000
01000000
00000000
00001000
00000000
,
00010000
00010000
00000010
00000000
00000100
00000000
00000000
00000000
,
00000001
00000000
00000001
00000000
00001000
00000010
00001000
00000000
,
00000200
00020000
00000300
00030000
,
00011000
00011000
00110000
00110000
,
00010000
01000000
00010000
00000000
00100000
00000000
10000000
00000000
,
11000000
01010000
11000000
01010000
,
00010000
00001000
00000010
00000000
00000100
00000000
00000001
00000000
,
00000101
00001010
00000101
00001010
,
00000100
00010000
00000100
00000000
00001000
00000000
01000000
00000000
,
00010000
00010000
00100000
01000000
,
10000000
10000000
00010000
00000000
,
00001000
00000001
00001000
00000000
00000100
00000000
00001000
00000000
,
00010000
00100000
01000000
00000000
10000000
00000000
01000000
00000000
,
00010000
10000000
00010000
00000000
01000000
00000000
00010000
00000000
,
00011000
00000000
00001000
00000000
00000010
00000001
00000100
00000000
,
00001000
00000001
00001000
00000000
00000100
00000000
00001000
00000000
,
00010000
00100000
01000000
00000000
10000000
00000000
01000000
00000000
,
00010000
10000000
00010000
00000000
01000000
00000000
00010000
00000000
,
00011000
00000000
00001000
00000000
00000010
00000001
00000100
00000000
,
00000010
00001000
00000000
00000100
00000000
00010000
00001000
00000000
,
01000000
00010000
00000000
00100000
00000000
01000000
10000000
00000000
,
00100000
10000000
00100000
00000000
01000000
00000000
00001000
00000000
,
00100000
00001000
00100000
00000000
00001000
00000000
00000100
00000000
,
00000010
00001000
00000000
00000100
00000000
00010000
00001000
00000000
,
01000000
00010000
00000000
00100000
00000000
01000000
10000000
00000000
,
00100000
10000000
00100000
00000000
01000000
00000000
00001000
00000000
,
00010000
00000000
00001000
00010000
00001100
00000000
00000000
00000000
,
00000001
00000001
00000011
00000000
,
00000001
00000000
00000100
00000010
00001000
00000000
00000100
00010000
,
00010100
00001000
00001000
00000000
,
00010000
00000000
00100000
10000000
01000000
00000000
00100000
00010000
,
01000000
00001000
00010000
00000000
,
00000100
00000000
00000010
00000001
00000100
00000000
00000010
00001000
,
00000100
00000000
00010000
00000000
00001000
00000000
00010000
00100000
,
01000000
00100000
10000000
01000000
,
00110000
00001000
00010000
00000100
,
00000010
00000001
00000100
00000000
00000010
00000000
00001000
00000000
,
00010010
00001000
01000000
00100000
,
10000000
01000000
00010000
00000000
00001000
00000000
00010000
00000000
,
00001100
00000001
00001100
00000001
,
00000001
00000100
00001000
00000000
00010000
00000000
00001000
00000000
,
01000000
00000000
00100000
00000000
01000000
00000000
00010000
01000000
,
10000000
01000000
00010000
00000000
,
00001000
00010000
00001000
00010000
,
00000100
00010000
00001000
00000000
,
00010000
00001000
00010000
00001000
,
00200000
00300000
02000000
03000000
,
00001000
00010000
00001000
00010000
,
00000010
00010000
00001000
00000000
,
00010000
00001000
00010000
00001000
,
01000000
00000000
00000000
00000000
00100000
00100000
10000000
00000000
,
01000000
01000000
00100000
00100000
,
00001000
00001000
00011000
00000000
,
00000100
00001000
00000010
00000010
,
00000011
00000000
00000000
00001100
00000000
00000000
00000000
00000000
,
00010000
00001000
01000000
01000000
,
00010000
01000000
00100000
00000000
,
10000000
01000000
00010000
00001000
,
00022000
00000000
00000000
00033000
,
00000000
00000000
00000000
00000000
,
00011000
00011000
00110000
00110000
,
00010000
01000000
00010000
00000000
00100000
00000000
10000000
00000000
,
11000000
01010000
11000000
01010000
,
00010000
00001000
00000010
00000000
00000100
00000000
00000001
00000000
,
00000101
00001010
00000101
00001010
,
00000100
00010000
00000100
00000000
00001000
00000000
01000000
00000000
,
00010000
00010000
00100000
01000000
,
10000000
10000000
00010000
00000000
,
00110000
00001000
00010000
00000100
,
00000010
00000001
00000100
00000000
00000010
00000000
00001000
00000000
,
00010010
00001000
01000000
00100000
,
10000000
01000000
00010000
00000000
00001000
00000000
00010000
00000000
,
00001100
00000001
00001100
00000001
,
00000001
00000100
00001000
00000000
00010000
00000000
00001000
00000000
,
01000000
00000000
00100000
00000000
01000000
00000000
00010000
01000000
,
10000000
01000000
00010000
00000000
,
00200000
00000000
00000000
00000000
,
00001000
00310000
00001000
00010000
,
00000200
00000000
00000000
00000000
,
00001000
00010300
00001000
00010000
,
00002000
00000000
00000000
00000000
,
00010000
01003000
00010000
01000000
,
20010000
00000000
00000000
00000000
,
00000000
00000000
00000000
30000000
,
;

//---------------dance-double - ----------------
#NOTES:
     dance-double:
     :
     Hard:
     10:
     0.392,0.410,0.202,0.050,0.017:
00000000
00000000
00000000
00000000
,
00000000
00000000
00000000
00000000
,
10000000
00000000
00010000
00000000
10000000
01000000
00000000
00000000
10000000
00000000
00010000
00000000
10000000
01000000
00000000
00000000
,
00000000
00000000
00000000
00000000
,
00100000
00000000
00010000
00000000
00001000
01000000
00000000
00000000
00100000
00000000
00010000
00000000
00001000
01000000
00000000
00000000
,
00000000
00000000
00000000
00000000
,
00010000
00000000
00001000
00000000
00000100
00001000
00000000
00000000
00010000
00000000
00001000
00000000
00000100
00001000
00000000
00000000
,
00000000
00000000
00000000
00000000
,
00000001
00000000
00000010
00000000
00000001
00000100
00000000
00000000
00000010
00001000
00000010
00000000
00000100
00000000
00000000
00000000
,
00000001
00001000
00000000
00000001
00000100
00001000
00000010
00010000
,
00000100
00001000
00000000
00010000
00100000
10000000
01000000
00000000
,
10000000
00010000
00000000
10000000
00100000
00010000
01000000
00000000
,
01010000
00001000
00000000
00010000
00000100
00001000
00000010
00000000
,
00000001
00001000
00000000
00000001
00000100
00001000
00000010
00010000
,
00000100
00001000
00000000
00010000
00100000
10000000
01000000
00000000
,
10000000
00010000
00000000
10000000
00100000
00010000
01000000
00000000
,
01010000
00001000
00000000
00010000
00000100
00001000
00000010
00000000
,
00000001
00001000
00000000
00000100
00000000
00001000
00010000
01000000
,
00100000
10000000
00000000
00100000
10000000
01000000
00010000
00000000
,
00001000
00010000
00000000
00010000
00001000
00000010
00000001
00000000
,
00000001
00000100
00000000
00000100
00001000
00010000
00100000
00000000
,
10000000
00010000
00000000
01000000
00000000
00010000
00001000
00000100
,
00000010
00000001
00000000
00000010
00000001
00000100
00000001
00000000
,
00000010
00001000
00000000
00000100
00010000
00000100
00001000
00000000
,
00010000
00000000
01000000
00100000
10010000
00000000
00000000
00000000
,
10000000
01000000
00010000
00000000
00001100
00000001
00000000
00000100
,
00000000
00000010
00000000
00000100
00000000
00000010
00000100
00001000
,
00110000
00000000
01000000
00000000
01000000
00000000
00100000
10000000
,
00000000
01000000
00000000
00100000
00000000
00010000
00100000
00000000
,
00001000
00000010
00000001
00000000
00000000
00000100
00000000
00000010
,
00000000
00001000
00000000
00000001
00000000
00000100
00001000
00010000
,
00100000
00000000
10000000
00000000
10000000
01000000
00000000
00100000
,
00000000
00001000
00000000
00010000
00000000
00001000
01000000
00100000
,
10000000
01000000
10000000
00000000
00000000
00010000
00100000
00000000
,
00001000
00010000
00001000
00000000
00000000
00000100
00000010
00000000
,
00000001
00000100
00000001
00000000
00000000
00000010
00001000
00000000
,
00000100
00010000
00000100
00000000
00000000
00001000
01000000
00000000
,
00010000
00100000
00010000
00000000
00000000
00100000
10000000
00000000
,
01000000
10000000
01000000
00000000
00000000
01000000
00010000
00000000
,
00001000
00000000
00000010
00000000
00000100
00001000
00000100
00000010
,
00020000
00002000
00030000
00003000
,
00110000
00000000
00010000
10000000
01000000
00000000
11000000
00000000
,
00100000
00010000
00000000
00001000
00000000
00010000
00001000
00000100
,
00000011
00000000
00000101
00000000
00001100
00000000
00000100
00010000
,
00000000
00001000
00000000
00010000
00000000
00100000
10000000
01000000
,
00010000
00000000
11000000
00000000
00100000
01000000
00000000
00001000
,
00000000
00010000
00000000
01000000
00000000
00100000
00010000
00001000
,
00000100
00000010
00001000
00000001
,
00000100
00000010
00001000
00000000
,
00000001
00001000
00000000
00000001
00000100
00001000
00000010
00010000
,
00000100
00001000
00000000
00010000
00100000
10000000
01000000
00000000
,
10000000
00010000
00000000
10000000
00100000
00010000
01000000
00000000
,
01010000
00001000
00000000
00010000
00000100
00001000
00000010
00000000
,
00000001
00001000
00000000
00000001
00000100
00001000
00000010
00010000
,
00000100
00001000
00000000
00010000
00100000
10000000
01000000
00000000
,
10000000
00010000
00000000
10000000
00100000
00010000
01000000
00000000
,
01010000
00001000
00000000
00010000
00000100
00001000
00000010
00000000
,
00000001
00001000
00000000
00000100
00000000
00001000
00010000
01000000
,
00100000
10000000
00000000
00100000
10000000
01000000
00010000
00000000
,
00001000
00010000
00000000
00010000
00001000
00000010
00000001
00000000
,
00000001
00000100
00000000
00000100
00001000
00010000
00100000
00000000
,
10000000
00010000
00000000
01000000
00000000
00010000
00001000
00000100
,
00000010
00000001
00000000
00000010
00000001
00000100
00000001
00000000
,
00000010
00001000
00000000
00000100
00010000
00000100
00001000
00000000
,
00010000
00000000
01000000
00100000
10010000
00000000
00000000
00000000
,
10000000
01000000
00010000
00000000
00001100
00000001
00000000
00000100
,
00000000
00000010
00000000
00000100
00000000
00000010
00000100
00001000
,
00110000
00000000
01000000
00000000
01000000
00000000
00100000
10000000
,
00000000
01000000
00000000
00100000
00000000
00010000
00100000
00000000
,
00001000
00000010
00000001
00000000
00000000
00000100
00000000
00000010
,
00000000
00001000
00000000
00000001
00000000
00000100
00001000
00010000
,
00100000
00000000
10000000
00000000
10000000
01000000
00000000
00100000
,
00000000
00001000
00000000
00010000
00000000
00001000
01000000
00100000
,
10000000
01000000
10000000
00000000
00000000
00010000
00100000
00000000
,
00001000
00010000
00001000
00000000
00000000
00000100
00000010
00000000
,
00000001
00000100
00000001
00000000
00000000
00000010
00001000
00000000
,
00000100
00010000
00000100
00000000
00000000
00001000
01000000
00000000
,
00010000
00100000
00010000
00000000
00000000
00100000
10000000
00000000
,
01000000
10000000
01000000
00000000
00000000
01000000
00010000
00000000
,
00001000
00000000
00000010
00000000
00000100
00001000
00000100
00000010
,
00020000
00002000
00030000
00003000
,
00010000
00001000
00100000
00010000
,
01000000
00001000
00010000
00000000
,
01000000
00010000
00100000
00001000
,
00020000
00000000
00030000
00002000
00000000
00003000
00000000
00000000
,
00001000
00010000
00000010
00001000
,
00000100
00010000
00001000
00000000
,
00000100
00001000
00000010
00010000
,
00001000
00000000
00000000
00010000
00100000
00010000
00001000
00000000
,
01000000
01010000
00100000
10100000
,
01000000
11000000
00100000
00000000
,
00001000
00011000
00000100
00001100
,
00000011
00000000
00000000
00000101
00000000
00000000
00000000
00000000
,
00001010
00010000
00011000
01000000
,
00010000
00000000
10000000
01000000
00100000
00000000
00000000
00000000
,
00010000
00000000
00110000
00000000
00001000
00000000
00011000
00000100
,
00020200
00000000
00000000
00000300
,
00000100
00000000
00000000
00030000
,
00001100
00000000
00000001
00000000
00001100
00000000
00000001
00000100
,
00001100
00000000
00010000
00000000
00001000
00010000
00100000
10000000
,
01010000
10000000
01010000
10000000
,
01000000
00010000
00001000
00000010
00000100
00000000
00001000
00000000
,
00000101
00000000
00001000
00000000
00000101
00000000
00001000
00000010
,
00000101
00000000
00000001
00000000
00001000
00000100
00001000
00000010
,
00010000
00000000
00001000
00000000
00100000
00000000
00010000
10000000
,
00000000
10000000
00100000
01000000
00100000
10000000
00010000
00000000
,
01010000
00000000
10000000
00000000
01010000
00000000
10000000
01000000
,
01010000
00000000
00001000
00000000
00010000
00001000
00000010
00000001
,
00001100
00000001
00001100
00000001
,
00000100
00001000
00010000
00100000
01000000
00000000
00010000
00000000
,
11000000
00000000
00010000
00000000
11000000
00000000
00010000
00100000
,
11000000
00000000
10000000
00000000
00010000
01000000
00010000
00100000
,
01000000
00000000
00010000
00000000
00001000
00000000
00000010
00000001
,
00000000
00000001
00000100
00000010
00001000
00000100
00010000
00000000
,
00001200
00010000
00001000
00010000
,
00001000
00000000
00010300
00000000
00001000
01000000
00100000
00000000
,
21000000
00100000
01000000
00100000
,
01000000
00000000
30100000
00000000
01000000
00010000
00100000
00000000
,
00021000
00000100
00001000
00000100
,
00001000
00000000
00030100
00000000
00001000
00000100
00000010
00000000
,
00001002
00000000
00000000
00000000
00000000
00000100
00000000
00001000
,
00000000
00000000
00000000
00000000
00001000
00000000
00001000
00000003
,
;
