#TITLE:Nothin' On You (feat. Bruno Mars);
#SUBTITLE:Full Song;
#ARTIST:B.o.B;
#TITLETRANSLIT:;
#SUBTITLETRANSLIT:;
#ARTISTTRANSLIT:;
#CREDIT:;
#BANNER:Nothin' On You (feat. Bruno Mars) (Full Song).png;
#BACKGROUND:Nothin' On You (feat. Bruno Mars) (Full Song)-bg.png;
#LYRICSPATH:;
#CDTITLE:./CDTITLES/DanceDanceRevolution II.png;
#MUSIC:Nothin' On You (feat. Bruno Mars) (Full Song).ogg;
#OFFSET:0.000;
#SAMPLESTART:114.760;
#SAMPLELENGTH:15.000;
#SELECTABLE:YES;
#DISPLAYBPM:104.000;
#BPMS:0.000=103.999;
#STOPS:;
#BGCHANGES:;

//---------------dance-single - ----------------
#NOTES:
     dance-single:
     :
     Beginner:
     1:
     0.096,0.142,0.005,0.082,0.000:
0000
0000
0000
0000
,
0000
0000
0000
0000
,
0000
0000
0000
0000
,
0000
0000
0000
0000
,
0000
0000
0000
0000
,
0000
0000
0000
0000
,
0000
0000
0000
0000
,
0000
0000
0000
0000
,
0001
0000
0000
0000
,
1000
0000
0000
0000
,
0001
0000
0000
0000
,
0001
0000
0000
0000
,
1000
0000
0000
0000
,
1000
0000
0000
0000
,
0010
0000
0000
0000
,
0010
0000
0000
0000
,
0001
0000
0000
0000
,
0001
0000
0000
0000
,
2000
3000
0000
0000
,
1000
0000
0000
0000
,
0002
0003
0000
0000
,
0001
0000
0000
0000
,
0001
0001
0000
0000
,
1000
1000
0000
0000
,
0001
0001
0000
0000
,
0000
0000
0000
0000
,
1000
1000
1000
1000
,
1000
0000
1000
0000
,
0001
0001
0001
0001
,
0001
0000
0001
0000
,
0002
0000
0003
0000
,
0001
0000
0000
0000
,
2000
0000
3000
0000
,
1000
0000
0000
0000
,
0001
0001
0001
0001
,
0001
0000
0001
0000
,
1000
1000
1000
1000
,
1000
0000
1000
0000
,
2000
0000
3000
0000
,
1000
0000
0000
0000
,
0002
0000
0003
0000
,
0001
0000
0000
0000
,
0001
0000
0001
0000
,
0010
0000
0010
0000
,
0001
0000
0001
0000
,
0010
0000
0010
0000
,
1000
0000
1000
0000
,
0001
0000
0001
0000
,
0001
0000
0000
0000
,
1001
0000
0000
0000
,
0002
0003
0000
0000
,
0001
0000
0000
0000
,
2000
3000
0000
0000
,
1000
0000
0000
0000
,
1000
1000
0000
0000
,
0001
0001
0000
0000
,
0010
0010
0000
0000
,
0000
0000
0000
0000
,
1000
1000
1000
1000
,
1000
0000
1000
0000
,
0001
0001
0001
0001
,
0001
0000
0001
0000
,
0002
0000
0003
0000
,
0001
0000
0000
0000
,
2000
0000
3000
0000
,
1000
0000
0000
0000
,
0001
0001
0001
0001
,
0001
0000
0001
0000
,
1000
1000
1000
1000
,
1000
0000
1000
0000
,
2000
0000
3000
0000
,
1000
0000
0000
0000
,
0002
0000
0003
0000
,
0001
0000
0000
0000
,
2000
0000
0000
0000
,
0000
3000
0000
0000
,
0002
0000
0000
0000
,
0000
0003
0000
0000
,
2000
0000
0000
0000
,
0000
3000
0000
0000
,
2000
0000
0000
3000
,
0000
0000
0000
0000
,
1000
1000
1000
1000
,
1000
0000
1000
0000
,
0001
0001
0001
0001
,
0001
0000
0001
0000
,
0002
0000
0003
0000
,
0001
0000
0000
0000
,
2000
0000
3000
0000
,
1000
0000
0000
0000
,
;

//---------------dance-single - ----------------
#NOTES:
     dance-single:
     :
     Easy:
     3:
     0.141,0.163,0.005,0.119,0.000: // measure 1
0000
0000
0000
0000
,  // measure 2
0000
0000
0000
0000
,  // measure 3
0000
0000
0000
0000
,  // measure 4
0000
0000
0000
0000
,  // measure 5
0000
0000
0000
0000
,  // measure 6
0000
0000
0000
0000
,  // measure 7
0000
0000
0000
0000
,  // measure 8
0000
0000
0000
0000
,  // measure 9
0000
0001
0001
0001
,  // measure 10
0000
1000
1000
1000
,  // measure 11
0001
0000
1000
0000
,  // measure 12
0100
0000
0010
0000
,  // measure 13
0001
0000
0010
0000
,  // measure 14
0100
0000
1000
0000
,  // measure 15
0001
0000
0100
0000
,  // measure 16
0010
0000
1000
0000
,  // measure 17
0001
0000
1000
0000
,  // measure 18
0100
0000
0000
0000
,  // measure 19
2000
3000
2000
3000
,  // measure 20
0001
0000
0100
0000
,  // measure 21
0002
0003
0002
0003
,  // measure 22
1000
0000
0100
0000
,  // measure 23
0001
0000
0000
0001
,  // measure 24
1000
0000
0000
1000
,  // measure 25
0001
0100
0000
0000
,  // measure 26
2000
3000
0002
0003
,  // measure 27
1000
0001
1000
0001
,  // measure 28
1000
0000
0010
0000
,  // measure 29
0100
0010
1000
0001
,  // measure 30
0010
0100
0010
0000
,  // measure 31
0002
0000
0003
0000
,  // measure 32
0010
0010
0100
0000
,  // measure 33
2000
0000
3000
0000
,  // measure 34
1000
0001
0100
0000
,  // measure 35
0001
1000
0001
1000
,  // measure 36
0001
0000
0010
0000
,  // measure 37
0100
0010
0001
1000
,  // measure 38
0010
0100
0010
0000
,  // measure 39
2000
0000
3000
0000
,  // measure 40
0010
0010
0100
0000
,  // measure 41
0002
0000
0003
0000
,  // measure 42
0001
1000
0100
0000
,  // measure 43
0001
0010
0001
0000
,  // measure 44
0010
0100
0010
0000
,  // measure 45
0001
0100
0001
0000
,  // measure 46
0010
1000
0010
0000
,  // measure 47
1000
0000
1000
0000
,  // measure 48
0001
0000
0001
0000
,  // measure 49
0001
1000
0001
0000
,  // measure 50
1001
0000
0001
1000
,  // measure 51
0002
0003
0002
0003
,  // measure 52
1000
0000
0100
0000
,  // measure 53
2000
3000
2000
3000
,  // measure 54
0001
0000
0100
0000
,  // measure 55
1000
0000
0000
1000
,  // measure 56
0001
0000
0000
0001
,  // measure 57
1000
0100
0000
0000
,  // measure 58
0002
0003
2000
3000
,  // measure 59
0001
1000
0001
1000
,  // measure 60
0001
0000
0010
0000
,  // measure 61
0100
0010
0001
1000
,  // measure 62
0010
0100
0010
0000
,  // measure 63
2000
0000
3000
0000
,  // measure 64
0010
0010
0100
0000
,  // measure 65
0002
0000
0003
0000
,  // measure 66
0001
1000
0100
0000
,  // measure 67
1000
0001
1000
0001
,  // measure 68
1000
0000
0010
0000
,  // measure 69
0100
0010
1000
0001
,  // measure 70
0010
0100
0010
0000
,  // measure 71
0002
0000
0003
0000
,  // measure 72
0010
0010
0100
0000
,  // measure 73
2000
0000
3000
0000
,  // measure 74
1000
0001
0100
0000
,  // measure 75
2000
0000
0000
0000
,  // measure 76
0000
3000
0001
0000
,  // measure 77
0002
0000
0000
0000
,  // measure 78
0000
0003
1000
0000
,  // measure 79
2000
0000
0000
0000
,  // measure 80
0000
3000
0001
0000
,  // measure 81
2000
0000
0000
3000
,  // measure 82
1000
0001
0100
0000
,  // measure 83
0001
1000
0001
1000
,  // measure 84
0001
0000
0100
0000
,  // measure 85
0010
0100
0001
1000
,  // measure 86
0100
0010
0100
0000
,  // measure 87
2000
0000
3000
0000
,  // measure 88
0100
0100
0010
0000
,  // measure 89
0002
0000
0003
0000
,  // measure 90
0001
1000
0010
0000
;

//---------------dance-single - ----------------
#NOTES:
     dance-single:
     :
     Medium:
     6:
     0.222,0.265,0.005,0.128,0.000:
0000
0000
0000
0000
,
0000
0000
0000
0000
,
0000
0000
0000
0000
,
0000
0000
0000
0000
,
0000
0000
0000
0000
,
0000
0000
0000
0000
,
0000
0000
0000
0000
,
0000
0000
0000
0000
,
0000
1000
0000
0001
0000
0100
0001
0000
,
0000
0001
0000
1000
0000
0010
1000
0000
,
0001
0100
0001
0000
1000
0000
0010
0000
,
0100
0001
0010
0000
0100
0000
1000
0000
,
0001
1000
0100
0000
0010
0000
0001
0000
,
0100
0001
0100
0000
0010
0000
1000
0000
,
0001
0010
0001
0000
1000
0000
1000
0000
,
0010
0100
0010
0000
0001
0000
0001
0000
,
1000
0100
1000
0000
0010
0000
0010
0000
,
0100
0001
1000
0000
0100
0000
0000
0000
,
0002
1003
0200
1300
,
0001
1000
0001
0000
,
2000
3001
0200
0301
,
1000
0001
1000
0000
,
0001
0010
0001
0000
0000
1000
0100
0000
,
1000
0010
1000
0000
0000
0100
0001
0000
,
0001
0010
0100
0000
0010
0100
1000
0000
,
2000
3002
2003
3000
,
0001
0000
0001
0000
1000
0100
1000
0000
,
1000
0001
0100
0000
0010
0000
1000
0000
,
0100
1000
0001
0010
,
0001
0001
0100
0000
,
0002
1000
0003
1000
,
0010
0010
0100
0000
,
2000
0001
3000
0100
,
0001
1000
0100
0000
,
1000
0000
1000
0000
0001
0100
0001
0000
,
0001
1000
0100
0000
0010
0000
0001
0000
,
0100
0001
1000
0010
,
1000
1000
0100
0000
,
2000
0001
3000
0001
,
0010
0010
0100
0000
,
0002
1000
0003
0100
,
1000
0001
0100
0000
,
1000
0000
0001
0000
0010
0001
0000
0000
,
0001
0000
0100
0000
0010
1000
0000
0000
,
0001
0000
1000
0000
0001
0100
0000
0000
,
0010
0000
0100
0000
0001
1000
0000
0000
,
0001
0001
0100
0100
,
1000
1000
0100
0100
,
0001
0100
0010
0000
1000
0010
0100
0000
,
1001
0000
0000
0000
0001
1000
0001
0000
,
2000
3001
0200
0301
,
1000
0001
1000
0000
,
0002
1003
0200
1300
,
0001
1000
0001
0000
,
1000
0010
1000
0000
0000
0001
0100
0000
,
0001
0010
0001
0000
0000
0100
1000
0000
,
1000
0010
0100
0000
0010
0100
0001
0000
,
0002
2003
3002
0003
,
1000
0000
1000
0000
0001
0100
0001
0000
,
0001
1000
0100
0000
0010
0000
0001
0000
,
0100
0001
1000
0010
,
1000
1000
0100
0000
,
2000
0001
3000
0001
,
0010
0010
0100
0000
,
0002
1000
0003
0100
,
1000
0001
0100
0000
,
0001
0000
0001
0000
1000
0100
1000
0000
,
1000
0001
0100
0000
0010
0000
1000
0000
,
0100
1000
0001
0010
,
0001
0001
0100
0000
,
0002
1000
0003
1000
,
0010
0010
0100
0000
,
2000
0001
3000
0100
,
0001
1000
0100
0000
,
0002
0000
0100
0100
,
0000
0003
0010
0000
,
2000
0000
0001
0001
,
0000
3000
0100
0000
,
0002
0000
0100
0100
,
0000
0003
1000
0000
,
2000
0000
0001
3001
,
0001
0010
0100
0000
0001
0000
1000
0000
,
0001
0000
0001
0000
1000
0010
1000
0000
,
1000
0001
0010
0000
0100
0000
1000
0000
,
0010
1000
0001
0100
,
0001
0001
0010
0000
,
0002
1000
0003
1000
,
0100
0100
0010
0000
,
2000
0001
3000
0010
,
0001
1000
0010
0000
,
;

//---------------dance-single - ----------------
#NOTES:
     dance-single:
     :
     Hard:
     9:
     0.362,0.348,0.023,0.151,0.105:
0000
0000
0000
0000
,
0000
0000
0000
0000
,
0000
0000
0000
0000
,
0000
0000
0000
0000
,
0000
0000
0000
0000
,
0000
0000
0000
0000
,
0000
0000
0000
0000
,
0000
0000
0000
0000
,
0000
1000
1000
1000
0010
0100
0001
0010
,
0000
0001
0001
0001
0100
0010
1000
0000
,
1000
0100
1000
0100
0010
0000
0001
0100
,
0010
1000
0100
1000
0100
0000
1000
0100
,
0001
0100
0001
0100
0010
0000
0100
0001
,
1000
0100
1000
0100
0001
0000
0010
0001
,
1000
0010
0001
0010
1000
0000
1000
0100
,
0010
0100
0010
0001
0100
0000
0100
0010
,
1000
0100
1000
0100
0001
0000
0001
0100
,
1000
0100
0001
1000
0100
0000
0000
0000
,
2000
3001
0200
0301
,
1000
1000
0001
0001
1000
0100
1001
0000
,
0002
1003
0200
1300
,
0001
0001
1000
1000
0001
0100
1001
0000
,
1000
0100
1000
0100
0000
0010
0001
0000
,
0001
0100
0001
0100
0000
0010
1000
0000
,
1000
0100
0010
0100
1000
0001
0100
0000
,
0020
2030
3002
0003
,
1000
0000
0100
0000
1000
0000
0100
0000
0010
0001
0010
0000
0001
0000
0000
0000
,
0001
0000
0100
0000
0001
0000
0100
0000
0010
1000
0010
0000
1000
0000
0000
0000
,
0100
0000
0000
0010
0001
0000
0000
0100
0010
1000
0010
0000
0100
0000
0000
0000
,
0001
0000
0000
0010
0001
0000
0000
1000
0100
0000
0001
0000
0001
0000
0000
0000
,
0200
0000
0000
0000
0001
0000
0001
0000
0310
0000
1000
0100
1000
0000
0000
0000
,
0010
0002
0000
0100
0100
0103
0010
0000
,
2000
0000
0000
0000
0100
0000
0100
0000
3010
0000
0100
0001
0100
0000
0000
0000
,
0010
0010
1000
0000
0100
0000
0100
0000
,
0001
0000
0100
0000
0001
0000
0100
0000
0010
1000
0010
0000
1000
0000
0000
0000
,
1000
0000
0100
0000
1000
0000
0100
0000
0010
0001
0010
0000
0001
0000
0000
0000
,
0100
0000
0000
0010
1000
0000
0000
0100
0010
0001
0010
0000
0100
0000
0000
0000
,
1000
0000
0000
0010
1000
0000
0000
0001
0100
0000
1000
0000
1000
0000
0000
0000
,
0200
0000
0000
0000
1000
0000
1000
0000
0310
0000
0001
0100
0001
0000
0000
0000
,
0010
2000
0000
0100
0100
3100
0010
0000
,
0002
0000
0000
0000
0100
0000
0100
0000
0013
0000
0100
1000
0100
0000
0000
0000
,
0010
0010
0001
0000
0100
0000
0100
0000
,
0001
0100
0001
1000
0010
1000
0000
0001
,
0001
0010
0001
1000
0100
1000
0000
1000
,
1000
0010
1000
0001
0100
0001
0000
0001
,
0001
0010
0001
1000
0010
1000
0000
1000
,
1000
0100
1000
0000
0001
0010
0001
0000
,
0001
0100
0001
0000
1000
0010
1000
0000
,
1000
0100
0010
0001
0100
0010
1000
0000
,
1001
0000
0000
0000
0000
0000
0000
0000
1000
0001
1000
0000
0100
0000
0000
0000
,
0002
1003
0200
1300
,
0001
0001
1000
1000
0001
0100
1001
0000
,
2000
3001
0200
0301
,
1000
1000
0001
0001
1000
0100
1001
0000
,
0001
0100
0001
0100
0000
0010
1000
0000
,
1000
0100
1000
0100
0000
0010
0001
0000
,
0001
0100
0010
0100
0001
1000
0100
0000
,
0020
0032
2003
3000
,
1000
0000
0100
0000
1000
0000
0100
0000
0010
0001
0010
0000
0001
0000
0000
0000
,
0001
0000
0100
0000
0001
0000
0100
0000
0010
1000
0010
0000
1000
0000
0000
0000
,
0100
0000
0000
0010
0001
0000
0000
0100
0010
1000
0010
0000
0100
0000
0000
0000
,
0001
0000
0000
0010
0001
0000
0000
1000
0100
0000
0001
0000
0001
0000
0000
0000
,
0200
0000
0000
0000
0001
0000
0001
0000
0310
0000
1000
0100
1000
0000
0000
0000
,
0010
0002
0000
0100
0100
0103
0010
0000
,
2000
0000
0000
0000
0100
0000
0100
0000
3010
0000
0100
0001
0100
0000
0000
0000
,
0010
0010
1000
0000
0100
0000
0100
0000
,
0001
0000
0100
0000
0001
0000
0100
0000
0010
1000
0010
0000
1000
0000
0000
0000
,
1000
0000
0100
0000
1000
0000
0100
0000
0010
0001
0010
0000
0001
0000
0000
0000
,
0100
0000
0000
0010
1000
0000
0000
0100
0010
0001
0010
0000
0100
0000
0000
0000
,
1000
0000
0000
0010
1000
0000
0000
0001
0100
0000
1000
0000
1000
0000
0000
0000
,
0200
0000
0000
0000
1000
0000
1000
0000
0310
0000
0001
0100
0001
0000
0000
0000
,
0010
2000
0000
0100
0100
3100
0010
0000
,
0002
0000
0000
0000
0100
0000
0100
0000
0013
0000
0100
1000
0100
0000
0000
0000
,
0010
0010
0001
0000
0100
0000
0100
0000
,
2000
0000
0000
0000
0100
0100
0100
0000
,
0000
0000
0000
0000
0010
3010
0010
0000
,
0200
0000
0000
0000
0001
0001
0001
0000
,
0000
0000
0000
0000
1000
1300
1000
0000
,
0020
0000
0000
0000
0100
0100
0100
0000
,
0000
0000
0000
0000
1000
1030
1000
0000
,
0002
0000
0000
0000
1000
1000
1000
0003
,
1000
0010
0100
0001
1000
0000
0001
0000
,
1000
0000
0010
0000
1000
0000
0010
0000
0100
0001
0100
0000
0001
0000
0000
0000
,
0001
0000
0010
0000
0001
0000
0010
0000
0100
1000
0100
0000
1000
0000
0000
0000
,
0010
0000
0000
0100
0001
0000
0000
0010
0100
1000
0100
0000
0010
0000
0000
0000
,
0001
0000
0000
0100
0001
0000
0000
1000
0010
0000
0001
0000
0001
0000
0000
0000
,
0020
0000
0000
0000
0001
0000
0001
0000
0130
0000
1000
0010
1000
0000
0000
0000
,
0100
0002
0000
0010
0010
0013
0100
0000
,
2000
0000
0000
0000
0010
0000
0010
0000
3100
0000
0010
0001
0010
0000
0000
0000
,
0100
0100
1000
0000
0010
0000
0010
0000
,
;

//---------------dance-double - ----------------
#NOTES:
     dance-double:
     :
     Easy:
     3:
     0.141,0.163,0.005,0.119,0.000:
00000000
00000000
00000000
00000000
,
00000000
00000000
00000000
00000000
,
00000000
00000000
00000000
00000000
,
00000000
00000000
00000000
00000000
,
00000000
00000000
00000000
00000000
,
00000000
00000000
00000000
00000000
,
00000000
00000000
00000000
00000000
,
00000000
00000000
00000000
00000000
,
00000000
00010000
00010000
00010000
,
00000000
00001000
00001000
00001000
,
00010000
00000000
00000100
00000000
,
00001000
00000000
00000010
00000000
,
00000001
00000000
00000100
00000000
,
00010000
00000000
00001000
00000000
,
01000000
00000000
00010000
00000000
,
10000000
00000000
01000000
00000000
,
00100000
00000000
00001000
00000000
,
00010000
00000000
00000000
00000000
,
00002000
00003000
00000200
00000300
,
00010000
00000000
00100000
00000000
,
00020000
00030000
02000000
03000000
,
00001000
00000000
00000010
00000000
,
00010000
00000000
00000000
00010000
,
00001000
00000000
00000000
00001000
,
00010000
00000100
00000000
00000000
,
00002000
00003000
00000002
00000003
,
00000010
00000001
00000010
00000001
,
00001000
00000000
00000010
00000000
,
00010000
00001000
01000000
00100000
,
10000000
01000000
00100000
00000000
,
00002000
00000000
00003000
00000000
,
00010000
00010000
00001000
00000000
,
00020000
00000000
00030000
00000000
,
00001000
00010000
00000100
00000000
,
00000010
00000001
00000010
00000001
,
00001000
00000000
00000010
00000000
,
00010000
00001000
01000000
00100000
,
10000000
01000000
00100000
00000000
,
00002000
00000000
00003000
00000000
,
00010000
00010000
00001000
00000000
,
00020000
00000000
00030000
00000000
,
00001000
00010000
00000100
00000000
,
00000010
00000001
00000010
00000000
,
00001000
00000010
00001000
00000000
,
00000100
00010000
00000100
00000000
,
00010000
00001000
00010000
00000000
,
01000000
00000000
01000000
00000000
,
00010000
00000000
00010000
00000000
,
00001000
00100000
00001000
00000000
,
00011000
00000000
00001000
00010000
,
00020000
00030000
02000000
03000000
,
00001000
00000000
00000010
00000000
,
00002000
00003000
00000200
00000300
,
00010000
00000000
00100000
00000000
,
00001000
00000000
00000000
00001000
,
00010000
00000000
00000000
00010000
,
00001000
01000000
00000000
00000000
,
00020000
00030000
20000000
30000000
,
00100000
10000000
00100000
10000000
,
00010000
00000000
00100000
00000000
,
00001000
00010000
00000100
00000010
,
00000001
00000100
00000010
00000000
,
00020000
00000000
00030000
00000000
,
00001000
00001000
00010000
00000000
,
00002000
00000000
00003000
00000000
,
00010000
00001000
01000000
00000000
,
00100000
10000000
00100000
10000000
,
00010000
00000000
00100000
00000000
,
00001000
00010000
00000100
00000010
,
00000001
00000100
00000010
00000000
,
00020000
00000000
00030000
00000000
,
00001000
00001000
00010000
00000000
,
00002000
00000000
00003000
00000000
,
00010000
00001000
01000000
00000000
,
00020000
00000000
00000000
00000000
,
00000000
00000000
00030000
00100000
,
00002000
00000000
00000000
00000000
,
00000000
00003000
00010000
00000000
,
00000020
00000000
00000000
00000000
,
00000000
00000030
00001000
00000000
,
00000002
00000000
00000000
00000003
,
00001000
00000001
00000100
00000000
,
00000100
00000001
00000100
00000001
,
00001000
00000000
00000100
00000000
,
00010000
00001000
00100000
01000000
,
10000000
00100000
01000000
00000000
,
00002000
00000000
00003000
00000000
,
00010000
00010000
00001000
00000000
,
00020000
00000000
00030000
00000000
,
00001000
00010000
00000010
00000000
,
;

//---------------dance-double - ----------------
#NOTES:
     dance-double:
     :
     Medium:
     6:
     0.222,0.265,0.005,0.128,0.000:
00000000
00000000
00000000
00000000
,
00000000
00000000
00000000
00000000
,
00000000
00000000
00000000
00000000
,
00000000
00000000
00000000
00000000
,
00000000
00000000
00000000
00000000
,
00000000
00000000
00000000
00000000
,
00000000
00000000
00000000
00000000
,
00000000
00000000
00000000
00000000
,
00000000
10000000
00000000
00010000
00000000
01000000
00001000
00000000
,
00000000
00010000
00000000
00000100
00000000
00001000
00000010
00000000
,
00000100
00000001
00000100
00000000
00000010
00000000
00010000
00000000
,
00001000
00100000
00010000
00000000
01000000
00000000
00100000
00000000
,
10000000
01000000
00100000
00000000
00001000
00000000
00010000
00000000
,
00000100
00001000
00000100
00000000
00000010
00000000
00000001
00000000
,
00000100
00000010
00000100
00000000
00001000
00000000
00001000
00000000
,
00010000
00001000
00010000
00000000
00001000
00000000
00001000
00000000
,
01000000
00100000
01000000
00000000
00010000
00000000
00010000
00000000
,
01000000
00100000
10000000
00000000
01000000
00000000
00000000
00000000
,
00200000
00301000
00020000
00030100
,
00000010
00000001
00001000
00000000
,
00000200
00010300
00002000
01003000
,
00100000
10000000
00010000
00000000
,
10000000
01000000
10000000
00000000
00000000
00010000
00100000
00000000
,
00001000
00010000
00001000
00000000
00000000
00000010
00000100
00000000
,
00000001
00000010
00000001
00000000
00001000
00000010
00000100
00000000
,
00002000
00023000
00032000
00003000
,
00010000
00000000
00010000
00000000
00100000
01000000
00100000
00000000
,
10000000
01000000
00100000
00000000
00010000
00000000
01000000
00000000
,
00001000
00010000
00000010
00001000
,
00000001
00000001
00000100
00000000
,
00002000
00010000
00003000
00010000
,
00100000
01000000
00001000
00000000
,
00020000
00001000
00030000
00000010
,
00000001
00000100
00000010
00000000
,
00001000
00000000
00001000
00000000
00000010
00000100
00000010
00000000
,
00000001
00000100
00000010
00000000
00001000
00000000
00000100
00000000
,
00010000
00001000
00100000
00010000
,
10000000
10000000
01000000
00000000
,
00020000
00001000
00030000
00001000
,
00000010
00000100
00010000
00000000
,
00002000
00010000
00003000
00100000
,
10000000
01000000
00100000
00000000
,
00001000
00000000
00010000
00000000
01000000
10000000
00000000
00000000
,
00010000
00000000
00001000
00000000
00000010
00000001
00000000
00000000
,
00000100
00000000
00000001
00000000
00001000
00010000
00000000
00000000
,
00100000
00000000
10000000
00000000
00010000
00001000
00000000
00000000
,
00010000
00010000
00000100
00000100
,
00001000
00001000
01000000
01000000
,
00001000
00010000
00000100
00000000
00010000
00001000
00100000
00000000
,
00110000
00000000
00000000
00000000
00010000
00000010
00010000
00000000
,
00000020
00010030
00002000
01003000
,
00100000
10000000
00010000
00000000
,
02000000
03001000
00020000
00030100
,
00000010
00000001
00001000
00000000
,
00000001
00000100
00000001
00000000
00000000
00001000
00000010
00000000
,
00010000
00001000
00010000
00000000
00000000
00100000
01000000
00000000
,
10000000
00100000
10000000
00000000
00010000
00100000
01000000
00000000
,
00020000
00032000
00023000
00030000
,
00001000
00000000
00001000
00000000
00000010
00000100
00000010
00000000
,
00000001
00000100
00000010
00000000
00001000
00000000
00000100
00000000
,
00010000
00001000
00100000
00010000
,
10000000
10000000
01000000
00000000
,
00020000
00001000
00030000
00001000
,
00000010
00000100
00010000
00000000
,
00002000
00010000
00003000
00100000
,
10000000
01000000
00100000
00000000
,
00010000
00000000
00010000
00000000
00100000
01000000
00100000
00000000
,
10000000
01000000
00100000
00000000
00010000
00000000
01000000
00000000
,
00001000
00010000
00000010
00001000
,
00000001
00000001
00000100
00000000
,
00002000
00010000
00003000
00010000
,
00100000
01000000
00001000
00000000
,
00020000
00001000
00030000
00000010
,
00000001
00000100
00000010
00000000
,
00020000
00000000
00000100
00000100
,
00000000
00030000
00001000
00000000
,
02000000
00000000
00100000
00100000
,
00000000
03000000
10000000
00000000
,
00020000
00000000
00100000
00100000
,
00000000
00030000
00001000
00000000
,
00000020
00000000
00000100
00000130
,
00001000
00010000
01000000
00000000
10000000
00000000
00010000
00000000
,
00010000
00000000
00010000
00000000
00100000
01000000
00100000
00000000
,
10000000
01000000
00100000
00000000
00010000
00000000
01000000
00000000
,
00001000
00010000
00000010
00001000
,
00000001
00000001
00000100
00000000
,
00002000
00010000
00003000
00010000
,
00100000
01000000
00001000
00000000
,
00020000
00001000
00030000
00000010
,
00000001
00000100
00000010
00000000
,
;

//---------------dance-double - ----------------
#NOTES:
     dance-double:
     :
     Hard:
     9:
     0.346,0.307,0.023,0.151,0.048:
00000000
00000000
00000000
00000000
,
00000000
00000000
00000000
00000000
,
00000000
00000000
00000000
00000000
,
00000000
00000000
00000000
00000000
,
00000000
00000000
00000000
00000000
,
00000000
00000000
00000000
00000000
,
00000000
00000000
00000000
00000000
,
00000000
00000000
00000000
00000000
,
00000000
00010000
00010000
00010000
00100000
00001000
00010000
00000100
,
00000000
00001000
00001000
00001000
00000100
00000010
00000001
00000000
,
00000001
00000100
00000001
00000100
00000010
00000000
00010000
00001000
,
01000000
00100000
10000000
00100000
10000000
00000000
01000000
00100000
,
00010000
00100000
00010000
00100000
00001000
00000000
00010000
00000100
,
00001000
00000001
00000100
00000001
00000100
00000000
00000010
00001000
,
00000100
00010000
00001000
00010000
00000100
00000000
00010000
00001000
,
01000000
00010000
00100000
00010000
01000000
00000000
00100000
10000000
,
01000000
00100000
01000000
00100000
00010000
00000000
01000000
00001000
,
00010000
00001000
00100000
00001000
00010000
00000000
00000000
00000000
,
00000200
00000310
00000002
00000103
,
00001000
00001000
00010000
00010000
00100000
10000000
10010000
00000000
,
02000000
03100000
20000000
31000000
,
00010000
00010000
00001000
00001000
00000010
00000001
00001001
00000000
,
00000001
00000100
00000001
00000100
00000000
00001000
00010000
00000000
,
00100000
10000000
00100000
10000000
00000000
00010000
00100000
00000000
,
00001000
00010000
00001000
00000010
00000100
00001000
00000001
00000000
,
00000020
00002030
00003002
00000003
,
00001000
00000100
00001000
00000100
00010000
00010000
00001000
00000000
,
01000000
00010000
01000000
00010000
10000000
10000000
00100000
00000000
,
01000000
00000000
00000000
00010000
01000000
00000000
00000000
00001000
00010000
00000000
00000100
00000000
00001000
00000000
00000000
00000000
,
00000001
00000000
00000000
00000010
00000001
00000000
00000000
00001000
00000100
00000000
00010000
00000000
00010000
00000000
00000000
00000000
,
00002000
00000000
00010000
00010000
00103000
01000000
01000000
00000000
,
10000000
00200000
00000000
01000000
01000000
01300000
00001000
00000000
,
00020000
00000000
00001000
00001000
00030010
00000100
00000100
00000000
,
00000010
00000010
00001000
00000000
00000001
00000000
00000001
00000000
,
00001000
00000010
00001000
00000010
00010000
00010000
00001000
00000000
,
00100000
00010000
00100000
00010000
10000000
10000000
01000000
00000000
,
00100000
00000000
00000000
00010000
00100000
00000000
00000000
00001000
00010000
00000000
00000010
00000000
00001000
00000000
00000000
00000000
,
00000001
00000000
00000000
00000100
00000001
00000000
00000000
00001000
00000010
00000000
00010000
00000000
00010000
00000000
00000000
00000000
,
00002000
00000000
00010000
00010000
01003000
00100000
00100000
00000000
,
10000000
02000000
00000000
00100000
00100000
03100000
00001000
00000000
,
00020000
00000000
00001000
00001000
00030100
00000010
00000010
00000000
,
00000100
00000100
00001000
00000000
00000001
00000000
00000001
00000000
,
00000010
00000100
00000010
00001000
00010000
00001000
00000000
00100000
,
00100000
00010000
00100000
01000000
10000000
01000000
00000000
10000000
,
10000000
00100000
10000000
01000000
00100000
01000000
00000000
00010000
,
00010000
00001000
00010000
00000100
00000010
00000100
00000000
00000010
,
00000010
00000001
00000010
00000000
00000001
00000100
00000001
00000000
,
00000010
00010000
00000010
00000000
00001000
01000000
00001000
00000000
,
00100000
00001000
00010000
00000100
00001000
00000001
00000100
00000000
,
00001001
00000000
00000000
00000000
00000000
00000000
00000000
00000000
00010000
00001000
00010000
00000000
01000000
00000000
00000000
00000000
,
02000000
03100000
20000000
31000000
,
00010000
00010000
00001000
00001000
00000010
00000001
00001001
00000000
,
00000200
00000310
00000002
00000103
,
00001000
00001000
00010000
00010000
00100000
10000000
10010000
00000000
,
10000000
01000000
10000000
01000000
00000000
00010000
00001000
00000000
,
00000010
00000001
00000010
00000001
00000000
00001000
00000010
00000000
,
00010000
00001000
00010000
00100000
01000000
00010000
10000000
00000000
,
00200000
00320000
20030000
30000000
,
00010000
01000000
00010000
01000000
00001000
00001000
00010000
00000000
,
00000100
00001000
00000100
00001000
00000001
00000001
00000010
00000000
,
00000100
00000000
00000000
00001000
00000100
00000000
00000000
00010000
00001000
00000000
01000000
00000000
00010000
00000000
00000000
00000000
,
10000000
00000000
00000000
00100000
10000000
00000000
00000000
00010000
01000000
00000000
00001000
00000000
00001000
00000000
00000000
00000000
,
00020000
00000000
00001000
00001000
00030010
00000100
00000100
00000000
,
00000001
00000020
00000000
00000100
00000100
00000130
00010000
00000000
,
00002000
00000000
00010000
00010000
00103000
01000000
01000000
00000000
,
00100000
00100000
00010000
00000000
10000000
00000000
10000000
00000000
,
00010000
00100000
00010000
00100000
00001000
00001000
00010000
00000000
,
00000010
00001000
00000010
00001000
00000001
00000001
00000100
00000000
,
00000010
00000000
00000000
00001000
00000010
00000000
00000000
00010000
00001000
00000000
00100000
00000000
00010000
00000000
00000000
00000000
,
10000000
00000000
00000000
01000000
10000000
00000000
00000000
00010000
00100000
00000000
00001000
00000000
00001000
00000000
00000000
00000000
,
00020000
00000000
00001000
00001000
00030100
00000010
00000010
00000000
,
00000001
00000200
00000000
00000010
00000010
00000310
00010000
00000000
,
00002000
00000000
00010000
00010000
01003000
00100000
00100000
00000000
,
01000000
01000000
00010000
00000000
10000000
00000000
10000000
00000000
,
02000000
00000000
00000000
00000000
00010000
00010000
00010000
00000000
,
00000000
00000000
00000000
00000000
00100000
03100000
00100000
00000000
,
00002000
00000000
00000000
00000000
01000000
01000000
01000000
00000000
,
00000000
00000000
00000000
00000000
00010000
00013000
00010000
00000000
,
00000200
00000000
00000000
00000000
00000010
00000010
00000010
00000000
,
00000000
00000000
00000000
00000000
00001000
00001300
00001000
00000000
,
00000002
00000000
00000000
00000000
00000100
00000100
00000100
00000003
,
00000010
00010000
00001000
00010000
00000100
00000000
00001000
00000000
,
00001000
00000100
00001000
00000100
00010000
00010000
00001000
00000000
,
01000000
00010000
01000000
00010000
10000000
10000000
00100000
00000000
,
01000000
00000000
00000000
00010000
01000000
00000000
00000000
00001000
00010000
00000000
00000100
00000000
00001000
00000000
00000000
00000000
,
00000001
00000000
00000000
00000010
00000001
00000000
00000000
00001000
00000100
00000000
00010000
00000000
00010000
00000000
00000000
00000000
,
00002000
00000000
00010000
00010000
00103000
01000000
01000000
00000000
,
10000000
00200000
00000000
01000000
01000000
01300000
00001000
00000000
,
00020000
00000000
00001000
00001000
00030010
00000100
00000100
00000000
,
00000010
00000010
00001000
00000000
00000001
00000000
00000001
00000000
,
;
