#TITLE:More Than Alive;
#SUBTITLE:Short Song;
#ARTIST:The Ready Set;
#TITLETRANSLIT:;
#SUBTITLETRANSLIT:;
#ARTISTTRANSLIT:;
#CREDIT:;
#BANNER:More Than Alive.png;
#BACKGROUND:More Than Alive-bg.png;
#LYRICSPATH:;
#CDTITLE:./CDTITLES/DanceDanceRevolution II.png;
#MUSIC:../More Than Alive (Full Song)/More Than Alive (Full Song).ogg;
#OFFSET:0.000;
#SAMPLESTART:49.660;
#SAMPLELENGTH:15.000;
#SELECTABLE:YES;
#DISPLAYBPM:140.000;
#BPMS:0.000=140.002;
#STOPS:;
#BGCHANGES:;

//---------------dance-single - ----------------
#NOTES:
     dance-single:
     :
     Beginner:
     2:
     0.047,0.067,0.019,0.034,0.000:
0000
0000
0000
0000
,
0000
0000
0000
0000
,
0000
0000
0000
0000
,
0000
0000
0000
0000
,
1000
0000
0000
0000
,
0000
0000
0000
0000
,
0001
0000
0000
0000
,
0000
0000
0000
0000
,
1000
0000
0000
0000
,
0000
0000
0000
0000
,
0001
0000
0000
0000
,
0000
0000
0000
0000
,
1000
0000
1000
0000
,
0001
0000
0000
0000
,
1000
0000
0001
0000
,
1000
0000
0000
0000
,
0001
0000
0001
0000
,
1000
0000
0000
0000
,
0001
0000
1000
0000
,
0001
0000
0000
0000
,
1000
0000
0010
0000
,
0001
0000
0000
0000
,
1000
0000
0010
0000
,
0010
0000
0000
0000
,
0001
0000
0010
0000
,
1000
0000
0000
0000
,
0001
0000
0010
0000
,
0010
0000
0000
0000
,
0000
0000
0000
0000
,
1000
0000
0001
0000
,
1000
0000
0001
0000
,
0010
0000
0010
0000
,
0100
0000
0000
0000
,
1000
0000
0001
0000
,
1000
0000
0001
0000
,
0010
0000
0010
0000
,
0010
0000
0000
0000
,
1001
0000
0000
0000
,
1001
0000
0000
0000
,
0001
0000
1000
0000
,
0000
0000
0000
0000
,
1001
0000
0000
0000
,
1001
0000
0000
0000
,
0001
0000
1000
0000
,
0000
0000
0000
0000
,
0200
0000
0000
0000
,
0000
0000
0000
0000
,
0000
0000
0000
0000
,
0000
0300
0000
0000
,
0002
0003
0000
0000
,
2000
3000
0000
0000
,
0020
0000
0000
0030
,
0000
0000
0000
0000
,
2000
3000
0000
0000
,
0002
0003
0000
0000
,
0020
0000
0000
0030
,
;

//---------------dance-single - ----------------
#NOTES:
     dance-single:
     :
     Easy:
     4:
     0.078,0.109,0.019,0.092,0.000: // measure 1
0000
0000
0000
0000
,  // measure 2
0000
0000
0000
0000
,  // measure 3
0000
0000
0000
0000
,  // measure 4
0000
0000
0000
0000
,  // measure 5
1000
0000
0000
0000
,  // measure 6
0000
0000
0000
0000
,  // measure 7
0001
0000
0000
0000
,  // measure 8
0000
0000
0000
0000
,  // measure 9
1000
0000
0000
0000
,  // measure 10
0000
0000
0000
0000
,  // measure 11
0001
0000
0000
0000
,  // measure 12
0000
0000
0000
0000
,  // measure 13
1000
0000
0010
0000
,  // measure 14
1000
0001
1000
0000
,  // measure 15
0001
0000
0010
0000
,  // measure 16
0200
0000
0300
0000
,  // measure 17
0001
0000
0010
0000
,  // measure 18
0001
1000
0001
0000
,  // measure 19
1000
0000
0010
0000
,  // measure 20
0020
0000
0030
0000
,  // measure 21
1000
1000
1000
0000
,  // measure 22
0002
0000
0003
0000
,  // measure 23
0010
0010
0010
0000
,  // measure 24
0200
0000
0300
0000
,  // measure 25
0001
0001
0001
0000
,  // measure 26
2000
0000
3000
0000
,  // measure 27
0010
0010
0010
0000
,  // measure 28
0100
0000
0100
0000
,  // measure 29
0000
0000
0000
0000
,  // measure 30
0001
0001
2000
3000
,  // measure 31
0001
0001
0200
0300
,  // measure 32
0010
0000
1000
0000
,  // measure 33
0001
0000
0100
0000
,  // measure 34
0001
0001
2000
3000
,  // measure 35
0001
0001
0200
0300
,  // measure 36
0010
0000
1000
0000
,  // measure 37
0001
0000
0000
0000
,  // measure 38
1001
0000
0001
0000
,  // measure 39
1001
0000
1000
0000
,  // measure 40
0100
0100
0010
0010
,  // measure 41
0010
0000
0000
0000
,  // measure 42
1001
0000
0001
0000
,  // measure 43
1001
0000
1000
0000
,  // measure 44
0100
0100
0010
0010
,  // measure 45
0100
0000
0000
0000
,  // measure 46
0200
0000
0000
0000
,  // measure 47
0000
0000
0300
0000
,  // measure 48
0020
0000
0000
0000
,  // measure 49
0000
0000
0030
0000
,  // measure 50
2000
3000
0100
0000
,  // measure 51
2000
3000
0010
0000
,  // measure 52
2000
3000
0001
0000
,  // measure 53
0200
0000
0300
0000
,  // measure 54
0002
0003
0100
0000
,  // measure 55
0002
0003
0010
0000
,  // measure 56
0002
0003
1000
0000
,  // measure 57
0200
0000
0300
0000
;

//---------------dance-single - ----------------
#NOTES:
     dance-single:
     :
     Medium:
     6:
     0.125,0.177,0.039,0.154,0.000:
0000
0000
0000
0000
,
0000
0000
0000
0000
,
0000
0000
0000
0000
,
0000
0000
0000
0000
,
0000
0000
1000
0000
,
0000
0000
0100
0000
,
0000
0000
0001
0000
,
0000
0000
0010
0000
,
0000
0000
1000
0000
,
0000
0000
0100
0000
,
0000
0000
0001
0000
,
0000
0000
0010
0000
,
1000
0100
0002
0003
,
0100
1000
0020
0030
,
1000
0100
0001
0100
,
1000
1000
0100
0000
,
0001
0100
2000
3000
,
0100
0001
0020
0030
,
0001
0100
1000
0100
,
0010
0100
0010
0000
,
1000
1000
0010
0010
,
0100
0110
0000
0000
,
0001
0101
0100
1000
,
0010
0010
0200
0300
,
0001
0001
0010
0010
,
0100
0110
0000
0000
,
1000
1100
0100
0001
,
0020
0000
0200
0330
,
0000
0000
0000
0000
,
0001
0001
0100
2000
,
0100
0100
0002
3003
,
1000
0010
0100
0001
,
0020
0000
0002
0033
,
1000
1000
0100
0002
,
0100
0100
2000
3003
,
0001
0010
0100
1000
,
0020
0000
0000
0030
,
2001
0000
0100
3100
,
1002
0000
0010
0013
,
1000
0100
0010
0001
,
1000
0010
0100
0000
,
2001
0000
0100
3100
,
1002
0000
0010
0013
,
1000
0100
0010
0001
,
1000
0010
0100
0000
,
0200
0000
0001
0000
,
0000
0000
0301
0000
,
0020
0000
1000
0000
,
0000
0000
1030
0000
,
0010
0000
1000
0002
0000
0000
0003
0000
,
0010
0000
0100
0020
0000
0000
0030
0000
,
2000
3002
2003
3002
,
0013
0100
0010
0000
,
0010
0000
0001
2000
0000
0000
3000
0000
,
0010
0000
0100
0020
0000
0000
0030
0000
,
0002
2003
3002
2003
,
3010
0010
0010
0000
,
;

//---------------dance-single - ----------------
#NOTES:
     dance-single:
     :
     Hard:
     9:
     0.167,0.204,0.048,0.188,0.000:
0000
0000
0000
0000
,
0000
0000
0000
0000
,
0000
0000
0000
0000
,
0000
0000
0000
0000
,
0000
0000
0100
0000
,
0000
0000
0010
0000
,
0000
0000
0001
0000
,
0000
0000
1000
0000
,
0000
0000
0100
0000
,
0000
0000
0010
0000
,
0000
0000
1000
0000
,
0000
0000
0001
0000
,
1000
0100
0010
0000
0001
0000
1000
0000
,
0100
0010
0002
0000
0100
0000
0103
0000
,
0010
0000
0100
0000
0001
0010
0100
0000
,
1000
0001
1000
0020
0000
0000
0130
0000
,
0001
0100
0010
0000
1000
0000
0001
0000
,
0100
0010
2000
0000
0100
0000
3100
0000
,
0010
0000
0100
0000
1000
0010
0100
0000
,
0001
1000
0001
0020
0000
0000
0130
0000
,
1000
0000
1200
0000
0310
0100
0010
0000
,
0001
0000
0101
0000
0000
1000
0100
1000
,
0001
1020
0130
0100
,
0010
1000
0010
1000
0200
0000
0300
0000
,
0001
0000
0201
0000
0310
0100
0010
0000
,
1000
0000
1100
0000
0000
0001
0100
0001
,
1000
0021
0130
0100
,
0020
1000
0200
0330
,
0000
0000
0000
0000
,
0001
0010
0001
0000
0010
0100
2000
0000
,
0010
0100
0002
3003
,
1000
0100
0010
0000
0100
1000
0100
0000
,
0020
0001
0200
0330
,
1000
0010
1000
0000
0010
0100
0002
0000
,
0010
0100
2000
3003
,
0001
0100
0010
0000
0100
0001
0100
0000
,
2000
0000
0002
3003
,
2001
0100
0001
3100
,
1002
0010
1000
0013
,
0200
0010
0001
1300
,
0001
1000
0100
0000
,
1002
0100
1000
0103
,
2001
0010
0001
3010
,
0200
0010
1000
0301
,
0010
0010
0100
0100
,
0200
0000
0001
0000
,
0000
0010
0000
0000
0301
1000
0000
0000
,
0200
0000
0010
0000
,
0000
1000
0000
0000
0301
0100
0000
0000
,
1000
0100
1000
0200
0000
0000
0310
0000
,
0001
0010
0001
0020
0000
0000
0130
0000
,
2000
3020
0230
0302
,
0013
0001
1000
0000
,
0001
0100
0001
0200
0000
0000
0310
0000
,
1000
0010
1000
0020
0000
0000
0130
0000
,
0002
0023
0230
2300
,
3010
1000
0001
0000
,
;

//---------------dance-double - ----------------
#NOTES:
     dance-double:
     :
     Easy:
     5:
     0.105,0.123,0.000,0.096,0.000:
00000000
00000000
00000000
00000000
,
00000000
00000000
00000000
00000000
,
00000000
00000000
00000000
00000000
,
00000000
00000000
00000000
00000000
,
00000000
00000000
00000001
00000000
,
00000000
00000000
00000100
00000000
,
00000000
00000000
00001000
00000000
,
00000000
00000000
00100000
00000000
,
00000000
00000000
10000000
00000000
,
00000000
00000000
01000000
00000000
,
00000000
00000000
00010000
00000000
,
00000000
00000000
00000010
00000000
,
00001000
00000001
00000200
00000300
,
00000010
00010000
00002000
00003000
,
00000100
00000001
00000100
00000010
,
00010000
00001000
01000000
00000000
,
00010000
10000000
02000000
03000000
,
00100000
00001000
00020000
00030000
,
01000000
10000000
01000000
00100000
,
00001000
00010000
00000010
00000000
,
00001000
00000100
00001000
00000010
,
00020000
00000000
00031000
00000000
,
00000100
00000010
00001000
00000000
,
00000100
00010000
00001000
01000000
,
00010000
01000000
00010000
00100000
,
00002000
00000000
00013000
00000000
,
01000000
00100000
00010000
00000000
,
01000000
00001000
00010000
00000100
,
00000100
00000000
00000000
00000000
,
00000010
00000010
00000001
00001000
,
00000200
00010000
00001300
00000000
,
00010000
00001000
00100000
00000000
,
02000000
00000000
03000000
00000000
,
00100000
00100000
10000000
00010000
,
02000000
00001000
03010000
00000000
,
00001000
00010000
00000010
00000000
,
00000200
00000000
00000300
00000000
,
00000020
00000000
00000100
00000000
,
00020030
00000000
00001000
00000000
,
00030010
00000010
00000100
00000100
,
00001000
00010000
00001000
00000000
,
00200000
00000000
01000000
00000000
,
00302000
00000000
00010000
00000000
,
00103000
00100000
01000000
01000000
,
00010000
00001000
00010000
00000000
,
00002000
00000000
00000000
00000000
,
00000000
00000000
00000000
00003000
,
00020000
00000000
00000000
00000000
,
00000000
00000000
00000000
00030000
,
00001000
00001000
00020000
00030000
,
00000010
00000010
00000200
00000300
,
00000001
00000100
00001000
00010000
,
01000000
00010000
00001000
00000000
,
00010000
00010000
00002000
00003000
,
00100000
00100000
02000000
03000000
,
10000000
01000000
00010000
00001000
,
00000100
00001000
00010000
00000000
,
;

//---------------dance-double - ----------------
#NOTES:
     dance-double:
     :
     Medium:
     7:
     0.139,0.177,0.000,0.183,0.000:
00000000
00000000
00000000
00000000
,
00000000
00000000
00000000
00000000
,
00000000
00000000
00000000
00000000
,
00000000
00000000
00000000
00000000
,
00000000
00000000
10000000
00000000
,
00000000
00000000
01000000
00000000
,
00000000
00000000
00010000
00000000
,
00000000
00000000
00000010
00000000
,
00000000
00000000
00000001
00000000
,
00000000
00000000
00000100
00000000
,
00000000
00000000
00001000
00000000
,
00000000
00000000
00100000
00000000
,
00010000
00000000
10000000
00020000
00000000
00000000
01030000
00000000
,
00001000
00000000
00100000
00002000
00000000
00000000
00013000
00000000
,
00000010
00000100
00001000
00010000
,
00001000
00000000
00000100
00000002
00000000
00000000
00000003
00000000
,
00001000
00000000
00000001
00002000
00000000
00000000
00003100
00000000
,
00010000
00000000
00000010
00020000
00000000
00000000
00031000
00000000
,
00100000
01000000
00010000
00001000
,
00010000
00000000
01000000
00200000
00000000
00000000
00300000
00000000
,
01000000
00000000
10000000
00100000
00010000
00000000
00002000
00000000
,
00010000
00013000
00000000
00000010
,
00000100
00000000
00000100
00000000
00001000
00010000
00000100
00000000
,
00001000
00000100
00000010
00000001
00001000
00000000
00000000
00000000
,
00000100
00000000
00000001
00000010
00001000
00000000
00020000
00000000
,
00001000
00031000
00000000
00100000
,
01000000
00000000
01000000
00000000
00010000
00001000
01000000
00000000
,
00010000
01000000
00100000
10000000
01000000
00000000
00000000
00000000
,
00000000
00000000
00000000
00000000
,
00100000
00000000
00001000
00000000
01000000
00010000
00100000
00000000
,
00001000
00010000
00001000
00000000
00000100
00000000
00000000
00000000
,
00000001
00000010
00000100
00001000
,
00000100
00010000
00000100
00000000
,
00000010
00000000
00010000
00000000
00000100
00001000
00000010
00000000
,
00010000
00001000
00010000
00000000
01000000
00000000
00000000
00000000
,
10000000
00100000
01000000
00010000
,
01000000
00001000
00100000
00000000
,
00020000
00000000
10000000
00100000
,
00032000
00000000
00000010
00000001
,
00003200
00002300
00023000
00230000
,
00320000
00032000
00003200
00000300
,
00002000
00000000
00000001
00003010
,
00020000
00000000
00100000
10030000
,
02000000
03020000
00032000
00003020
,
00002030
00023000
02030000
03000000
,
00020000
00000000
00000000
00000000
,
00000000
00000000
00000000
00030000
,
00002000
00000000
00000000
00000000
,
00000000
00000000
00000000
00003000
,
00000010
00000000
00000001
00000020
00000000
00000000
00000031
00000000
,
00001000
00000000
00000100
00020000
00000000
00000000
00030100
00000000
,
00002000
00003100
00020000
00031000
,
02000000
00100000
03100000
00000000
,
00100000
00000000
10000000
00200000
00000000
00000000
10300000
00000000
,
00010000
00000000
01000000
00002000
00000000
00000000
01003000
00000000
,
00020000
01030000
00002000
00013000
,
00000020
00000100
00000130
00000000
,
;

//---------------dance-double - ----------------
#NOTES:
     dance-double:
     :
     Hard:
     10:
     0.160,0.192,0.000,0.164,0.000:
00000000
00000000
00000000
00000000
,
00000000
00000000
00000000
00000000
,
00000000
00000000
00000000
00000000
,
00000000
00000000
00000000
00000000
,
00000000
00000000
10000000
00000000
,
00000000
00000000
00010000
00000000
,
00000000
00000000
00001000
00000000
,
00000000
00000000
00000001
00000000
,
00000000
00000000
00000001
00000000
,
00000000
00000000
00001000
00000000
,
00000000
00000000
00010000
00000000
,
00000000
00000000
10000000
00000000
,
01000000
10000000
00100000
02000000
00000000
00000000
03010000
00000000
,
00100000
00001000
00010000
00002000
00000000
00000000
00013000
00000000
,
00000100
00010000
00001000
00000000
00010000
00000000
00001000
00000000
,
00100000
00001000
00010000
00000020
00000000
00000000
00000030
00000000
,
00000100
00000001
00000010
00000200
00000000
00000000
00001300
00000000
,
00000010
00010000
00001000
00020000
00000000
00000000
00031000
00000000
,
01000000
00001000
00010000
00000000
00001000
00000000
00010000
00000000
,
00000010
00010000
00001000
00200000
00000000
00000000
00300000
00000000
,
01000000
00010000
00002000
00000000
00000010
00000000
00010000
00000000
,
00000010
00000000
00013000
00000000
00000000
00000010
00001000
00000000
,
00000100
00000000
00000100
00000000
00010000
00001000
00000100
00000000
,
00000010
00010000
00000100
00001000
00000001
00000000
00000000
00000000
,
00000100
00001000
00020000
00000000
00100000
00000000
00001000
00000000
,
00100000
00000000
00031000
00000000
00000000
00100000
00010000
00000000
,
01000000
00000000
01000000
00000000
00001000
00010000
01000000
00000000
,
00100000
00001000
01000000
00010000
00100000
00000000
00000000
00000000
,
00000000
00000000
00000000
00000000
,
10000000
00010000
01000000
00000000
00100000
00010000
00001000
00000000
,
00100000
00010000
00001000
00000100
00000010
00000000
00000000
00000000
,
00000001
00000000
00001000
00000000
00000010
00000000
00010000
00001000
,
00000000
00000100
00000000
00000010
00000000
00001000
00000100
00000000
,
00000001
00001000
00000100
00000000
00000010
00001000
00010000
00000000
,
00000010
00001000
00010000
01000000
00100000
00000000
00000000
00000000
,
10000000
00000000
00010000
00000000
00100000
00000000
00001000
00010000
,
00000000
01000000
00000000
00100000
00000000
00001000
00010000
00001000
,
00020000
00100000
10000000
00100000
,
00032000
00000100
00000001
00000100
,
00023000
02030000
23000000
30200000
,
00310000
00001000
00100000
00000000
00001000
00010000
00000100
00010000
,
00002000
00000010
00000001
00000010
,
00023000
01000000
10000000
01000000
,
00032000
00003200
00000302
00000023
,
00000130
00010000
00001000
00000000
00100000
00001000
00010000
00000000
,
00002000
00000000
00000000
00000000
,
00000000
00000000
00000000
00003000
,
00020000
00000000
00000000
00000000
,
00000000
00000000
00000000
00030000
,
00001000
00000000
00100000
00020000
00000000
01030000
00010000
00000000
,
00100000
00000000
00001000
00020000
00000000
00031000
00000100
00000000
,
00000002
00000100
00002003
00000100
,
00003020
00010000
00002000
00003030
,
00010000
00000000
00000010
00002000
00000000
00003100
00001000
00000000
,
00000010
00000000
00010000
00002000
00000000
00013000
01000000
00000000
,
20000000
01000000
30020000
01000000
,
00230000
00001000
00020000
00330000
,
;
