#TITLE:London EVOLVED Ver.C;
#SUBTITLE:;
#ARTIST:TAG underground;
#TITLETRANSLIT:;
#SUBTITLETRANSLIT:;
#ARTISTTRANSLIT:;
#CREDIT:;
#BANNER:London EVOLVED Ver.C.png;
#BACKGROUND:London EVOLVED Ver.C-bg.png;
#LYRICSPATH:;
#CDTITLE:./CDTITLES/DanceDanceRevolution II.png;
#MUSIC:London EVOLVED Ver.C.ogg;
#OFFSET:0.000;
#SAMPLESTART:11.280;
#SAMPLELENGTH:15.000;
#SELECTABLE:YES;
#DISPLAYBPM:170.000:340.000;
#BPMS:0.000=169.990,36.000=340.024,228.000=170.012,260.000=340.024,324.000=340.022;
#STOPS:324.000=2.653
;
#BGCHANGES:;

//---------------dance-single - ----------------
#NOTES:
     dance-single:
     :
     Beginner:
     5:
     0.215,0.338,0.087,0.052,0.000:
0000
0000
0000
0000
,
0000
0000
0000
0000
,
0000
0000
0000
0000
,
0000
0000
0000
0000
,
0000
0000
0000
0000
,
0000
0000
0000
0000
,
0000
0000
0000
0000
,
0001
0000
0001
0000
,
1000
0000
1000
0000
,
1001
0000
0000
0000
,
0010
0000
0000
0000
,
0100
0000
0000
0000
,
0001
0000
0000
0000
,
1000
0000
0000
0000
,
0001
0000
0000
0000
,
0010
0000
0000
0000
,
1000
0000
1000
0000
,
1000
0000
0000
0000
,
0001
0000
0000
0000
,
1000
0000
0000
0000
,
0001
0000
0000
0000
,
1000
0000
0001
0000
,
1000
0000
0001
0000
,
0010
0000
0010
0000
,
0010
0000
0000
0000
,
1001
0000
0000
0000
,
0000
0000
0000
0000
,
2000
0000
3000
0000
,
0002
0000
0003
0000
,
0001
0000
0000
0000
,
0100
0000
0000
0000
,
2000
0000
3000
0000
,
0001
0000
0001
0000
,
0001
0000
0000
0000
,
0010
0000
0000
0000
,
2000
0000
3000
0000
,
0002
0000
0003
0000
,
0001
0000
0000
0000
,
0100
0000
0000
0000
,
0010
0000
0010
0000
,
0100
0000
0000
0000
,
1001
0000
0000
0000
,
0000
0000
0000
0000
,
1000
0000
1000
0000
,
1000
0000
0000
0000
,
0001
0000
0000
0000
,
0100
0000
0000
0000
,
0010
0000
0000
0000
,
0001
0000
0001
0000
,
0001
0000
0000
0000
,
0010
0000
0000
0000
,
1000
0000
1000
0000
,
1000
0000
0000
0000
,
1001
0000
0000
0000
,
1001
0000
0000
0000
,
0010
0000
0010
0000
,
0010
0000
0010
0000
,
0001
0000
0001
0000
,
0100
0100
0100
0000
,
1000
0000
1000
0000
,
0100
0100
0100
0000
,
0010
0000
0010
0000
,
0001
0001
0001
0000
,
0010
0000
0010
0000
,
1000
1000
1000
1000
,
1000
0000
0000
0000
,
0001
0000
0000
0000
,
1000
0000
0000
0000
,
0100
0000
0000
0000
,
0001
0000
0000
0000
,
0010
0000
0000
0000
,
1000
0000
0000
0000
,
0010
0000
0000
0000
,
1000
0000
1000
0000
,
1000
0000
0000
0000
,
0001
0000
0001
0000
,
0001
0000
0000
0000
,
0010
0000
0000
0000
,
0010
0000
0000
0000
,
0100
0000
0100
0000
,
0100
0000
0100
0000
,
0100
0001
0000
0000
,
0000
0001
0000
0000
,
0000
1000
0000
0000
,
0000
1000
0000
0000
,
0000
0020
0000
0000
,
0000
0030
0000
0000
,
0000
1000
0000
0000
,
0000
0001
0000
0000
,
0000
0010
0000
0000
,
0000
0010
0000
0000
,
0000
0100
0000
0000
,
0000
0100
0000
0000
,
0000
0001
0000
0001
,
0000
0001
0000
0000
,
0000
1000
0000
0000
,
0000
0001
0000
0000
,
0000
0010
0000
0010
,
0000
0010
0000
0000
,
0000
1000
0000
0000
,
0000
0001
0000
0000
,
0000
0100
0000
0000
,
0000
0010
0000
0000
,
0000
0001
0000
0000
,
0000
1000
0000
0000
,
0000
0100
0000
0100
,
0000
0100
0000
0000
,
0000
0010
0000
0000
,
0000
0100
0000
0000
,
0000
0001
0000
0000
,
0000
1000
0000
0000
,
0000
0010
0000
0000
,
0010
0000
0000
0000
,
0000
0010
0000
0010
,
0000
0010
0000
0000
,
0000
1000
0000
0000
,
0000
0001
0000
0000
,
0000
0100
0000
0000
,
0000
0001
0000
0001
,
0000
1001
0000
0000
,
0000
0000
0000
0000
,
0000
0110
0000
0000
,
0000
0000
0000
0000
,
0000
1001
0000
0000
,
1001
0000
0000
0000
,
0000
0010
0000
0000
,
0000
0100
0000
0000
,
0000
0000
0000
0000
0001
0000
0000
0001
,
0000
0000
0001
0000
0000
0001
0000
0000
,
1001
0000
0000
0000
,
;

//---------------dance-single - ----------------
#NOTES:
     dance-single:
     :
     Easy:
     8:
     0.394,0.564,0.149,0.079,0.000:
0000
0000
0000
0000
,
0000
0000
0000
0000
,
0000
0000
0000
0000
,
0000
0000
0000
0000
,
0000
0000
0000
0000
,
0000
0000
0000
0000
,
0000
0000
0000
0000
,
0010
0000
0100
0000
,
1000
0001
0010
0100
,
1001
0000
0000
0000
,
0001
0000
1000
0000
,
0100
0000
0000
0000
,
1000
0000
0001
0000
,
0100
0000
0000
0000
,
0001
0000
0010
0000
,
1000
0000
0001
0000
,
1000
0000
0010
0000
,
0001
0000
0001
0000
,
1000
0000
1000
0000
,
0010
0000
0010
0000
,
0100
0000
0100
0000
,
0001
0000
1000
0000
,
0001
0000
1000
0000
,
0001
1000
0001
1000
,
0001
0000
0100
0000
,
0010
0000
0000
0000
,
0100
0010
0100
0000
,
2000
0000
3100
0000
,
0002
0000
0103
0000
,
0010
0000
0000
0000
,
0100
0010
0100
0000
,
2000
0000
3100
0000
,
0011
0000
0011
0000
,
0100
0000
0000
0000
,
0010
0100
0010
0000
,
2000
0000
3100
0000
,
0002
0000
0103
0000
,
0010
0000
0000
0000
,
0100
0010
0100
0000
,
1000
1000
1000
0000
,
0001
0100
0001
0000
,
1000
0000
0000
0010
,
0100
0010
0100
0000
,
1000
0000
1000
0000
,
0001
0000
1000
0000
,
0001
0000
0000
0010
,
0100
0010
0100
0000
,
1000
0000
1000
0000
,
0011
0000
0011
0000
,
1000
0000
0000
0100
,
0010
0100
0010
0000
,
1000
0000
1000
0000
,
0001
0000
0100
0000
,
0010
0000
1010
0000
,
0100
0000
0101
0000
,
1000
0000
1000
0000
,
0001
0000
1001
0000
,
2000
0001
0100
3001
,
0010
0001
1000
1000
,
0002
1000
0100
1003
,
0010
1000
0001
0001
,
0020
0100
0001
0130
,
1000
0010
0100
0100
,
0020
0100
1000
0130
,
0001
0001
1000
1000
,
0001
0000
0100
0000
,
1000
0000
0010
0000
,
0100
0000
0001
0000
,
1000
0000
1000
0000
,
0001
0000
0010
0000
,
1000
0000
0100
0000
,
0010
0000
0001
0000
,
1000
0000
0001
0100
,
0001
0000
0100
0000
,
1000
0000
0010
0000
,
0100
0000
0001
0000
,
1000
0000
1000
0010
,
1000
0000
0010
0000
,
0001
0000
0100
0000
,
0010
0001
0010
0001
,
1000
0100
1000
0100
,
0001
1000
0000
0010
,
0000
0100
0001
0100
,
0000
1000
0000
0100
,
0000
0001
0000
0100
,
1000
0100
0000
0010
,
0000
0001
0000
0010
,
0000
1000
0100
1000
,
0000
0001
0100
0001
,
0000
1000
0000
0010
,
0000
0100
0001
0100
,
0000
1000
0000
0100
,
0000
0001
0000
0100
,
1000
0100
0000
0101
,
0000
0001
0000
1001
,
0000
1000
0100
1000
,
0000
0001
0100
0001
,
0000
1000
0000
0001
,
0000
0100
0000
0010
,
0000
1000
0010
1000
,
0000
0001
0010
0001
,
0000
0100
0000
0001
,
0000
0010
0000
0110
,
0000
0100
0000
1000
,
0000
0010
0000
0110
,
0000
0001
0000
0001
,
0000
0100
0000
0010
,
0000
0000
1000
0000
0000
0010
0000
0000
,
1000
0000
0001
0000
0000
0010
0000
0000
,
0001
1000
0000
0001
,
0000
0010
0000
0100
,
0000
0110
0000
0000
,
1001
0000
0000
0110
,
0000
1000
0000
0001
,
0000
0100
0000
0010
,
0000
1000
0010
1000
,
0000
0001
0010
0001
,
0000
0100
0000
0001
,
0000
0010
0100
0010
,
0000
0100
0000
1000
,
0000
0010
0100
0010
,
0000
1000
0000
0001
,
0000
0100
0000
0001
,
0000
0000
1000
0000
0000
0010
0000
0000
,
1001
0000
0000
0100
,
0000
0001
0000
0001
,
0000
0010
0000
0100
,
0000
0000
0000
0000
1000
0000
0000
0001
,
0000
0000
1000
0000
0000
0010
0000
0000
,
0110
0000
0000
0000
,
;

//---------------dance-single - ----------------
#NOTES:
     dance-single:
     :
     Medium:
     11:
     0.541,0.733,0.332,0.035,0.000:
0000
0000
0000
0000
,
0000
0000
0000
0000
,
0000
0000
0000
0000
,
0000
0000
0000
0000
,
0000
0000
0000
0000
,
0000
0000
0000
0000
,
0000
0000
0000
0000
,
0001
0010
1000
0100
,
0001
1000
0010
1000
0001
0000
0110
0000
,
1001
0000
0100
0000
,
0001
0000
1000
0100
,
1000
0000
1001
0000
,
0010
0000
0001
0100
,
0001
0000
1010
0000
,
0001
0000
0010
0100
,
0010
0000
1100
0000
,
0001
0000
0100
0010
,
0100
0000
0100
0001
,
0100
0000
0100
1000
,
0100
0000
0100
0010
,
0100
0000
0100
0001
,
1000
0001
1000
0001
,
0010
0001
0010
0001
,
1000
0100
1000
0100
,
1000
0000
1001
0000
,
0010
0000
0000
1000
0000
0000
0100
0000
,
0000
0001
0100
0000
,
1000
1000
0010
0000
,
0001
0001
0100
0000
,
0010
0000
0000
0001
0000
0000
1000
0000
,
0000
0100
0010
0000
,
1000
0001
0000
1001
,
0100
0000
0000
0010
0000
0000
0100
0000
,
0010
0000
0000
1000
0000
0000
0100
0000
,
0000
0001
0100
0000
,
1000
1000
0010
0000
,
0001
0001
0100
0000
,
0010
0000
0000
0001
0000
0000
1000
0000
,
0000
0100
0010
0000
,
1000
1000
0001
0100
,
0110
0000
1001
0000
,
0010
0000
0000
1000
0000
0000
0100
0000
,
0000
0001
0100
0001
,
1000
0100
1000
0000
,
0110
0000
0001
0000
,
0010
0000
0000
0001
0000
0000
1000
0000
,
0000
0100
0010
0100
,
1001
0000
1010
0000
,
0100
0000
0000
0001
0000
0000
0100
0000
,
0010
0000
0000
1000
0000
0000
0100
0000
,
0000
0001
0100
0001
,
1000
0100
1000
0000
,
0110
0000
0001
0000
,
0010
0000
0000
0001
0000
0000
1000
0000
,
0010
0000
0000
1000
0000
0000
0001
0000
,
1001
0000
1100
0000
,
0101
0000
1010
0000
,
0100
0001
0100
0001
0010
0000
0100
0000
,
1000
0010
1000
0010
0100
0000
0010
0000
,
0001
0010
0001
0010
1000
0000
0001
0000
,
1000
0100
1000
0100
0001
0000
1000
0000
,
0001
0100
0010
0100
0001
0000
0010
0000
,
1000
0100
0001
0100
1000
0000
0010
0000
,
0100
0001
1000
0001
0100
0000
0010
0000
,
1000
0100
0010
0000
1000
0100
0010
0000
,
1000
0001
0100
0001
,
0100
0010
0100
0001
,
1000
0000
1100
0000
,
0001
0000
0101
0000
,
0010
1000
0001
1000
,
0001
0010
0001
1000
,
0100
0000
1100
0000
,
0010
0000
0001
0100
,
0001
1000
0100
1000
,
0100
0010
0100
1000
,
0001
0100
0101
0000
,
0010
0100
0110
0000
,
1000
0100
1000
0001
,
0100
0001
0100
0010
,
0100
0001
1000
0001
,
0100
0010
1000
0010
,
0100
0001
0100
0001
,
0100
1000
0100
0001
,
0000
0001
0010
0001
,
0010
1000
0010
0001
,
0000
1100
0000
0100
,
0000
0101
0000
0100
,
0000
1000
0020
0030
,
0100
0001
0020
0030
,
0100
1000
0100
1000
,
0100
0001
0100
1000
,
0000
1000
0010
1000
,
0010
0001
0010
1000
,
0000
1010
0000
0010
,
0000
0011
0000
0010
,
0000
1000
0200
0300
,
0010
0001
0200
0300
,
0010
0100
0000
0100
,
0001
0010
0000
1000
,
0100
1000
0001
0100
,
0000
0001
1000
0100
,
0000
1010
0000
0011
,
0000
0001
0100
1000
,
0100
0001
0100
1000
,
0000
0010
0100
0010
,
0100
0001
0000
0100
,
1000
0001
0000
1000
,
0010
1000
0010
0001
,
0000
0001
0010
1000
,
0000
0100
0001
0100
,
0001
1000
0100
1000
,
0100
0010
0000
0000
,
1001
0000
0100
0010
,
0000
0100
0010
1000
,
0010
0100
0000
0001
,
0010
0001
1000
0100
,
0000
1000
0001
0100
,
0000
0010
1000
0001
,
0000
0010
0001
1000
,
0000
0110
0000
0101
,
0000
0110
0000
1100
,
0000
1000
0000
0001
,
0000
0010
0100
0010
,
1000
0000
0001
0000
0000
0110
0000
0000
,
1001
0000
0000
1000
,
0100
1000
0010
1000
,
0010
0100
0001
0100
,
0001
0000
0000
0000
1001
0000
0000
0100
,
0000
0000
1001
0000
0000
0100
0000
0000
,
1001
0000
0000
0000
,
;

//---------------dance-single - ----------------
#NOTES:
     dance-single:
     :
     Hard:
     14:
     0.650,0.846,0.236,0.026,0.004: // measure 1
0000
0000
0000
0000
,  // measure 2
0000
0000
0000
0000
,  // measure 3
0000
0000
0000
0000
,  // measure 4
0000
0000
0000
0000
,  // measure 5
0000
0000
0000
0000
,  // measure 6
0000
0001
0000
0010
0000
0001
0000
1000
,  // measure 7
0000
0010
0000
0100
0000
0010
0000
1000
,  // measure 8
0010
0001
1000
0001
0010
0001
1000
0100
,  // measure 9
0010
0000
0100
0000
0010
0000
0001
0000
1000
0000
0000
1010
0000
0000
0100
0000
,  // measure 10
0001
1000
0100
0000
,  // measure 11
1000
0100
0010
0000
,  // measure 12
1000
0010
1000
0000
,  // measure 13
0010
0100
0001
0000
,  // measure 14
0001
1000
0010
0000
,  // measure 15
0100
0001
1000
0000
,  // measure 16
0100
1000
0001
0000
,  // measure 17
1000
0010
1000
0001
,  // measure 18
1000
0000
0010
1000
,  // measure 19
0100
0000
0010
0001
,  // measure 20
0100
0000
0010
1000
,  // measure 21
0100
0000
0010
0001
,  // measure 22
0100
0010
0100
0001
,  // measure 23
1000
0001
1000
0100
,  // measure 24
0010
0100
1000
0001
,  // measure 25
1000
0000
0000
1010
0000
0000
0101
0000
,  // measure 26
0001
0000
0000
1000
0000
0000
0010
0000
,  // measure 27
0000
1001
0010
0001
,  // measure 28
1000
0100
1000
1000
,  // measure 29
0001
0100
0001
0001
,  // measure 30
1000
0000
0000
0001
0000
0000
0010
0000
,  // measure 31
0000
1001
0010
1000
,  // measure 32
1000
0100
1000
1001
,  // measure 33
0100
0000
0000
0001
0000
0000
0010
0000
,  // measure 34
0100
0000
0000
1000
0000
0000
0001
0000
,  // measure 35
0000
1001
0010
0100
,  // measure 36
1000
0100
1000
1000
,  // measure 37
0001
0100
0001
0001
,  // measure 38
0100
0000
0000
0001
0000
0000
1000
0000
,  // measure 39
0000
1001
0010
0100
,  // measure 40
0010
0001
1000
1001
,  // measure 41
0001
0000
0000
0100
0000
0000
0010
0000
,  // measure 42
0001
0000
0000
1000
0000
0000
0010
0000
,  // measure 43
0000
0100
0010
1000
,  // measure 44
0100
0001
0100
0010
,  // measure 45
0001
0000
1000
0001
0100
0000
0010
0000
,  // measure 46
1000
0000
0000
0001
0000
0000
0010
0000
,  // measure 47
0000
0001
0100
1000
,  // measure 48
0001
0010
1000
0100
,  // measure 49
0001
0000
0000
0110
0000
0000
1000
0000
,  // measure 50
0001
0000
0000
1000
0000
0000
0010
0000
,  // measure 51
0000
0100
0010
1000
,  // measure 52
0100
0001
0100
0010
,  // measure 53
0001
0000
1000
0001
0100
0000
0010
0000
,  // measure 54
1000
0000
0000
0101
0000
0000
0010
0000
,  // measure 55
0001
0000
0000
1100
0000
0000
0010
0000
,  // measure 56
0100
0000
0001
1000
0001
0000
0010
0000
,  // measure 57
0001
0100
1000
0000
,  // measure 58
0010
1000
0010
0100
0001
1000
0100
0000
,  // measure 59
0010
1000
0001
0100
2000
0000
3100
0000
,  // measure 60
0001
1000
0100
1000
0010
0100
0001
0000
,  // measure 61
1000
0001
0100
0001
0020
0000
1030
0000
,  // measure 62
0010
0001
0010
0100
1000
0001
0100
0000
,  // measure 63
0010
0001
1000
0100
0002
0000
0103
0000
,  // measure 64
1000
0001
0100
0001
0010
0100
1000
0000
,  // measure 65
0001
1000
0010
0100
0010
0001
0010
0000
,  // measure 66
1000
0010
1000
0100
,  // measure 67
1000
0000
0001
0000
0100
0010
0100
0000
,  // measure 68
0001
0010
0001
0100
,  // measure 69
0001
0000
1000
0000
0100
0010
0100
0000
,  // measure 70
1000
0001
0100
0010
,  // measure 71
1000
0000
0100
0000
0001
0100
0001
0000
,  // measure 72
1000
0001
0010
0100
,  // measure 73
1000
0000
0000
0010
0100
0000
0001
0000
,  // measure 74
0010
1000
0010
0001
,  // measure 75
0100
0000
0010
0000
0100
0001
0100
0000
,  // measure 76
0010
1000
0010
0100
,  // measure 77
1000
0000
0010
1000
0010
0000
1000
0100
,  // measure 78
1000
0001
0010
1000
,  // measure 79
0010
0000
0001
0000
1000
0010
1000
0000
,  // measure 80
0001
1000
0100
0001
,  // measure 81
1000
0010
0001
0100
,  // measure 82
1000
0001
0100
0010
,  // measure 83
0100
1000
0100
0001
,  // measure 84
0010
1000
0010
0100
,  // measure 85
0010
1000
0010
0001
,  // measure 86
0010
0100
1000
1100
,  // measure 87
0000
0100
0001
0101
,  // measure 88
0000
0000
1000
0010
1000
0000
0001
0000
,  // measure 89
0000
0000
0001
0010
0001
0000
1000
0000
,  // measure 90
0000
1000
0100
0010
,  // measure 91
0100
0001
0100
1000
,  // measure 92
0010
0001
0010
0100
,  // measure 93
0010
0001
0010
1000
,  // measure 94
0010
0100
0001
1001
,  // measure 95
0000
0100
1000
1001
,  // measure 96
0000
0000
0001
0010
0001
0000
1000
0000
,  // measure 97
0000
0000
1000
0010
1000
0000
0001
0000
,  // measure 98
0000
0010
0100
0001
,  // measure 99
0100
0000
0010
0000
0100
0000
1000
0100
,  // measure 100
1000
0001
1000
0100
,  // measure 101
0000
0001
1000
0100
,  // measure 102
0000
1010
0000
0010
,  // measure 103
0001
0000
1000
0000
0100
0000
0001
0100
,  // measure 104
0001
1000
0010
0100
,  // measure 105
0001
0010
1000
0100
,  // measure 106
0010
0001
1000
0100
,  // measure 107
1000
0000
0001
0000
1000
0000
0010
1000
,  // measure 108
0010
0000
0100
0000
0000
0001
0000
0000
,  // measure 109
0010
0000
0100
0000
0000
1000
0000
0000
,  // measure 110
0010
0100
0001
0100
,  // measure 111
0010
1000
0100
1000
,  // measure 112
0010
0001
0000
0010
,  // measure 113
1001
0000
0100
0010
,  // measure 114
0100
0010
0100
0000
0010
0000
0001
0000
,  // measure 115
0010
0000
0100
0000
0010
0000
1000
0010
,  // measure 116
1000
0001
1000
0010
,  // measure 117
0000
0001
1000
0010
,  // measure 118
0000
0000
0100
0000
0000
0001
0000
0000
,  // measure 119
0010
0000
0000
0001
0000
0000
1000
0000
,  // measure 120
0100
0010
0100
1100
,  // measure 121
0000
0010
0100
0101
,  // measure 122
0000
1000
0010
0001
,  // measure 123
0010
0000
0100
0000
1000
0000
0010
0100
,  // measure 124
0010
0100
0001
0000
0000
1010
0000
0000
,  // measure 125
0101
0000
0000
1000
,  // measure 126
1000
0100
1000
0000
0010
0000
0100
0000
,  // measure 127
0001
0000
1000
0000
0001
0000
0010
0100
,  // measure 128
0010
0100
0000
0000
1001
0000
0000
1100
,  // measure 129
0000
0000
0011
0000
0000
1010
0000
0000
,  // measure 130
0101
0000
0000
0000
;

//---------------dance-single - ----------------
#NOTES:
     dance-single:
     :
     Challenge:
     15:
     0.760,0.846,0.210,0.026,0.044:
0000
0000
0000
0000
,
0000
0000
0000
0000
,
0000
0000
0000
0000
,
0000
0000
0000
0000
,
0000
0000
0000
0000
,
0000
1000
0000
0010
0000
1000
0000
0001
,
0000
0010
0000
0100
0000
0010
0000
0001
,
1000
0010
1000
0100
0010
0001
0100
0010
,
1000
0000
0100
0000
1000
0000
0001
0000
1000
0000
0000
0011
0000
0000
0100
0000
,
1000
0001
0100
0001
,
1000
0100
0010
0001
,
1000
0010
0100
0001
,
0010
0100
1000
0001
,
1000
0001
0010
0100
,
1000
0010
0100
0001
,
0100
0001
1000
0100
,
0010
0000
0000
0100
0000
0000
1000
0010
,
0100
0000
0000
0001
0000
0000
0010
0001
,
0100
0000
0000
0001
0000
0000
0010
0100
,
1000
0000
0000
0001
0000
0000
0100
0010
,
1000
0000
0000
0001
0000
0000
0010
0100
,
1000
0000
0010
0100
0010
0000
1000
0010
,
1000
0000
0001
0010
0001
0000
0010
0100
,
1000
0100
1000
0100
1000
0100
1000
0100
,
0010
0000
0000
0011
0000
0000
1100
0000
,
1000
0000
0010
1000
0001
0000
0011
0000
,
0001
1000
0100
0000
,
0010
0000
0001
0100
0001
0000
0100
0000
,
0010
0000
1000
0100
1000
0000
0100
0000
,
1000
0000
0001
0100
0010
0000
1010
0000
,
0100
0001
1000
0001
,
1001
0000
0000
1000
,
0100
0000
0010
0100
0010
0000
0001
0000
,
0100
0000
0001
1000
0100
0000
0110
0000
,
0010
0001
1000
0000
,
0001
0000
0100
0010
0100
0000
0001
0000
,
1000
0000
0100
0010
0100
0000
1000
0000
,
0100
0000
1000
0001
0010
0000
0011
0000
,
0100
1000
0010
0100
,
0010
0000
0100
0000
0010
0000
1000
0001
,
1000
0000
0110
0000
,
1000
0000
0001
0010
0100
0000
1100
0000
,
1000
0001
0100
0010
,
0100
0001
0010
0000
,
0100
0000
1000
0100
0010
0001
0100
0010
,
1000
0000
0001
1000
0001
0000
1010
0000
,
0100
0001
1000
0100
,
0010
0000
0000
0100
,
1000
0000
0001
0100
0001
0000
0100
0000
,
0010
0000
1000
0001
0010
0000
0011
0000
,
0100
1000
0010
1000
,
0100
1000
0001
0000
,
0100
0000
0010
1000
0100
0010
0001
0100
,
0010
0000
0000
1000
0100
0000
0110
0000
,
0010
0000
0000
0001
0100
0000
0110
0000
,
0010
0000
1000
0010
1000
0000
0001
0010
,
0001
0000
0110
0000
,
0001
0000
0000
0010
0100
0000
1000
0000
0100
0000
0000
0000
0010
0000
0000
0000
,
0001
0000
0000
0100
0010
0000
0100
0000
0001
0000
1000
0000
0100
0000
0000
0000
,
0010
0000
0000
0001
0010
0000
0100
0000
0010
0000
0000
0000
0001
0000
0000
0000
,
0100
0000
0000
0010
1000
0000
0100
0000
0010
0000
0100
0000
1000
0000
0000
0000
,
0010
0000
0000
0100
0001
0000
1000
0000
0100
0000
0000
0000
0010
0000
0000
0000
,
0001
0000
0000
1000
0010
0000
0100
0000
1000
0000
0100
0000
0010
0000
0000
0000
,
1000
0000
0000
0001
0100
0000
0001
0000
1000
0000
0100
0000
0010
0000
0000
0000
,
0001
0000
0000
0010
0000
0000
0001
0000
0000
0100
0000
0000
0010
0000
0100
0000
,
0001
0010
0001
0100
,
0001
0000
1000
0000
0100
0010
0100
0000
,
1000
0010
1000
0100
,
1000
0000
0001
0000
0100
0010
0100
0010
,
0100
0010
1000
0100
,
0010
0000
0001
0000
1000
0100
1000
0000
,
0001
1000
0010
0100
,
0001
0000
0000
0010
0100
0000
1000
0000
,
0010
0001
0010
1000
,
0100
0000
0010
0000
0100
1000
0100
0000
,
0010
0001
0010
0100
,
1000
0000
0001
0100
0001
0000
0010
0100
,
0010
0100
1000
0001
,
0100
0000
0010
0000
0100
0001
0100
0000
,
0001
0010
0100
1000
0010
0100
0001
0010
,
0100
1000
0010
0100
0001
0010
0100
1000
,
0002
0000
0000
0003
0000
0000
0000
0000
0000
0000
0000
0000
0000
0000
0000
0000
0000
0000
0000
0000
0000
0000
0000
0000
0000
0000
0000
0000
0000
0000
0000
0000
0000
0000
0000
0000
0000
0000
0000
0000
0000
0000
0000
0000
0000
0000
0000
0000
1000
0000
0000
0000
0000
0000
0000
0000
0000
0000
0000
0000
0000
0000
0000
0000
0000
0000
0000
0000
0000
0000
0000
0000
0000
0000
0000
0000
0000
0000
0000
0000
0000
0000
0000
0000
0000
0000
0000
0000
0000
0000
0000
0000
0000
0000
0000
0000
0100
0000
0000
0000
0000
0000
0000
0000
0000
0000
0000
0000
0000
0000
0000
0000
0000
0000
0000
0000
0000
0000
0000
0000
0000
0000
0000
0000
0000
0000
0000
0000
0000
0000
0000
0000
0000
0000
0000
0000
0000
0000
0000
0000
0000
0000
0000
0000
0010
0000
0000
0000
0000
0000
0000
0000
0000
0000
0000
0000
0000
0000
0000
0000
0000
0000
0000
0000
0000
0000
0000
0000
0000
0000
0000
0000
0000
0000
0000
0000
0000
0000
0000
0000
0000
0000
0000
0000
0000
0000
0000
0000
0000
0000
0000
0000
,
0100
0001
0100
1000
,
0010
0001
0010
0100
,
0010
0001
0010
1000
,
0010
0000
0100
0001
0100
0000
0010
0000
,
0000
0000
1000
0100
1000
0000
0001
0000
,
0000
0000
0010
0000
0100
1000
0100
0000
,
1000
0010
1000
0000
0001
0100
0001
0000
,
0010
0100
0010
0000
0100
0000
0010
0000
,
0100
1000
0100
0010
,
0001
1000
0010
0100
,
0001
1000
0100
0001
,
0100
0000
1000
0010
1000
0000
0001
0000
,
0000
0000
0100
0001
0100
0000
0010
0000
,
0000
2002
0000
0000
,
3003
0000
0001
0010
0100
1000
0010
0100
,
0001
0010
0001
0000
1000
0100
1000
0000
,
0100
0000
0010
0001
0100
0000
0010
0000
,
0100
0000
0001
0000
1000
0100
0010
0000
,
0100
0000
1000
0010
0100
0000
0001
0000
,
1000
0000
0010
0000
0100
0010
0100
0000
,
0001
0000
0010
0100
0010
0000
0100
0000
,
1000
0000
0001
0000
0010
0100
0000
0100
,
1000
0000
0010
0100
0000
0100
0001
0000
,
0100
0000
0010
0000
1000
0001
1000
0000
,
0100
0000
0010
0001
0010
0000
0100
0000
,
1000
0000
0001
0000
1000
0001
0000
0001
,
0010
0000
0100
0000
1000
0010
0000
0010
,
0100
0010
1000
0100
,
0010
0001
0100
0010
,
0100
0000
0010
0000
0000
0010
0000
0000
,
1001
0000
0100
0010
,
0100
0010
1000
0000
0001
0100
0001
0000
,
0100
0000
0010
1000
0100
0000
0010
0000
,
0100
0000
1000
0000
0001
0100
0010
0000
,
0100
0000
0001
0010
0100
0000
1000
0000
,
0001
0000
0010
0000
0100
0010
0100
0000
,
1000
0000
0010
0100
0010
0000
0100
0000
,
0001
1000
0010
0100
,
0001
1000
0100
0000
0010
0000
0100
0000
,
1000
0001
0010
0100
,
0010
0000
0001
1000
0001
1000
0010
0100
,
0010
0100
0001
0000
0000
1010
0000
0000
,
0101
0000
0000
1000
,
0010
0100
0010
0000
1000
0000
0100
0000
,
1000
0000
0001
0000
0010
0000
0100
0010
,
0100
0010
0000
0000
1001
0000
0000
0101
,
0000
0000
1010
0000
0000
0011
0000
0000
,
1100
0000
0000
0000
,
;

//---------------dance-double - ----------------
#NOTES:
     dance-double:
     :
     Easy:
     8:
     0.397,0.564,0.157,0.280,0.000:
00000000
00000000
00000000
00000000
,
00000000
00000000
00000000
00000000
,
00000000
00000000
00000000
00000000
,
00000000
00000000
00000000
00000000
,
00000000
00000000
00000000
00000000
,
00000010
00000000
00000001
00000000
,
00001000
00000000
00000100
00000000
,
00000010
00000000
00001000
00000000
,
00010000
00100000
00010000
00100000
,
00110000
00000000
00110000
00000000
,
01000000
00000000
01000000
00000000
,
10010000
00000000
10010000
00000000
,
01000000
00000000
01000000
00000000
,
01010000
00000000
01010000
00000000
,
00001000
00000000
00000010
00000000
,
00001010
00000000
00001010
00000000
,
00000010
00000000
00000001
00000000
,
00001000
00000000
00000100
00000000
,
00000001
00000000
00000001
00000000
,
00000010
00000000
00001000
00000000
,
00010000
00000000
00010000
00000000
,
00100000
00010000
00100000
00000000
,
01000000
10000000
01000000
00000000
,
00100000
00010000
00100000
00010000
,
00001000
00000000
00001000
00000000
,
00001000
00000000
00000010
00000000
,
00000001
00000000
00000100
00000000
,
00000020
00000000
00010000
00000030
,
00000020
00000000
00000100
00000030
,
00001000
00000000
00010000
00000000
,
00100000
00000000
10000000
00000000
,
02000000
00000000
00100000
03000000
,
02000000
00000000
00010000
03000000
,
00001000
00000000
00000010
00000000
,
00000001
00000000
00000100
00000000
,
00002000
00000000
00010000
00003000
,
00002000
00000000
00100000
00003000
,
00010000
00000000
00100000
00000000
,
10000000
00000000
01000000
00000000
,
10000000
00000000
00010000
00000000
,
10010000
00000000
00000000
00000000
,
01000000
00001000
00000000
00010000
,
00000010
00010000
00000000
00000100
,
00000010
00000000
00000001
00000000
,
00001000
00000000
00000100
00000000
,
00010000
00001000
00000000
00100000
,
00010000
00100000
00000000
01000000
,
10000000
00000000
00100000
00000000
,
10000000
00000000
01000000
00000000
,
10000000
00010000
00000000
01000000
,
00001000
01000000
00000000
00001000
,
00010000
00000000
00000010
00000000
,
00001000
00000000
00000001
00000000
,
00000010
00000000
00000100
00001000
,
00000100
00000000
00010000
00001000
,
00010000
00000000
00100000
00000000
,
10000000
00000000
01000000
00000000
,
00200000
00000000
00010000
00300000
,
00002000
00000000
00000100
00003000
,
00000020
00000000
00000000
00000030
,
00000002
00000000
00000200
00000303
,
00002000
00000000
00000100
00003000
,
00020000
00000000
00001000
00030000
,
00200000
00000000
00000000
00300000
,
20000000
00000000
00020000
30030000
,
00220000
00000000
00000000
00330000
,
22000000
00000000
00000000
33000000
,
20000000
00000000
00100000
30000000
,
02000000
00000000
00010000
03000000
,
00002000
00000000
00000000
00003000
,
00000200
00000000
00000000
00000300
,
00000002
00000000
00000010
00000003
,
00000200
00000000
00001000
00000300
,
00000020
00000000
00000100
00000030
,
00002000
00000000
00010000
00003000
,
00200000
00000000
10000000
00300000
,
02000000
00000000
00100000
03000000
,
00010000
00000000
01000000
00000000
,
00001000
00000000
00010000
00000000
,
00000010
00001000
00000010
00000000
,
00000100
00000001
00000100
00000000
,
00001001
00000001
00000000
00000010
,
00000000
00000100
00000000
00001000
,
00000000
00000010
00000000
00000100
,
00000000
00001000
00000000
00010000
,
00001000
00010000
00000000
00100000
,
00000000
01000000
00000000
00010000
,
00000000
00100000
00010000
01000000
,
00000000
00100000
10000000
01000000
,
00000000
00100000
00000000
01000000
,
00000000
00010000
00000000
00001000
,
00000000
00000010
00000000
00000001
,
00000000
00000100
00000000
00000010
,
00001000
00000001
00000000
00000100
,
00000000
00000010
00000100
00000010
,
00000000
00002002
00000000
00003003
,
00000000
00000100
00000000
00000100
,
00000000
00000001
00000000
00001000
,
00000000
00000100
00000000
00000010
,
00000001
00000010
00000000
00000100
,
00000000
00010000
00000000
00001000
,
00010000
00001000
00000000
00100000
,
00000000
00010000
00000000
01000000
,
00000000
00100000
00000000
10000000
,
00000000
00100000
00000000
00010000
,
00000000
00100000
00000000
00100000
,
00000000
10000000
00000000
01000000
,
00000000
00010000
00000000
00010000
,
00000000
00001000
00000000
00010000
,
00001000
00010000
00000000
00000010
,
00000000
00001000
00000000
00000100
,
00000000
00000110
00000000
00000000
,
00001001
00000000
00000000
00000110
,
00000000
00000001
00000000
00001000
,
00000000
00000100
00000000
00000010
,
00000001
00000010
00000000
00000100
,
00000000
00010000
00000000
00001000
,
00010000
00001000
00000000
00100000
,
00000000
00010000
00000000
10000000
,
00000000
01000000
00000000
00010000
,
00000000
01000000
00000000
00100000
,
01000000
00100000
00000000
00010000
,
00000000
10000000
00000000
00100000
,
00000000
00000000
00010000
00000000
00000000
00001000
00000000
00000000
,
00011000
00000000
00000000
00010000
,
00000000
00001000
00000000
00000100
,
00000000
00000001
00000000
00000010
,
00000000
00000000
00000000
00000000
00000001
00000000
00000000
00000001
,
00000000
00000000
00001000
00000000
00000000
00001000
00000000
00000000
,
00000110
00000000
00000000
00000000
,
;

//---------------dance-double - ----------------
#NOTES:
     dance-double:
     :
     Medium:
     11:
     0.513,0.677,0.184,0.219,0.039:
00000000
00000000
00000000
00000000
,
00000000
00000000
00000000
00000000
,
00000000
00000000
00000000
00000000
,
00000000
00000000
00000000
00000000
,
00000000
00000000
00000000
00000000
,
00000001
00000000
00000010
00000000
,
00001000
00000000
00010000
00000000
,
00100000
00000000
10000000
00000000
,
01000000
00010000
00001000
00011000
,
00002000
00000000
00023000
00000000
,
00032000
00000000
00203000
00000000
,
00302000
00000000
02003000
00000000
,
03002000
00000000
00023000
00000000
,
00030200
00000000
00020300
00000000
,
00030020
00000000
00020030
00000000
,
00032000
00000000
00023000
00000000
,
00031000
00000000
00000000
00000100
00000000
00000000
00000001
00000000
,
00000010
00000001
00000100
00000000
,
00000010
00001000
00000100
00000000
,
00010000
00001000
00100000
00000000
,
01000000
10000000
00010000
00000000
,
10000000
00100000
10000000
00100000
,
01000000
00001000
01000000
00001000
,
00010000
00000100
00010000
00000100
,
00001000
00000000
00000000
00000010
00000000
00000000
00000100
00000000
,
00000001
00000000
00000000
00000010
00000000
00000000
00000100
00000000
,
00000010
00000001
00000100
00000000
,
00001000
00010000
00001000
00000000
,
00100000
00010000
00100000
00000000
,
01000000
00000000
00000000
10000000
00000000
00000000
00100000
00000000
,
01000000
00100000
01000000
00000000
,
00001000
00000000
00010000
00000000
,
00001000
00000000
00000000
00000100
00000000
00000000
00000001
00000000
,
00000010
00000000
00000000
00000001
00000000
00000000
00001000
00000000
,
00000010
00001000
00000100
00000000
,
00010000
00001000
00010000
00000000
,
00001000
00100000
00001000
00000000
,
00010000
00000000
00000000
00100000
00000000
00000000
01000000
00000000
,
00100000
10000000
01000000
00000000
,
20000000
00000000
00000000
30010000
,
00100000
00000000
00000000
00100000
00000000
00000000
00100000
00000000
,
01000000
00000000
00000000
01000000
00000000
00000000
00010000
00000000
,
00001000
00010000
00001000
00000000
,
00000010
00000100
00001000
00000000
,
00000010
00000100
00000001
00000000
,
00001000
00000000
00000000
00001000
00000000
00000000
00000010
00000000
,
00010000
00001000
00100000
00010000
,
10000000
00000000
00000000
00010000
,
01000000
00000000
00000000
00100000
00000000
00000000
01000000
00000000
,
00100000
00000000
00000000
00100000
00000000
00000000
10000000
00000000
,
01000000
00100000
01000000
00000000
,
00100000
00001000
00010000
00000000
,
00000010
00010000
00001000
00000000
,
00010000
00000000
00000000
00001000
00000000
00000000
00000100
00000000
,
00000010
00000000
00000000
00001000
00000000
00000000
00000100
00000000
,
00010000
00001000
01000000
00010000
,
10000000
00000000
01100000
00000000
,
10000000
00000000
00000000
01000000
00000000
00000000
10000000
00000000
00110000
00000000
00000000
00000000
00010000
00000000
00000000
00000000
,
01000000
00000000
00000000
00001000
00000000
00000000
00010000
00000000
00011000
00000000
00000000
00000000
00000000
00000000
00000000
00000000
,
00001000
00000000
00000000
00000100
00000000
00000000
00000010
00000000
00000110
00000000
00000000
00000000
00000010
00000000
00000000
00000000
,
00010000
00000000
00000000
00001000
00000000
00000000
00100000
00000000
00110000
00000000
00000000
00000000
00000000
00000000
00000000
00000000
,
00010000
00000000
00000000
01000000
00000000
00000000
10000000
00000000
10100000
00000000
00000000
00000000
00010000
00000000
00000000
00000000
,
00001000
00000000
00000000
00000100
00000000
00000000
00001000
00000000
00001100
00000000
00000000
00000000
00000000
00000000
00000000
00000000
,
00000001
00000000
00000000
00000010
00000000
00000000
00001000
00000000
00001010
00000000
00000000
00000000
00000100
00000000
00000000
00000000
,
00000010
00000000
00000000
00010000
00000000
00000000
00001000
00000000
00000000
00100000
00000000
00000000
01000000
00000000
10000000
00000000
,
00200000
00000000
00000000
00000000
,
20000000
00000000
00000000
30300000
,
01000000
10000000
01000000
00000000
,
00100000
00010000
00100000
00000000
,
00002000
00000000
00000000
00000000
,
00020000
00000000
00000000
00033000
,
00000010
00001000
00000010
00000000
,
00000100
00000001
00000100
00000000
,
00002000
00000000
00000000
00000000
,
00000200
00000000
00000000
00003300
,
00001000
00010000
00001000
00000000
,
01000000
00100000
01000000
00000000
,
00200000
00000000
00000000
00000000
,
20000000
00000000
00000000
30300000
,
00100000
10000000
00010000
01000000
,
00001000
00010000
00000010
00001000
,
00000101
00000010
00000100
00000001
,
00000100
00001000
00010000
00001000
,
00000000
00100000
00010000
00100000
,
01000000
10000000
00010000
01000000
,
00000000
10100000
00000000
01000000
,
00000000
00110000
00000000
01000000
,
00000000
10000000
01000000
00010000
,
00000000
00001000
00000010
00000001
,
00000000
00001000
00000001
00000100
,
00000001
00000010
00000001
00000100
,
00000000
00000010
00010000
00001000
,
00100000
00010000
10000000
00100000
,
00000000
01010000
00000000
00100000
,
00000000
11000000
00000000
00100000
,
00000000
02200000
00000000
03300000
,
00000000
10000000
01000000
10000000
,
01000000
00100000
00000000
00001000
,
00010000
00000010
00001000
00000001
,
00000100
00000001
00001000
00000100
,
00000000
00001000
00000001
00000100
,
00000000
00000001
00000000
00000010
,
00000000
00001000
00000000
00010000
,
00000100
00001000
00000100
00010000
,
00000000
00000010
00000100
00000010
,
00000100
00001000
00000000
00010000
,
00100000
01000000
00100000
10000000
,
01000000
00100000
00010000
01000000
,
00000000
00100000
01000000
00010000
,
00000000
00100000
00001000
00010000
,
00000010
00001000
00000100
00000010
,
00000000
00000100
00000000
00000000
,
00001001
00000000
00000100
00000010
,
00000000
00001000
00000000
00000001
,
00000010
00000100
00010000
00001000
,
00100000
00010000
10000000
00100000
,
00000000
10000000
00010000
00100000
,
00000000
01000000
10000000
01000000
,
00000000
00100000
00010000
00100000
,
00000000
00010000
00000000
00001000
,
00000000
00000100
00000000
00000010
,
00000000
00000001
00000100
00000001
,
00000100
00000010
00001000
00000010
,
00001000
00000000
00000001
00000000
00000000
00000110
00000000
00000000
,
00001001
00000000
00000000
00000100
,
00000000
00000001
00000010
00000100
,
00010000
00001000
01000000
00010000
,
00100000
00000000
00000000
00000000
10010000
00000000
00000000
01000000
,
00000000
00000000
10010000
00000000
00000000
00100000
00000000
00000000
,
10010000
00000000
00000000
00000000
,
;

//---------------dance-double - ----------------
#NOTES:
     dance-double:
     :
     Hard:
     14:
     0.632,0.790,0.149,0.070,0.044:
00000000
00000000
00000000
00000000
,
00000000
00000000
00000000
00000000
,
00000000
00000000
00000000
00000000
,
00000000
00000000
00000000
00000000
,
00000000
00000000
00000000
00000000
,
20000000
30000000
02000000
03000000
,
00020000
00030000
00002000
00003000
,
00000200
00000300
00000002
00000003
,
00000100
00000000
00000001
00000000
00001000
00000000
00000100
00000000
00010000
00000000
00000000
00001000
00000000
00000000
00100000
00000000
,
00010000
00100000
01000000
00000000
,
10000000
00010000
01000000
00000000
,
00100000
10000000
01000000
00000000
,
00010000
00001000
00010000
00000000
,
00000010
00010000
00001000
00000000
,
00000100
00000010
00001000
00000000
,
00000001
00000010
00000100
00000000
,
00010000
00001000
00010000
00000000
,
00100000
01000000
00010000
00000000
,
00100000
01000000
10000000
00000000
,
00100000
10000000
01000000
00000000
,
00100000
00010000
01000000
00000000
,
00100000
10000000
00010000
01000000
,
00001000
00010000
00000100
00001000
,
00000001
00000010
00000100
00001000
,
00000010
00000000
00000000
00000010
00000000
00000000
00000100
00000000
,
00000010
00000000
00000000
00010000
00001000
00000000
00100000
00000000
,
00010000
10000000
00100000
00000000
,
01000000
00010000
10000000
01000000
,
00100000
01000000
10000000
00000000
,
00010000
00000000
00000000
00100000
00001000
00000000
00010000
00000000
,
00000010
00001000
00000100
00000000
,
00000010
00000100
00010000
00000010
,
00000100
00000000
00000000
00000010
00000100
00000000
00000010
00000000
,
00001000
00000000
00000000
00000001
00000010
00000000
00000100
00000000
,
00010000
00001000
01000000
00000000
,
00100000
01000000
00010000
10000000
,
01000000
00100000
01000000
00000000
,
10000000
00000000
00000000
00010000
00100000
00000000
00001000
00000000
,
00010000
00000100
00001000
00000000
,
00000010
00000000
00000100
00000000
00000001
00000000
00001000
00000100
,
00001000
00000000
00000110
00000000
,
00000001
00000000
00000000
00000010
00000100
00000000
00000010
00000000
,
00000100
00010000
00001000
00100000
,
00010000
01000000
00100000
00000000
,
01000000
00000000
00100000
10000000
00100000
00000000
01000000
00000000
,
00010000
00000000
00000000
00100000
00001000
00000000
00010000
00000000
,
01000000
10000000
00100000
01000000
,
00100000
00000000
01000000
00001000
,
00010000
00000000
00000000
00000010
00001000
00000000
00000001
00000000
,
00001000
00000000
00000000
00000100
00000010
00000000
00000100
00000000
,
00000010
00000001
00000100
00000001
,
00001000
00000100
00010000
00000000
,
00001000
00000000
00100000
00010000
00100000
00000000
01000000
00000000
,
10000000
00000000
00000000
00100000
01000000
00000000
00010000
00000000
,
00100000
00000000
00000000
01000000
10000000
00000000
00100000
00000000
,
01000000
00000000
00100000
00000000
00010000
00000000
00001000
00010000
,
00001000
00000000
00011000
00000000
,
00001000
00000000
00000000
00000010
00000100
00000000
00000010
00000000
00000001
00000000
00000000
00000000
00001000
00000000
00000000
00000000
,
00000010
00000000
00000000
00000100
00000010
00000000
00000100
00000000
00001000
00000000
00010000
00000000
00100000
00000000
00000000
00000000
,
10000000
00000000
00000000
00010000
00100000
00000000
01000000
00000000
10000000
00000000
00000000
00000000
00010000
00000000
00000000
00000000
,
01000000
00000000
00000000
00100000
10000000
00000000
01000000
00000000
00100000
00000000
01000000
00000000
10000000
00000000
00000000
00000000
,
00010000
00000000
00000000
01000000
00001000
00000000
00010000
00000000
00000100
00000000
00000000
00000000
00000010
00000000
00000000
00000000
,
00000001
00000000
00000000
00001000
00000100
00000000
00000010
00000000
00000001
00000000
00000100
00000000
00000010
00000000
00000000
00000000
,
00001000
00000000
00000000
00000001
00000100
00000000
00001000
00000000
00010000
00000000
00000000
00000000
00001000
00000000
00000000
00000000
,
00010000
00000000
00000000
00100000
00000000
00000000
10000000
00000000
00000000
01000000
00000000
00000000
00100000
00000000
01000000
00000000
,
00100000
00010000
01000000
00000000
,
00100000
10000000
01000000
00000000
,
00100000
00001000
00010000
00000010
,
00001000
00000001
00000010
00000100
,
00000010
00000001
00001000
00000000
,
00000010
00001000
00000001
00000000
,
00001000
00000010
00000100
00000010
,
00001000
00000000
00000000
00000001
00000100
00000000
00000010
00000000
,
00010000
00001000
00010000
00001000
,
00100000
00010000
00100000
00010000
,
10000000
00100000
10000000
00100000
,
01000000
00010000
01000000
00010000
,
00100000
00001000
00100000
00001000
,
00010000
00000100
00010000
00000100
,
00000010
00000100
00000010
00000100
00000010
00000100
00000010
00000100
,
00001000
00000001
00001000
00000001
00001000
00000001
00001000
00000001
,
00000100
00000001
00000100
00000010
,
00000100
00000001
00000100
00001000
,
00010000
00100000
10000000
00100000
,
01000000
00010000
00100000
01000000
,
10000000
00010000
01000000
01010000
,
00000000
10000000
01000000
11000000
,
00000000
00000000
00100000
00010000
00100000
00000000
00001000
00000000
,
00000000
00000000
00000010
00000100
00000010
00000000
00000001
00000000
,
00000000
00001000
00000100
00000010
,
00000100
00001000
00000010
00000100
,
00000001
00001000
00000100
00010000
,
00001000
00100000
00010000
10000000
,
00100000
01000000
00010000
10010000
,
00000000
01000000
10000000
10010000
,
00000000
02200000
00000000
03300000
,
00000000
00000000
00010000
00000000
10000000
00000000
01000000
00100000
,
01000000
10000000
00100000
01000000
,
00001000
00000000
00010000
00000000
00000010
00000000
00000100
00000010
,
00000100
00000001
00000010
00000100
,
00000000
00001000
00000010
00000100
,
00000000
00000001
00000000
00000010
,
00001000
00010000
01000000
00100000
,
00010000
01000000
00010000
00000000
01000000
00000000
00100000
00000000
,
10000000
01000000
00100000
00010000
,
01000000
00001000
00010000
00000100
,
00001000
00000000
00000010
00000000
00000100
00000000
00000001
00000010
,
00000001
00000000
00000100
00000000
00000000
00000010
00000000
00000000
,
00001000
00000000
00000100
00000000
00000000
00000010
00000000
00000000
,
00000001
00000100
00001000
00010000
,
00001000
00010000
00100000
01000000
,
00000000
00000000
00100000
00000000
00000000
01000000
00000000
00000000
,
10010000
00000000
01000000
00100000
,
01000000
00100000
01000000
00000000
00010000
00000000
01000000
00000000
,
00001000
00000000
00010000
00000000
00000010
00000000
00000100
00000010
,
00000100
00000001
00000010
00000100
,
00000000
00001000
00000010
00000100
,
00000000
00001000
00010000
00001000
,
00100000
00010000
10000000
00100000
,
01000000
00010000
01000000
01010000
,
00000000
10000000
01000000
11000000
,
00000000
00100000
10000000
01000000
,
00010000
00000000
00001000
00000000
00000010
00000000
00000100
00000010
,
00000100
00000010
00000001
00000000
00000000
00000011
00000000
00000000
,
00001100
00000000
00000000
00000010
,
00000100
00000010
00000100
00000000
00000010
00000000
00001000
00000000
,
00000100
00000000
00000010
00000000
00001000
00000000
00010000
00001000
,
00010000
00001000
00000000
00000000
00110000
00000000
00000000
11000000
,
00000000
00000000
10100000
00000000
00000000
01010000
00000000
00000000
,
10010000
00000000
00000000
00000000
,
;

//---------------dance-double - ----------------
#NOTES:
     dance-double:
     :
     Challenge:
     15:
     0.716,0.790,0.079,0.096,0.044:
00000000
00000000
00000000
00000000
,
00000000
00000000
00000000
00000000
,
00000000
00000000
00000000
00000000
,
00000000
00000000
00000000
00000000
,
00000000
00000000
00000000
00000000
,
00000002
00000003
00000200
00000300
,
00002000
00003000
00020000
00030000
,
02000000
03000000
20000000
30000000
,
01000000
00000000
10000000
00000000
00010000
00000000
01000000
00000000
00001000
00000000
00000000
00010000
00000000
00000000
00000010
00000000
,
00001000
00001000
00000001
00000100
,
00001000
00010000
01000000
10000000
,
00010000
10000000
01000000
00100000
,
01000000
00010000
00001000
00000010
,
00000001
00000100
00001000
00010000
,
01000000
10000000
00010000
10000000
,
01000000
00010000
00001000
00000100
,
00000001
00001000
00000010
00000100
,
00001000
00010000
00100000
10000000
,
00010000
10000000
01000000
00100000
,
01000000
00010000
00001000
00000100
,
00000001
00001000
00000010
00000100
,
00001000
00010000
01000000
10000000
,
00010000
10000000
00010000
01000000
,
00010000
01000000
00100000
01000000
00010000
10000000
01000000
00100000
,
01000000
00000000
00010000
00001000
00010000
00000000
00000100
00000000
,
00001000
00000000
00001000
00000010
00000100
00000000
00001000
00000000
,
00010000
01000000
10000000
00010000
,
00100000
00010000
01000000
00000000
,
00100000
10000000
01000000
00000000
,
00100000
00000000
00001000
00010000
00001000
00000000
00010000
00000000
,
00001000
00000100
00000010
00001000
,
00000001
00000000
00001000
00000100
00001000
00000000
00000100
00000000
,
00000010
00000000
00000001
00001000
00000010
00000000
00000100
00000000
,
00000001
00000000
00000100
00000001
00001000
00000000
00000001
00000000
,
00000100
00001000
00010000
00100000
,
10000000
00010000
00100000
00000000
,
00010000
10000000
00100000
00000000
,
01000000
00000000
00100000
10000000
00100000
00000000
10000000
00000000
,
01000000
00010000
00001000
00000010
,
00000001
00000000
00001000
00000000
00000001
00000000
00000010
00000100
,
00002000
00000000
00000000
00003000
,
00000001
00000000
00000100
00000010
00000100
00000000
00000010
00000000
,
00010000
00001000
00100000
00010000
,
10000000
00100000
01000000
00000000
,
00100000
00000000
10000000
00010000
00100000
00000000
01000000
00000000
,
10000000
00000000
01000000
00100000
01000000
00000000
00100000
00000000
,
00001000
00010000
00000010
00000100
,
00000001
00000000
00001000
00000100
,
00000010
00000000
00000100
00010000
00000100
00000000
00010000
00000000
,
00001000
00000000
00100000
01000000
00100000
00000000
00010000
00000000
,
10000000
00100000
01000000
00010000
,
00100000
00010000
01000000
00000000
,
00100000
00000000
10000000
00010000
00100000
00000000
01000000
00000000
,
10000000
00000000
00010000
01000000
00010000
00000000
00100000
00000000
,
00001000
00000000
00010000
00000100
00010000
00000000
00000100
00000000
,
00001000
00000000
00000010
00000100
00000001
00000010
00000100
00000010
,
00000002
00000000
00001000
00000003
,
00000001
00000000
00000000
00000010
00000100
00000000
00000010
00000000
00000001
00000000
00000000
00000000
00001000
00000000
00000000
00000000
,
00000010
00000000
00000000
00000100
00000010
00000000
00000100
00000000
00001000
00000000
00010000
00000000
00100000
00000000
00000000
00000000
,
10000000
00000000
00000000
00010000
00100000
00000000
01000000
00000000
10000000
00000000
00000000
00000000
00010000
00000000
00000000
00000000
,
01000000
00000000
00000000
00100000
10000000
00000000
01000000
00000000
00100000
00000000
01000000
00000000
10000000
00000000
00000000
00000000
,
00010000
00000000
00000000
01000000
00001000
00000000
00010000
00000000
00000100
00000000
00000000
00000000
00000010
00000000
00000000
00000000
,
00000001
00000000
00000000
00001000
00000100
00000000
00000010
00000000
00000001
00000000
00000100
00000000
00000010
00000000
00000000
00000000
,
00001000
00000000
00000000
00000001
00000100
00000000
00001000
00000000
00010000
00000000
00000000
00000000
00001000
00000000
00000000
00000000
,
00010000
00000000
00000000
00100000
00000000
00000000
10000000
00000000
00000000
01000000
00000000
00000000
00100000
00000000
01000000
00000000
,
10000000
00100000
10000000
00100000
,
01000000
00010000
10000000
01000000
,
00100000
00001000
00010000
00000010
,
00001000
00000100
00000010
00000001
,
00001000
00000010
00000100
00000010
,
00010000
00001000
00000100
00000010
,
00001000
00010000
01000000
00100000
,
01000000
00000000
00000000
00100000
10000000
00000000
01000000
00000000
,
00100000
00010000
00001000
00000100
,
00000010
00000001
00000100
00000010
,
00001000
00000001
00000100
00001000
,
00010000
00000000
00001000
00100000
00001000
00000000
01000000
00010000
,
01000000
00100000
10000000
00010000
,
00100000
01000000
10000000
00100000
,
01000000
00010000
01000000
00010000
00100000
00001000
00100000
00001000
,
00010000
00000010
00010000
00000010
00001000
00000001
00001000
00000001
,
00000200
00000000
00000000
00000300
00000000
00000000
00000000
00000000
00000000
00000000
00000000
00000000
00000000
00000000
00000000
00000000
00000000
00000000
00000000
00000000
00000000
00000000
00000000
00000000
00000000
00000000
00000000
00000000
00000000
00000000
00000000
00000000
00000000
00000000
00000000
00000000
00000000
00000000
00000000
00000000
00000000
00000000
00000000
00000000
00000000
00000000
00000000
00000000
00000001
00000000
00000000
00000000
00000000
00000000
00000000
00000000
00000000
00000000
00000000
00000000
00000000
00000000
00000000
00000000
00000000
00000000
00000000
00000000
00000000
00000000
00000000
00000000
00000000
00000000
00000000
00000000
00000000
00000000
00000000
00000000
00000000
00000000
00000000
00000000
00000000
00000000
00000000
00000000
00000000
00000000
00000000
00000000
00000000
00000000
00000000
00000000
00000100
00000000
00000000
00000000
00000000
00000000
00000000
00000000
00000000
00000000
00000000
00000000
00000000
00000000
00000000
00000000
00000000
00000000
00000000
00000000
00000000
00000000
00000000
00000000
00000000
00000000
00000000
00000000
00000000
00000000
00000000
00000000
00000000
00000000
00000000
00000000
00000000
00000000
00000000
00000000
00000000
00000000
00000000
00000000
00000000
00000000
00000000
00000000
00000010
00000000
00000000
00000000
00000000
00000000
00000000
00000000
00000000
00000000
00000000
00000000
00000000
00000000
00000000
00000000
00000000
00000000
00000000
00000000
00000000
00000000
00000000
00000000
00000000
00000000
00000000
00000000
00000000
00000000
00000000
00000000
00000000
00000000
00000000
00000000
00000000
00000000
00000000
00000000
00000000
00000000
00000000
00000000
00000000
00000000
00000000
00000000
,
00000100
00000001
00000100
00001000
,
00010000
00100000
10000000
00100000
,
01000000
00010000
00100000
01000000
,
10000000
00010000
01000000
00000000
00100000
00000000
01000000
00000000
,
00000000
00010000
10000000
01000000
,
00000000
00000000
00100000
00010000
00100000
00000000
00001000
00000000
,
00010000
00000000
00000010
00000100
00000010
00000000
00001000
00000000
,
00000001
00001000
00000100
00000010
,
00000100
00001000
00000010
00000100
,
00000001
00001000
00000100
00010000
,
00001000
00100000
00010000
10000000
,
00100000
01000000
00010000
00000000
10000000
00000000
00010000
00000000
,
00000000
00100000
01000000
00100000
,
01000000
20020000
00000000
00000000
,
30030000
00000000
00010000
01000000
00010000
01000000
00100000
10000000
,
00100000
10000000
00010000
00000000
00100000
01000000
00100000
00000000
,
00001000
00000000
00010000
00001000
00010000
00000000
00000100
00000000
,
00001000
00000000
00000001
00000000
00000010
00000100
00000010
00000000
,
00000100
00000000
00001000
00000010
00001000
00000000
00000001
00000000
,
00000100
00000000
00000010
00000000
00010000
00001000
00000000
00010000
,
00001000
00000000
00100000
00010000
00000000
01000000
00010000
00000000
,
01000000
00000000
00100000
00000000
10000000
01000000
00000000
10000000
,
01000000
00100000
00010000
10000000
,
00100000
00000000
01000000
00000000
00001000
00010000
00001000
00000000
,
00010000
00000000
00000100
00001000
00000100
00000000
00000010
00000000
,
00000001
00000000
00000100
00000000
00000010
00001000
00000000
00001000
,
00000100
00000000
00000010
00000000
00000001
00000100
00000000
00000100
,
00000010
00000100
00001000
00010000
,
00001000
00010000
00100000
01000000
,
00100000
00000000
01000000
00000000
00000000
01000000
00000000
00000000
,
10010000
00000000
01000000
00100000
,
01000000
00100000
01000000
00000000
00010000
10000000
00010000
00000000
,
00100000
00000000
00001000
00010000
00001000
00000000
00000010
00000000
,
00000100
00000000
00001000
00000000
00000010
00000100
00000010
00000000
,
00001000
00000000
00000001
00000010
00000001
00000000
00000100
00000000
,
00000010
00000000
00010000
00000000
00001000
00010000
00000000
00001000
,
00010000
00000000
01000000
00100000
00000000
01000000
00100000
00000000
,
00010000
01000000
00100000
10000000
,
01000000
00100000
00010000
01000000
,
00100000
10000000
01000000
00010000
,
00001000
00000000
00000010
00000001
00000010
00000001
00000100
00000010
,
00000100
00000010
00001000
00000000
00000000
00000101
00000000
00000000
,
00001100
00000000
00000000
00000001
,
00000100
00000010
00000100
00000000
00000010
00000000
00010000
00000000
,
00001000
00000000
00100000
00000000
00010000
00000000
01000000
00100000
,
01000000
00100000
00000000
00000000
10100000
00000000
00000000
01010000
,
00000000
00000000
00110000
00000000
00000000
11000000
00000000
00000000
,
10010000
00000000
00000000
00000000
,
;
