#TITLE:Just The Way You Are;
#SUBTITLE:Full Song;
#ARTIST:Bruno Mars;
#TITLETRANSLIT:;
#SUBTITLETRANSLIT:;
#ARTISTTRANSLIT:;
#CREDIT:;
#BANNER:Just The Way You Are (Full Song).png;
#BACKGROUND:Just The Way You Are (Full Song)-bg.png;
#LYRICSPATH:;
#CDTITLE:./CDTITLES/DanceDanceRevolution II.png;
#MUSIC:Just The Way You Are (Full Song).ogg;
#OFFSET:0.000;
#SAMPLESTART:52.800;
#SAMPLELENGTH:15.000;
#SELECTABLE:YES;
#DISPLAYBPM:109.000;
#BPMS:0.000=109.002;
#STOPS:;
#BGCHANGES:;

//---------------dance-single - ----------------
#NOTES:
     dance-single:
     :
     Beginner:
     1:
     0.087,0.129,0.004,0.089,0.000:
0000
0000
0000
0000
,
0000
0000
0000
0000
,
0000
0000
0000
0000
,
0000
0000
0000
0000
,
0000
0000
0000
0000
,
0000
0000
0000
0000
,
0000
0000
0000
0000
,
0000
0000
0000
0000
,
0000
0000
0000
0000
,
0001
0000
0000
0000
,
0010
0000
0000
0000
,
1000
0000
0000
0000
,
0010
0000
0000
0000
,
0001
0000
0010
0000
,
1000
0000
0010
0000
,
0002
0000
0000
0003
,
0000
0000
0000
0000
,
1000
0000
0000
0000
,
0010
0000
0000
0000
,
0001
0000
0000
0000
,
0010
0000
0000
0000
,
1000
0000
0010
0000
,
0001
0000
0010
0000
,
2000
0000
0000
3000
,
0000
0000
0000
0000
,
0001
0000
1000
0000
,
0001
0000
0010
0000
,
0001
0000
0100
0000
,
0010
0000
0000
0000
,
1000
1000
1000
0000
,
0010
0010
0010
0000
,
0002
0000
0000
0003
,
0000
0000
0000
0000
,
0001
0000
1000
0000
,
0001
0000
0010
0000
,
0001
0000
0100
0000
,
0010
0000
0000
0000
,
1000
1000
1000
0000
,
0010
0010
0010
0000
,
0002
0000
0000
0003
,
0000
0000
0000
0000
,
1000
0000
0000
0000
,
0010
0000
0000
0000
,
0001
0000
0000
0000
,
0010
0000
0000
0000
,
1000
0000
0010
0000
,
0001
0000
0010
0000
,
2000
0000
0000
3000
,
0000
0000
0000
0000
,
0001
0000
0000
0000
,
0010
0000
0000
0000
,
1000
0000
0000
0000
,
0010
0000
0000
0000
,
0001
0000
0010
0000
,
1000
0000
0010
0000
,
0002
0000
0000
0003
,
0000
0000
0000
0000
,
1000
0000
0001
0000
,
1000
0000
0010
0000
,
1000
0000
0100
0000
,
0010
0000
0000
0000
,
0001
0001
0001
0000
,
0010
0010
0010
0000
,
2000
0000
0000
3000
,
0000
0000
0000
0000
,
1000
0000
0001
0000
,
1000
0000
0010
0000
,
1000
0000
0100
0000
,
0010
0000
0000
0000
,
0001
0001
0001
0000
,
0010
0010
0010
0000
,
2000
0000
0000
3000
,
0000
0000
0000
0000
,
0001
0000
0010
0000
,
0100
0000
1000
0000
,
1000
0000
0010
0000
,
0100
0000
0001
0000
,
0020
0030
0000
0000
,
0200
0300
0000
0000
,
2002
0000
3003
0000
,
0000
0000
0000
0000
,
1000
0000
0000
0000
,
0000
0000
0000
0000
,
0010
0000
0000
0000
,
0000
0000
0000
0000
,
0001
0000
0000
0000
,
0000
0000
0000
0000
,
0100
0000
0000
0000
,
0000
0000
0000
0000
,
2000
0000
3000
0000
,
0020
0000
0030
0000
,
0002
0000
0003
0000
,
0200
0000
0300
0000
,
2000
0000
3000
0000
,
0002
0000
0003
0000
,
0020
0000
0030
0000
,
0200
0000
0300
0000
,
;

//---------------dance-single - ----------------
#NOTES:
     dance-single:
     :
     Easy:
     3:
     0.152,0.192,0.000,0.111,0.000:
0000
0000
0000
0000
,
0000
0000
0000
0000
,
0000
0000
0000
0000
,
0000
0000
0000
0000
,
0000
0000
0000
0000
,
0000
0000
0000
0000
,
0000
0000
0000
0000
,
0000
0000
0000
0000
,
0000
0000
0000
0000
,
0001
0000
0001
0000
,
0010
0001
1000
0000
,
0010
0000
0010
0000
,
1000
0001
0100
0000
,
2000
0000
3001
0000
,
0002
0000
0013
0000
,
1000
0000
0001
0000
,
0100
0000
0000
0000
,
1000
0000
1000
0000
,
0010
1000
0001
0000
,
0010
0000
0010
0000
,
0001
1000
0100
0000
,
0002
0000
1003
0000
,
2000
0000
3010
0000
,
0001
0000
1000
0000
,
0100
0000
0000
0000
,
1000
1000
0100
0100
,
2000
0000
3000
0000
,
0010
0010
0001
0001
,
0020
0000
0030
0000
,
0001
0001
1000
1000
,
0001
0000
0100
0000
,
0010
0000
1000
0000
,
0001
1000
0002
0003
,
0001
0001
0100
0100
,
0002
0000
0003
0000
,
0010
0010
1000
1000
,
0020
0000
0030
0000
,
1000
1000
0001
0001
,
1000
0000
0100
0000
,
0010
0000
0001
0000
,
1000
0001
2000
3000
,
1000
0000
1000
0000
,
0010
1000
0001
0000
,
0010
0000
0010
0000
,
0001
1000
0100
0000
,
0002
0000
1003
0000
,
2000
0000
3010
0000
,
0001
0000
1000
0000
,
0100
0000
0000
0000
,
0001
0000
0001
0000
,
0010
0001
1000
0000
,
0010
0000
0010
0000
,
1000
0001
0100
0000
,
2000
0000
3001
0000
,
0002
0000
0013
0000
,
1000
0000
0001
0000
,
0100
0000
0000
0000
,
0001
0001
0100
0100
,
0002
0000
0003
0000
,
0010
0010
1000
1000
,
0020
0000
0030
0000
,
1000
1000
0001
0001
,
1000
0000
0100
0000
,
0010
0000
0001
0000
,
1000
0001
2000
3000
,
1000
1000
0100
0100
,
2000
0000
3000
0000
,
0010
0010
0001
0001
,
0020
0000
0030
0000
,
0001
0001
1000
1000
,
0001
0000
0100
0000
,
0010
0000
1000
0000
,
0001
1000
0002
0003
,
1000
0100
1000
0100
,
0020
0000
0030
0000
,
0001
0010
0001
0010
,
0200
0000
0300
0000
,
1000
1000
0001
0001
,
0100
0100
0010
0010
,
1000
0000
0001
1000
,
0001
0010
0200
0300
,
0010
0000
0010
0000
,
0100
0000
0010
0000
,
0001
0000
0100
0000
,
1000
0000
0010
0000
,
0002
0003
2000
3000
,
0001
0010
0100
1000
,
0001
0000
0000
0000
,
0000
0000
0000
0000
,
1000
0001
1000
0000
,
0001
0010
0001
0000
,
1000
0100
1000
0000
,
0001
0100
0001
0000
,
0010
1000
0010
0000
,
0100
0001
0100
0000
,
0001
0100
0010
1000
,
0001
0000
0000
0000
;

//---------------dance-single - ----------------
#NOTES:
     dance-single:
     :
     Medium:
     6:
     0.250,0.278,0.018,0.129,0.000:
0000
0000
0000
0000
,
0000
0000
0000
0000
,
0000
0000
0000
0000
,
0000
0000
0000
0000
,
0000
0000
0000
0000
,
0000
0000
0000
0000
,
0000
0000
0000
0000
,
0000
0000
0000
0000
,
0000
0000
0000
0000
,
0001
0100
1000
0100
,
0010
0000
0001
0100
0001
0000
0010
0000
,
0100
1000
0100
0001
,
0100
0000
1000
0010
1000
0010
1000
0000
,
0000
0000
0001
0000
1000
0010
0200
0000
,
0000
0000
0310
0000
1000
0010
0200
0000
,
0000
1000
0000
0301
,
1000
0010
1000
0000
0001
0000
1000
0000
,
1000
0100
0001
0100
,
0010
0000
1000
0100
1000
0000
0010
0000
,
0100
0001
0100
1000
,
0100
0000
0001
0010
0001
0010
0001
0000
,
0000
0000
1000
0000
0001
0010
0200
0000
,
0000
0000
0310
0000
0001
0010
0200
0000
,
0000
0001
0000
1300
,
0001
0010
0001
0000
1000
0000
0001
0000
,
1000
0001
1000
0000
0100
0010
0100
0010
,
0002
0000
1000
1003
,
0010
0001
0010
0000
0001
0100
0001
0100
,
0020
0000
1000
1030
,
0010
0010
1000
1000
,
0001
0001
0100
0100
,
0010
1000
0100
0001
,
0010
2000
0002
3003
,
0001
1000
0001
0000
0100
0010
0100
0001
,
2000
0000
0001
3100
,
0010
1000
0010
0000
1000
0100
1000
0001
,
0020
0000
0001
0130
,
0010
0010
0001
0011
,
1000
1000
0100
1100
,
0010
0001
0100
1000
,
0010
0002
2000
3003
,
0001
0100
1000
0100
,
0010
0000
0001
0100
0001
0000
0010
0000
,
0100
1000
0100
0001
,
0100
0000
1000
0010
1000
0010
1000
0000
,
0000
0000
0001
0000
1000
0010
0200
0000
,
0000
0000
0310
0000
1000
0010
0200
0000
,
0000
1000
0000
0301
,
1000
0010
1000
0000
0001
0000
1000
0000
,
1000
0100
0001
0100
,
0010
0000
1000
0100
1000
0000
0010
0000
,
0100
0001
0100
1000
,
0100
0000
0001
0010
0001
0010
0001
0000
,
0000
0000
1000
0000
0001
0010
0200
0000
,
0000
0000
0310
0000
0001
0010
0200
0000
,
0000
0001
0000
1300
,
0001
0010
0001
0000
1000
0000
0001
0000
,
1000
0001
1000
0000
0100
0010
0100
0010
,
0002
0000
1000
1003
,
0010
0001
0010
0000
0001
0100
0001
0100
,
0020
0000
1000
1030
,
0010
0010
1000
1000
,
0001
0001
0100
0100
,
0010
1000
0100
0001
,
0010
2000
0002
3003
,
0001
1000
0001
0000
0100
0010
0100
0001
,
2000
0000
0001
3100
,
0010
1000
0010
0000
1000
0100
1000
0001
,
0020
0000
0001
0130
,
0010
0010
0001
0011
,
1000
1000
0100
1100
,
0010
0001
0100
1000
,
0010
0002
2000
3003
,
0010
1000
0010
0000
0100
0001
0010
0100
,
2000
0000
0010
3100
,
0010
1000
0010
0000
1000
0001
0100
0001
,
0020
0000
1000
0130
,
0001
0100
1000
0000
0001
0010
1000
0000
,
0001
0100
1000
0001
,
0010
1000
0001
0100
,
2000
3002
0200
0303
,
0010
0000
0100
0010
,
0100
0000
0010
1000
,
0010
0000
0100
0001
,
0100
0000
0010
1000
,
0001
0010
0100
1000
,
0001
1000
0010
0100
,
0010
0000
0000
0000
,
0000
0000
0000
0000
,
1000
1000
0100
0000
,
0001
0001
0010
0000
,
1000
1000
0100
0001
,
0010
0010
1000
0001
,
0100
0010
0100
0010
,
1000
0010
0100
0001
,
1000
0000
0001
0100
,
0010
0000
0000
0000
,
;

//---------------dance-single - ----------------
#NOTES:
     dance-single:
     :
     Hard:
     9:
     0.309,0.342,0.053,0.191,0.022:
0000
0000
0000
0000
,
0000
0000
0000
0000
,
0000
0000
0000
0000
,
0000
0000
0000
0000
,
0000
0000
0000
0000
,
0000
0000
0000
0000
,
0000
0000
0000
0000
,
0000
0000
0000
0000
,
0000
0000
0000
0000
,
0001
0101
0100
1100
,
0010
0000
1000
0100
0010
0000
0101
0000
,
0001
1000
0001
1000
,
0100
0000
0010
0001
0100
0010
0100
0000
,
0000
0000
0001
0000
1000
0010
0002
0000
,
0000
0000
0013
0000
1000
0100
0002
0000
,
0100
1003
0010
0001
,
1000
0100
1000
0010
0100
0001
0100
0000
,
1000
1100
0001
0101
,
0010
0000
0001
0100
0010
0000
1100
0000
,
1000
0000
0001
0000
1000
0000
0001
0010
,
0100
0000
0010
1000
0100
0010
0100
0000
,
0000
0000
0100
0000
0001
0010
2000
0000
,
0000
0000
3010
0000
0001
0100
2000
0000
,
0100
3002
0010
1003
,
0001
0100
0001
0010
0100
1000
0100
0000
,
1000
0000
0001
0000
0010
0000
0000
0000
0100
0000
0001
0000
0010
0000
0001
0100
,
0002
0010
0100
1003
,
0010
0000
0001
0000
1000
0000
0000
0000
0100
0000
0010
0000
0001
0000
0100
0010
,
0200
0000
1000
0301
,
0010
1000
0010
0000
1000
0010
1000
0000
,
0001
0100
0001
0000
0100
0001
0100
0000
,
0010
1000
0100
0000
0010
0001
0100
0000
,
0020
2030
0002
3003
,
0001
0000
1000
0000
0010
0000
1000
0000
0100
0000
1000
0000
0010
0000
1000
0100
,
2000
0010
0100
3001
,
0010
0000
1000
0000
0001
0000
0000
0000
0100
0000
0010
0000
0001
0000
0100
0010
,
0200
1000
0001
1300
,
0010
0001
0010
0000
0001
0010
0002
0000
,
1003
0100
1000
0000
0100
1000
0200
0000
,
0310
0001
0100
0000
0010
1000
0200
0000
,
0320
0032
2000
3003
,
1000
1100
0100
0101
,
0010
0000
0001
0100
0010
0000
1100
0000
,
1000
0001
1000
0001
,
0100
0000
0010
1000
0100
0010
0100
0000
,
0000
0000
1000
0000
0001
0010
2000
0000
,
0000
0000
3010
0000
0001
0100
2000
0000
,
0100
3001
0010
1000
,
0001
0100
0001
0010
0100
1000
0100
0000
,
0001
0101
1000
1100
,
0010
0000
1000
0100
0010
0000
0101
0000
,
0001
0000
1000
0000
0001
0000
1000
0010
,
0100
0000
0010
0001
0100
0010
0100
0000
,
0000
0000
0100
0000
1000
0010
0002
0000
,
0000
0000
0013
0000
1000
0100
0002
0000
,
0100
2003
0010
3001
,
1000
0100
1000
0010
0100
0001
0100
0000
,
0001
0000
1000
0000
0010
0000
0000
0000
0100
0000
1000
0000
0010
0000
1000
0100
,
2000
0010
0100
3001
,
0010
0000
1000
0000
0001
0000
0000
0000
0100
0000
0010
0000
1000
0000
0100
0010
,
0200
0000
0001
1300
,
0010
0001
0010
0000
0001
0010
0001
0000
,
1000
0100
1000
0000
0100
1000
0100
0000
,
0010
0001
0100
0000
0010
1000
0100
0000
,
0020
0032
2000
3003
,
1000
0000
0001
0000
0010
0000
0001
0000
0100
0000
0001
0000
0010
0000
0001
0100
,
0002
0010
0100
1003
,
0010
0000
0001
0000
1000
0000
0000
0000
0100
0000
0010
0000
1000
0000
0100
0010
,
0200
0001
1000
0301
,
0010
1000
0010
0000
1000
0010
2000
0000
,
3001
0100
0001
0000
0100
0001
0200
0000
,
0310
1000
0100
0000
0010
0001
0200
0000
,
0320
2030
0002
3003
,
0100
0000
1000
0000
0010
0000
0100
0000
0010
0000
1000
0000
0010
0000
0100
0010
,
2000
0100
0001
3010
,
0100
0000
0001
0000
0010
0000
0001
0000
0100
0000
0001
0000
0010
0000
0100
0010
,
0002
0010
1000
0103
,
1000
0100
0001
0000
1000
0010
0001
0000
,
0001
0100
1000
0001
0010
1000
0200
0000
,
0310
0000
0001
0000
1000
0001
2000
0000
,
3200
0320
0200
0330
,
1000
0000
0100
0010
,
0100
0000
0010
0001
,
0100
0000
1000
0010
,
0001
0000
1000
0100
,
0001
0010
0100
1000
,
0010
0001
1000
0010
,
0100
0000
0000
0000
,
0000
0000
0000
0000
,
1000
0100
1000
0100
,
0001
0010
0001
0010
,
0100
1000
0100
1000
,
0010
0001
0010
0001
,
0100
0010
0100
0010
,
1000
0010
0001
0010
,
1000
0100
0001
0100
,
0010
0000
0000
0000
,
;

//---------------dance-double - ----------------
#NOTES:
     dance-double:
     :
     Easy:
     4:
     0.160,0.192,0.000,0.165,0.000: // measure 1
00000000
00000000
00000000
00000000
,  // measure 2
00000000
00000000
00000000
00000000
,  // measure 3
00000000
00000000
00000000
00000000
,  // measure 4
00000000
00000000
00000000
00000000
,  // measure 5
00000000
00000000
00000000
00000000
,  // measure 6
00000000
00000000
00000000
00000000
,  // measure 7
00000000
00000000
00000000
00000000
,  // measure 8
00000000
00000000
00000000
00000000
,  // measure 9
00000000
00000000
00000000
00000000
,  // measure 10
00010000
00000000
00010000
00000000
,  // measure 11
00100000
00010000
10000000
00000000
,  // measure 12
01000000
00000000
00010000
00000000
,  // measure 13
00001000
00010000
00000100
00000000
,  // measure 14
00000020
00000000
00000031
00000000
,  // measure 15
00000200
00000000
00001300
00000000
,  // measure 16
00010000
00000000
00001000
00000000
,  // measure 17
00000010
00000000
00000000
00000000
,  // measure 18
00001000
00000000
00001000
00000000
,  // measure 19
00000010
00001000
00000001
00000000
,  // measure 20
00000100
00000000
00001000
00000000
,  // measure 21
00010000
00001000
01000000
00000000
,  // measure 22
00200000
00000000
10300000
00000000
,  // measure 23
02000000
00000000
03010000
00000000
,  // measure 24
00001000
00000000
00010000
00000000
,  // measure 25
00100000
00000000
00000000
00000000
,  // measure 26
10000000
10000000
01000000
01000000
,  // measure 27
00200000
00000000
00300000
00000000
,  // measure 28
00010000
00010000
00001000
00001000
,  // measure 29
00000020
00000000
00000030
00000000
,  // measure 30
00000100
00000100
00000001
00000001
,  // measure 31
00000200
00000300
00002000
00003000
,  // measure 32
00020000
00030000
00200000
00300000
,  // measure 33
10000000
00010000
10000000
00000000
,  // measure 34
10000000
10000000
00100000
00100000
,  // measure 35
02000000
00000000
03000000
00000000
,  // measure 36
00010000
00010000
00001000
00001000
,  // measure 37
00000200
00000000
00000300
00000000
,  // measure 38
00000010
00000010
00000001
00000001
,  // measure 39
00000020
00000030
00002000
00003000
,  // measure 40
00020000
00030000
02000000
03000000
,  // measure 41
10000000
00010000
10000000
00000000
,  // measure 42
00010000
00000000
00010000
00000000
,  // measure 43
00100000
00010000
10000000
00000000
,  // measure 44
01000000
00000000
00010000
00000000
,  // measure 45
00001000
00010000
00000100
00000000
,  // measure 46
00000020
00000000
00000031
00000000
,  // measure 47
00000200
00000000
00001300
00000000
,  // measure 48
00010000
00000000
00001000
00000000
,  // measure 49
00000010
00000000
00000000
00000000
,  // measure 50
00001000
00000000
00001000
00000000
,  // measure 51
00000010
00001000
00000001
00000000
,  // measure 52
00000100
00000000
00001000
00000000
,  // measure 53
00010000
00001000
01000000
00000000
,  // measure 54
00200000
00000000
10300000
00000000
,  // measure 55
02000000
00000000
03010000
00000000
,  // measure 56
00001000
00000000
00010000
00000000
,  // measure 57
00100000
00000000
00000000
00000000
,  // measure 58
10000000
10000000
01000000
01000000
,  // measure 59
00200000
00000000
00300000
00000000
,  // measure 60
00010000
00010000
00001000
00001000
,  // measure 61
00000020
00000000
00000030
00000000
,  // measure 62
00000100
00000100
00000001
00000001
,  // measure 63
00000200
00000300
00002000
00003000
,  // measure 64
00020000
00030000
00200000
00300000
,  // measure 65
10000000
00010000
10000000
00000000
,  // measure 66
10000000
10000000
00100000
00100000
,  // measure 67
02000000
00000000
03000000
00000000
,  // measure 68
00010000
00010000
00001000
00001000
,  // measure 69
00000200
00000000
00000300
00000000
,  // measure 70
00000010
00000010
00000001
00000001
,  // measure 71
00000020
00000030
00002000
00003000
,  // measure 72
00020000
00030000
02000000
03000000
,  // measure 73
10000000
00010000
10000000
00000000
,  // measure 74
10000000
01000000
10000000
01000000
,  // measure 75
00200000
00000000
00300000
00000000
,  // measure 76
00001000
00010000
00001000
00010000
,  // measure 77
00000200
00000000
00000300
00000000
,  // measure 78
00000010
00000001
00001000
00000100
,  // measure 79
00010000
00001000
00100000
00010000
,  // measure 80
10000000
00000000
00100000
01000000
,  // measure 81
00001000
00100000
02000000
03000000
,  // measure 82
10000000
00000000
10000000
00000000
,  // measure 83
01000000
00000000
00100000
00000000
,  // measure 84
00001000
00000000
00001000
00000000
,  // measure 85
00000010
00000000
00000001
00000000
,  // measure 86
00000200
00000300
00000002
00000003
,  // measure 87
00000010
00000100
00010000
00001000
,  // measure 88
00100000
00000000
00000000
00000000
,  // measure 89
00000000
00000000
00000000
00000000
,  // measure 90
10000000
00010000
10000000
00000000
,  // measure 91
00010000
00100000
00010000
00000000
,  // measure 92
00100000
00001000
00100000
00000000
,  // measure 93
00010000
00001000
00010000
00000000
,  // measure 94
00000010
00000100
00000010
00000000
,  // measure 95
00001000
00000100
00001000
00000000
,  // measure 96
00000001
00000010
00000100
00010000
,  // measure 97
00001000
00000000
00000000
00000000
;

//---------------dance-double - ----------------
#NOTES:
     dance-double:
     :
     Medium:
     6:
     0.244,0.278,0.000,0.125,0.000:
00000000
00000000
00000000
00000000
,
00000000
00000000
00000000
00000000
,
00000000
00000000
00000000
00000000
,
00000000
00000000
00000000
00000000
,
00000000
00000000
00000000
00000000
,
00000000
00000000
00000000
00000000
,
00000000
00000000
00000000
00000000
,
00000000
00000000
00000000
00000000
,
00000000
00000000
00000000
00000000
,
00010000
01000000
10000000
01000000
,
00100000
00000000
01000000
00010000
01000000
00000000
00100000
00000000
,
00010000
00001000
00000100
00001000
,
00010000
00000000
00001000
00000100
00000010
00000100
00001000
00000000
,
00000000
00000000
00000010
00000000
00001000
00000100
00020000
00000000
,
00000000
00000000
00031000
00000000
00100000
00001000
02000000
00000000
,
00000000
00100000
00000000
03010000
,
00100000
00010000
00001000
00000010
,
00001000
00000100
00000001
00000100
,
00000010
00000000
00000100
00001000
00000100
00000000
00000010
00000000
,
00001000
00010000
01000000
00010000
,
00001000
00000000
00010000
01000000
00100000
01000000
00010000
00000000
,
00000000
00000000
00100000
00000000
00010000
01000000
00002000
00000000
,
00000000
00000000
00013000
00000000
00000010
00010000
00000200
00000000
,
00000000
00000010
00000000
00001300
,
00000010
00001000
00010000
00100000
,
10000000
00010000
10000000
00000000
01000000
00100000
01000000
00100000
,
00002000
00000000
00010000
00013000
,
00100000
00001000
00100000
00000000
00001000
00010000
00001000
00010000
,
00000200
00000000
00000010
00000310
,
00000100
00000100
00000001
00000001
,
00001000
00001000
00000100
00000100
,
00010000
00001000
01000000
00100000
,
10000000
02000000
00200000
03300000
,
10000000
00010000
10000000
00000000
00100000
01000000
00100000
01000000
,
00002000
00000000
00010000
00013000
,
01000000
00001000
01000000
00000000
00001000
00010000
00001000
00010000
,
00000020
00000000
00000100
00000130
,
00000010
00000010
00000001
00000001
,
00001000
00001000
00000010
00000010
,
00010000
00001000
00100000
01000000
,
10000000
00200000
02000000
03300000
,
00010000
00100000
10000000
00100000
,
01000000
00000000
00100000
00010000
00100000
00000000
01000000
00000000
,
00010000
00001000
00000010
00001000
,
00010000
00000000
00001000
00000010
00000100
00000010
00001000
00000000
,
00000000
00000000
00000100
00000000
00001000
00000010
00020000
00000000
,
00000000
00000000
00031000
00000000
01000000
00001000
00200000
00000000
,
00000000
01000000
00000000
00310000
,
01000000
00010000
00001000
00000100
,
00001000
00000010
00000001
00000010
,
00000100
00000000
00000010
00001000
00000010
00000000
00000100
00000000
,
00001000
00010000
00100000
00010000
,
00001000
00000000
00010000
00100000
01000000
00100000
00010000
00000000
,
00000000
00000000
01000000
00000000
00010000
00100000
00002000
00000000
,
00000000
00000000
00013000
00000000
00000100
00010000
00000020
00000000
,
00000000
00000100
00000000
00001030
,
00000100
00001000
00010000
01000000
,
10000000
00010000
10000000
00000000
00100000
01000000
00100000
01000000
,
00002000
00000000
00010000
00013000
,
01000000
00001000
01000000
00000000
00001000
00010000
00001000
00010000
,
00000020
00000000
00000100
00000130
,
00000010
00000010
00000001
00000001
,
00001000
00001000
00000010
00000010
,
00010000
00001000
00100000
01000000
,
10000000
00200000
02000000
03300000
,
10000000
00010000
10000000
00000000
01000000
00100000
01000000
00100000
,
00002000
00000000
00010000
00013000
,
00100000
00001000
00100000
00000000
00001000
00010000
00001000
00010000
,
00000200
00000000
00000010
00000310
,
00000100
00000100
00000001
00000001
,
00001000
00001000
00000100
00000100
,
00010000
00001000
01000000
00100000
,
10000000
02000000
00200000
03300000
,
00100000
00001000
00100000
00000000
00001000
00010000
01000000
10000000
,
00020000
00000000
00100000
01030000
,
10000000
01000000
10000000
00000000
01000000
00100000
00001000
00010000
,
00002000
00000000
00100000
01003000
,
00010000
01000000
00100000
00000000
00010000
00001000
00000100
00000000
,
00000001
00000100
00001000
00010000
,
00100000
10000000
00010000
01000000
,
00100000
20000000
02000000
33000000
,
00100000
00000000
01000000
00100000
,
00010000
00000000
00001000
00010000
,
00000010
00000000
00001000
00000010
,
00000100
00000000
00000001
00000100
,
00001000
00001000
00010000
00010000
,
00001000
00100000
00010000
10000000
,
01000000
00000000
00000000
00000000
,
00000000
00000000
00000000
00000000
,
10000000
10000000
01000000
00000000
,
00010000
00010000
00100000
00000000
,
00001000
00001000
00010000
00000010
,
00001000
00001000
00000100
00000001
,
00000100
00001000
00000100
00001000
,
00000100
00010000
00001000
00001000
,
01000000
00000000
00001000
00010000
,
00001000
00000000
00000000
00000000
,
;

//---------------dance-double - ----------------
#NOTES:
     dance-double:
     :
     Hard:
     9:
     0.289,0.342,0.036,0.147,0.022:
00000000
00000000
00000000
00000000
,
00000000
00000000
00000000
00000000
,
00000000
00000000
00000000
00000000
,
00000000
00000000
00000000
00000000
,
00000000
00000000
00000000
00000000
,
00000000
00000000
00000000
00000000
,
00000000
00000000
00000000
00000000
,
00000000
00000000
00000000
00000000
,
00000000
00000000
00000000
00000000
,
00010000
01010000
01000000
11000000
,
00100000
00000000
10000000
01000000
00100000
00001000
00010000
00000000
,
00001000
00000100
00001000
00000100
,
00000001
00000000
00000010
00000100
00010000
00001000
00000100
00000000
,
00000000
00000000
00000001
00000000
00000100
00001000
00020000
00000000
,
00000000
00000000
00130000
00000000
00010000
00001000
00000200
00000000
,
00000000
00000310
00001000
00000001
,
00000010
00000000
00000010
00000100
00010000
00001000
00010000
00000000
,
00001000
00001100
00000100
00000101
,
00000010
00000000
00000001
00000100
00000010
00010000
00001000
00000000
,
00010000
01000000
00010000
01000000
,
10000000
00000000
00100000
01000000
00001000
00010000
01000000
00000000
,
00000000
00000000
10000000
00000000
01000000
00010000
00002000
00000000
,
00000000
00000000
00003010
00000000
00001000
00010000
02000000
00000000
,
00000000
03100000
00010000
10000000
,
00100000
00000000
00100000
01000000
00001000
00010000
00001000
00000000
,
00100000
00000000
00010000
00000000
00100000
00000000
00000000
00000000
01000000
00000000
00100000
00000000
00001000
00000000
00010000
00001000
,
00020000
00000010
00001000
00030100
,
00001000
00000000
00000000
00000000
00000100
00000000
00000000
00000000
00000010
00000000
00000001
00000000
00000100
00000000
00000010
00001000
,
00000020
00010000
00001000
00000130
,
00000010
00000000
00000010
00000000
00001000
00000100
00001000
00000000
,
00000100
00000000
00000100
00000000
00010000
00001000
00010000
00000000
,
00001000
00100000
01000000
00000000
10000000
00100000
01000000
00000000
,
00200000
20300000
00020000
30030000
,
01000000
00000000
00010000
00000000
01000000
00000000
00000000
00000000
00100000
00000000
01000000
00000000
00001000
00000000
00010000
00001000
,
00020000
00000100
00001000
00030010
,
00001000
00000000
00000000
00000000
00000010
00000000
00000000
00000000
00000100
00000000
00000001
00000000
00000010
00000000
00000100
00001000
,
00000200
00010000
00001000
00000310
,
00000100
00000000
00000100
00000000
00001000
00000010
00001000
00000000
,
00000010
00000000
00000010
00000000
00010000
00001000
00010000
00000000
,
00001000
01000000
00100000
00000000
10000000
01000000
00100000
00000000
,
02000000
23000000
00020000
30030000
,
00010000
01010000
01000000
11000000
,
00100000
00000000
10000000
01000000
00100000
00001000
00010000
00000000
,
00001000
00000100
00001000
00000100
,
00000001
00000000
00000010
00000100
00010000
00001000
00000100
00000000
,
00000000
00000000
00000001
00000000
00000100
00001000
00020000
00000000
,
00000000
00000000
00130000
00000000
00010000
00001000
00000200
00000000
,
00000000
00000310
00001000
00000001
,
00000010
00000000
00000010
00000100
00010000
00001000
00010000
00000000
,
00001000
00001100
00000100
00000101
,
00000010
00000000
00000001
00000100
00000010
00010000
00001000
00000000
,
00010000
01000000
00010000
01000000
,
10000000
00000000
00100000
01000000
00001000
00010000
01000000
00000000
,
00000000
00000000
10000000
00000000
01000000
00010000
00002000
00000000
,
00000000
00000000
00003010
00000000
00001000
00010000
02000000
00000000
,
00000000
03100000
00010000
10000000
,
00100000
00000000
00100000
01000000
00001000
00010000
00001000
00000000
,
00100000
00000000
00010000
00000000
00100000
00000000
00000000
00000000
01000000
00000000
00100000
00000000
00001000
00000000
00010000
00001000
,
00020000
00000010
00001000
00030100
,
00001000
00000000
00000000
00000000
00000100
00000000
00000000
00000000
00000010
00000000
00000001
00000000
00000100
00000000
00000010
00001000
,
00000020
00010000
00001000
00000130
,
00000010
00000000
00000010
00000000
00001000
00000100
00001000
00000000
,
00000100
00000000
00000100
00000000
00010000
00001000
00010000
00000000
,
00001000
00100000
01000000
00000000
10000000
00100000
01000000
00000000
,
00200000
20300000
00020000
30030000
,
01000000
00000000
00010000
00000000
01000000
00000000
00000000
00000000
00100000
00000000
01000000
00000000
00001000
00000000
00010000
00001000
,
00020000
00000100
00001000
00030010
,
00001000
00000000
00000000
00000000
00000010
00000000
00000000
00000000
00000100
00000000
00000001
00000000
00000010
00000000
00000100
00001000
,
00000200
00010000
00001000
00000310
,
00000100
00000000
00000100
00000000
00001000
00000010
00001000
00000000
,
00000010
00000000
00000010
00000000
00010000
00001000
00010000
00000000
,
00001000
01000000
00100000
00000000
10000000
01000000
00100000
00000000
,
02000000
23000000
00020000
30030000
,
00100000
00000000
00001000
00000000
00100000
00000000
00010000
00000000
00100000
00000000
00001000
00000000
00100000
00000000
00010000
00100000
,
00002000
01000000
00010000
00103000
,
00001000
00000000
00010000
00000000
00001000
00000000
00100000
00000000
00001000
00000000
00010000
00000000
00001000
00000000
00100000
00001000
,
00020000
00000100
00001000
00030010
,
00010000
00001000
00000100
00000000
00010000
00001000
00000100
00000000
,
00000010
00000001
00001000
00000100
00010000
00001000
00100000
00000000
,
00010000
00000000
10000000
00000000
00100000
01000000
00001000
00000000
,
00020000
00030200
00000020
00000330
,
00000001
00000000
00000100
00001000
,
01000000
00000000
00100000
10000000
,
01000000
00000000
00100000
00001000
,
00000010
00000000
00000001
00001000
,
00010000
00100000
01000000
10000000
,
00100000
10000000
00010000
00100000
,
01000000
00000000
00000000
00000000
,
00000000
00000000
00000000
00000000
,
10000000
01000000
10000000
01000000
,
00100000
00001000
00100000
00001000
,
00000100
00000010
00000100
00000010
,
00000001
00001000
00000001
00001000
,
00010000
00001000
00010000
00001000
,
00100000
10000000
00010000
00100000
,
01000000
10000000
00010000
00001000
,
00000100
00000000
00000000
00000000
,
;
