#TITLE:Just A Dream;
#SUBTITLE:Short Song;
#ARTIST:Nelly;
#TITLETRANSLIT:;
#SUBTITLETRANSLIT:;
#ARTISTTRANSLIT:;
#CREDIT:;
#BANNER:Just A Dream.png;
#BACKGROUND:Just A Dream-bg.png;
#LYRICSPATH:;
#CDTITLE:./CDTITLES/DanceDanceRevolution II.png;
#MUSIC:../Just A Dream (Full Song)/Just A Dream (Full Song).ogg;
#OFFSET:0.000;
#SAMPLESTART:23.940;
#SAMPLELENGTH:15.000;
#SELECTABLE:YES;
#DISPLAYBPM:90.000;
#BPMS:0.000=90.000;
#STOPS:;
#BGCHANGES:;

//---------------dance-single - ----------------
#NOTES:
     dance-single:
     :
     Beginner:
     1:
     0.032,0.045,0.008,0.016,0.000:
0000
0000
0000
0000
,
0000
0000
0000
0000
,
0000
0000
0000
0000
,
0000
0000
0000
0000
,
0000
0000
0000
0000
,
1000
0000
0000
0000
,
0001
0000
0000
0000
,
0010
0000
0000
0000
,
0100
0000
0000
0000
,
0001
0000
0001
0000
,
1000
0000
1000
0000
,
0001
0000
0010
0000
,
1000
0000
0010
0000
,
0001
0000
0001
0000
,
1000
0000
1000
0000
,
0001
0000
0010
0000
,
1001
0000
0000
0000
,
1000
0000
0000
0000
,
0010
0000
0000
0000
,
0100
0000
0000
0000
,
0001
0000
0000
0000
,
1000
0000
1000
0000
,
0010
0000
0000
0000
,
0001
0000
0001
0000
,
0100
0000
0000
0000
,
0002
0003
0000
0000
,
0020
0030
0000
0000
,
0200
0300
0000
0000
,
2000
0000
3000
0000
,
0001
0000
0001
0000
,
1000
0000
1000
0000
,
0001
0000
0010
0000
,
1000
0000
0010
0000
,
0001
0000
0001
0000
,
1000
0000
1000
0000
,
0001
0000
0010
0000
,
1001
0000
0000
0000
,
;

//---------------dance-single - ----------------
#NOTES:
     dance-single:
     :
     Easy:
     4:
     0.048,0.053,0.000,0.033,0.000: // measure 1
0000
0000
0000
0000
,  // measure 2
0000
0000
0000
0000
,  // measure 3
0000
0000
0000
0000
,  // measure 4
0000
0000
0000
0000
,  // measure 5
0000
0000
0000
0000
,  // measure 6
0001
0000
0001
0000
,  // measure 7
0010
0000
0010
0000
,  // measure 8
1000
0000
1000
0000
,  // measure 9
0100
0000
0100
0000
,  // measure 10
1000
1000
0001
0000
,  // measure 11
1000
1000
0010
0000
,  // measure 12
0100
0100
0010
0000
,  // measure 13
0020
0000
0000
0030
,  // measure 14
0001
0001
1000
0000
,  // measure 15
0001
0001
0010
0000
,  // measure 16
0100
0100
0010
0000
,  // measure 17
2000
0000
0000
3000
,  // measure 18
0001
0000
0100
0000
,  // measure 19
0001
0000
0010
0000
,  // measure 20
1000
0000
0100
0000
,  // measure 21
1000
0001
1000
0000
,  // measure 22
1000
0000
0100
0000
,  // measure 23
1000
0000
0010
0000
,  // measure 24
0001
0000
0100
0000
,  // measure 25
0001
1000
0001
0000
,  // measure 26
2000
0000
3100
0000
,  // measure 27
2000
0000
3001
0000
,  // measure 28
2000
0000
3010
0000
,  // measure 29
0200
0000
0000
0300
,  // measure 30
1000
1000
0001
0000
,  // measure 31
1000
1000
0010
0000
,  // measure 32
0100
0100
0010
0000
,  // measure 33
0020
0000
0000
0030
,  // measure 34
0001
0001
1000
0000
,  // measure 35
0001
0001
0010
0000
,  // measure 36
0100
0100
0010
0000
,  // measure 37
2000
0000
0000
3000
;

//---------------dance-single - ----------------
#NOTES:
     dance-single:
     :
     Medium:
     6:
     0.090,0.114,0.016,0.054,0.000:
0000
0000
0000
0000
,
0000
0000
0000
0000
,
0000
0000
0000
0000
,
0000
0000
0000
0000
,
0000
0000
0000
0000
,
1000
1000
0010
0010
,
0100
0100
0001
0001
,
0010
0010
0001
0001
,
1000
1000
0001
0001
,
1000
0100
0010
0001
,
0100
0000
0100
0000
0010
0100
0110
0000
,
1000
0100
0001
0010
,
0002
0100
1003
0000
,
0001
0100
0010
1000
,
0100
0000
0100
0000
0010
0100
0110
0000
,
0001
0100
1000
0010
,
2000
0100
3001
0000
,
1000
0000
0100
0010
0001
0000
0100
0100
,
0001
0000
0010
0100
1000
0000
0001
0001
,
0100
0001
0100
1000
,
0200
0001
0301
0000
0020
1000
1030
0000
,
0001
0000
1000
0100
0010
0000
1000
1000
,
0010
0000
0100
1000
0001
0000
0010
0010
,
1000
0100
0001
0100
,
2000
0010
3010
0000
0200
0001
0301
0000
,
2000
0100
0010
3100
,
2000
0001
0100
3010
,
0200
1000
0001
0310
,
2000
0000
0200
3300
,
1000
0100
0010
0001
,
0100
0000
0100
0000
0010
0100
0110
0000
,
1000
0100
0001
0010
,
0002
0100
1003
0000
,
0001
0100
0010
1000
,
0100
0000
0100
0000
0010
0100
0110
0000
,
0001
0100
1000
0010
,
0200
0000
0000
0300
,
;

//---------------dance-single - ----------------
#NOTES:
     dance-single:
     :
     Hard:
     8:
     0.120,0.144,0.033,0.103,0.000:
0000
0000
0000
0000
,
0000
0000
0000
0000
,
0000
0000
0000
0000
,
0000
0000
0000
0000
,
0000
0000
0000
0000
,
1000
0010
1000
0010
,
0100
0001
0100
0001
,
0010
0001
0010
0001
,
1000
0100
1000
0100
,
1000
0100
0010
0001
0100
0000
0100
0010
,
0100
0000
0001
0010
0011
0000
0100
1000
,
1100
0000
0010
0001
0100
0010
1000
0001
,
0200
0010
0001
0310
,
0001
0100
0010
1000
0100
0000
0100
0010
,
0100
0000
1000
0010
1010
0000
0100
0001
,
0101
0000
0010
1000
0100
0010
0001
1000
,
0200
0010
1000
0310
,
1000
0000
0001
1000
0020
0100
0130
0010
,
2000
0000
3100
0001
0200
1000
1300
0100
,
0000
0010
0000
0010
,
0001
0200
0010
0320
1000
2030
0100
3100
,
0000
0000
0001
1000
0020
0100
0130
0001
,
0020
0000
0130
1000
0200
0001
0301
0100
,
1000
0010
0000
0010
,
1000
0020
0100
0230
0001
0302
0010
0013
,
0200
0001
1000
0320
,
0032
0100
1000
0023
,
0230
0001
0010
2300
,
0020
3000
0200
0330
,
0001
0100
0010
1000
0100
0000
0100
0010
,
0100
0000
1000
0010
1010
0000
0100
0001
,
0101
0000
0010
1000
0100
0010
0001
1000
,
0200
0010
1000
0310
,
1000
0100
0010
0001
0100
0000
0100
0010
,
0100
0000
0001
0010
0011
0000
0100
1000
,
1100
0000
0010
0001
0100
0010
1000
0020
,
0200
0000
0000
0330
,
;

//---------------dance-double - ----------------
#NOTES:
     dance-double:
     :
     Easy:
     4:
     0.051,0.061,0.000,0.037,0.000:
00000000
00000000
00000000
00000000
,
00000000
00000000
00000000
00000000
,
00000000
00000000
00000000
00000000
,
00000000
00000000
00000000
00000000
,
00000000
00000000
00000000
00000000
,
00010000
00000000
00010000
00000000
,
00100000
00000000
00100000
00000000
,
00001000
00000000
00001000
00000000
,
00000100
00000100
00000100
00000100
,
00000001
00000001
00001000
00000000
,
00000100
00000100
00010000
00000000
,
00001000
00001000
00100000
00000000
,
02000000
00000000
00000000
03000000
,
10000000
10000000
00010000
00000000
,
01000000
01000000
00001000
00000000
,
00010000
00010000
00000010
00000000
,
00000200
00000000
00000000
00000300
,
00000001
00000000
00000100
00000000
,
00001000
00000000
00010000
00000000
,
00100000
00000000
10000000
00000000
,
01000000
00100000
01000000
00000000
,
10000000
00000000
01000000
00000000
,
00100000
00000000
00010000
00000000
,
00100000
00000000
00001000
00000000
,
00000100
00000001
00000100
00000000
,
00000020
00000000
00001030
00000000
,
00000200
00000000
00010300
00000000
,
00002000
00000000
00013000
01000000
,
00200000
00000000
00000000
00300000
,
10000000
10000000
00010000
00000000
,
01000000
01000000
00001000
00000000
,
00010000
00010000
00000010
00000000
,
00000200
00000000
00000000
00000300
,
00000001
00000001
00001000
00000000
,
00000100
00000100
00010000
00000000
,
00001000
00001000
00100000
00000000
,
02000000
00000000
00200000
03300000
,
;

//---------------dance-double - ----------------
#NOTES:
     dance-double:
     :
     Medium:
     6:
     0.094,0.114,0.033,0.058,0.000:
00000000
00000000
00000000
00000000
,
00000000
00000000
00000000
00000000
,
00000000
00000000
00000000
00000000
,
00000000
00000000
00000000
00000000
,
00000000
00000000
00000000
00000000
,
00000001
00000001
00000010
00000010
,
00000100
00000100
00001000
00001000
,
00010000
00010000
01000000
01000000
,
00100000
00100000
10000000
10000000
,
01000000
00100000
00010000
00001000
,
00000100
00000000
00001001
00000000
00000010
00000100
00000110
00000000
,
00000001
00000010
00001000
00010000
,
02000000
00100000
13000000
00000000
,
00100000
01000000
00010000
00001000
,
00000010
00000000
00001001
00000000
00000100
00000010
00000110
00000000
,
00000001
00000100
00001000
00010000
,
00200000
01000000
10300000
00000000
,
00010000
00000000
01000000
00100000
10000000
00000000
01000000
01000000
,
00100000
00000000
00001000
00010000
00001000
00000000
00010000
00010000
,
00001000
00000000
00000100
00000000
00000010
00001000
00000001
00000000
,
00000020
00000100
00000130
00000000
00002000
00000100
00003100
00000000
,
00000010
00000000
00000001
00000100
00000010
00000000
00001000
00001000
,
00000100
00000000
00010000
00001000
00100000
00000000
01000000
01000000
,
10000000
01000000
00010000
01000000
,
00200000
00001000
00301000
00000000
00020000
00001000
00031000
00000000
,
00002000
01000000
00100000
00013000
,
00000020
00010000
00001000
00000130
,
00020000
00001000
00000010
00031000
,
02000000
00000000
00200000
03300000
,
01000000
00100000
00010000
00001000
,
00000100
00000000
00001001
00000000
00000010
00000100
00000110
00000000
,
00000001
00000010
00001000
00010000
,
02000000
00100000
13000000
00000000
,
00100000
01000000
00010000
00001000
,
00000010
00000000
00001001
00000000
00000100
00000010
00000110
00000000
,
00000001
00000100
00001000
00010000
,
00200000
00000000
02000000
03300000
,
;

//---------------dance-double - ----------------
#NOTES:
     dance-double:
     :
     Hard:
     8:
     0.132,0.136,0.074,0.066,0.000:
00000000
00000000
00000000
00000000
,
00000000
00000000
00000000
00000000
,
00000000
00000000
00000000
00000000
,
00000000
00000000
00000000
00000000
,
00000000
00000000
00000000
00000000
,
10000000
00100000
00010000
00001000
,
00100000
00001000
00000100
00000010
,
00010000
00000000
00000100
00000000
00000010
00000000
00000001
00000100
,
00001000
00000100
00000001
00000010
00001000
00000010
00001001
00000000
,
00000010
00000100
00001000
00000100
00010100
00000000
00010000
00001000
,
00001010
00000000
00000001
00000100
00000101
00000000
00001000
00010000
,
00011000
00010000
00100000
10000000
01000000
00100000
00001000
00010000
,
02000000
00100000
00010000
03100000
,
01000000
00100000
00010000
00100000
00101000
00000000
00001000
00010000
,
01010000
00000000
10000000
00100000
10100000
00000000
00010000
00001000
,
00011000
00001000
00000100
00000001
00000010
00000100
00010000
00001000
,
00000020
00000100
00001000
00000130
,
00000001
00000010
00000100
00001000
00020000
00001000
00031000
00010000
,
01000000
00100000
10000000
00010000
02000000
10000000
13000000
01000000
,
00010000
00000000
00100000
00000000
00001000
00010000
00100000
00000000
,
00010000
00001000
00010000
00100000
00010000
00001000
00000010
00000000
,
00000001
00000010
00001000
00000010
00000200
00000001
00000301
00000100
,
00001000
00000100
00010000
00001000
00020000
01000000
01030000
00010000
,
01000000
00000000
00100000
00000000
00010000
00001000
00011000
00000000
,
00010000
00001000
00000010
00001000
00010000
00000100
00010000
00001000
,
02000000
00010000
10000000
03200000
,
00320000
00001000
01000000
00032000
,
00003020
00000001
00000100
00000032
,
00000200
00000003
00000020
00000330
,
00000100
00000010
00001000
00000010
00010010
00000000
00010000
00001000
,
00001100
00000000
00000001
00000010
00000011
00000000
00001000
00010000
,
00011000
00010000
01000000
10000000
00100000
01000000
00001000
00010000
,
00200000
01000000
00010000
01300000
,
00100000
01000000
00010000
01000000
01001000
00000000
00001000
00010000
,
00110000
00000000
10000000
01000000
11000000
00000000
00010000
00001000
,
00011000
00001000
00000010
00000001
00000100
00000010
00010000
00001000
,
00000200
00000010
00001000
00000310
,
;
